Subcategories

Miles Davis - In Person Friday Night At The Blackhawk Vol.1 (1961) {2014 Japan Jazz Collection 1000 Columbia-RCA Series}

Posted By: ruskaval
Miles Davis - In Person Friday Night At The Blackhawk Vol.1 (1961) {2014 Japan Jazz Collection 1000 Columbia-RCA Series}

Miles Davis - In Person Friday Night At The Blackhawk, San Francisco Vol.1 (1961) {2014 Japan Jazz Collection 1000 Columbia-RCA Series SICP 3963}
EAC rip (secure mode) | FLAC (tracks)+CUE+LOG -> 416 Mb | MP3 @320 -> 146 Mb
Full Artwork @ 600 dpi (png) -> 178 Mb | 5% repair rar
© 1961, 2014 Columbia / Sony Music Japan | SICP 3963
Jazz / Cool / Bop / Hard Bop / Trumpet

Reissue with latest remastering. Comes with new liner notes. The first of two sets recorded during a weekend in 1961 features the Miles Davis Quintet at a period of time when Hank Mobley was on tenor and the rhythm section was comprised of pianist Wynton Kelly, bassist Paul Chambers, and drummer Jimmy Cobb. What is most remarkable is the way Kelly fits into this particular blend of the Miles band. Kelly's interplay with Chambers is especially brilliant, because his sense of blues phrasing inside counterpoint harmony is edgy and large, with left-hand chords in the middle register rather than sharp right-hand runs to accentuate choruses.
Miles Davis - In Person Friday Night At The Blackhawk Vol.1 (1961) {2014 Japan Jazz Collection 1000 Columbia-RCA Series}

Davis himself has never played with more intensity and muscularity on record than he does here. He is absolutely fierce, both on the Friday night and Saturday night sets. Kelly plays more like a drummer than a pianist, using gorgeously percussive left-hand comps and fills to add bottom to the front line's solos. Mobley displays his bebop rather than hard bop and groove sides here, and reveals his intricate knowledge of the bop phraseology; he sounds free of the baggage and responsibility that he replaced John Coltrane and Cannonball Adderley. This is an underappreciated group because of its relatively short life, but as evidenced here, the bandmembers swung fast and hard and never looked back. Hearing a dropped bassline, an out-of-time cymbal flourish, and a shortened series of phrases by Miles because he miscounted – you guess the track – adds to the charm of this being recorded as it was, without any cleanup. It is difficult to recommend this set over Saturday Night or vice versa; Miles fans will need both to fully appreciate how special this engagement with this particular band was.
Miles Davis - In Person Friday Night At The Blackhawk Vol.1 (1961) {2014 Japan Jazz Collection 1000 Columbia-RCA Series}


Personnel:
Miles Davis - trumpet
Hank Mobley - tenor saxophone
Wynton Kelly - piano
Paul Chambers - bass
Jimmy Cobb - drums

tracklist:
01 - Walkin'
02 - Bye Bye Blackbird
03 - All Of You
04 - No Blues
05 - Bye Bye (Theme)
06 - Love, I've Found You

Exact Audio Copy V1.0 beta 3 from 29. August 2011

EAC extraction logfile from 20. December 2014, 7:23

Miles Davis / In Person Friday Night At The Blackhawk, San Francisco Vol.1

Used drive : ATAPI iHAS124 B Adapter: 2 ID: 1

Read mode : Secure
Utilize accurate stream : Yes
Defeat audio cache : Yes
Make use of C2 pointers : No

Read offset correction : 6
Overread into Lead-In and Lead-Out : No
Fill up missing offset samples with silence : Yes
Delete leading and trailing silent blocks : No
Null samples used in CRC calculations : Yes
Used interface : Native Win32 interface for Win NT & 2000
Gap handling : Appended to previous track

Used output format : User Defined Encoder
Selected bitrate : 1024 kBit/s
Quality : High
Add ID3 tag : No
Command line compressor : C:\Program Files (x86)\FLAC Frontend\tools\flac.exe
Additional command line options : -8 -V -T "ARTIST=%artist%" -T "TITLE=%title%" -T "ALBUM=%albumtitle%" -T "DATE=%year%" -T "TRACKNUMBER=%tracknr%" -T "TOTALTRACKS=%numtracks%" -T "GENRE=%genre%" -T "ALBUMARTIST=%albumartist%" -T "ALBUM ARTIST=%albumartist%" -T "COMMENT=EAC Secure Mode, Test & Copy, AccurateRip, FLAC -8" %source%


TOC of the extracted CD

Track | Start | Length | Start sector | End sector
––––––––––––––––––––––––––––-
1 | 0:00.00 | 14:21.33 | 0 | 64607
2 | 14:21.33 | 9:54.62 | 64608 | 109219
3 | 24:16.20 | 15:35.38 | 109220 | 179382
4 | 39:51.58 | 17:17.15 | 179383 | 257172
5 | 57:08.73 | 2:41.47 | 257173 | 269294
6 | 59:50.45 | 1:54.38 | 269295 | 277882


Track 1

Filename C:\Miles Davis - In Person Friday Night At The Blackhawk, San Francisco Vol.1 (1961) {2014 Japan Jazz Collection 1000 Columbia-RCA Series}\01 - Walkin'.wav

Pre-gap length 0:00:02.00

Peak level 94.9 %
Extraction speed 4.8 X
Track quality 100.0 %
Test CRC 3E691270
Copy CRC 3E691270
Accurately ripped (confidence 1) [C2B10CD4] (AR v2)
Copy OK

Track 2

Filename C:\Miles Davis - In Person Friday Night At The Blackhawk, San Francisco Vol.1 (1961) {2014 Japan Jazz Collection 1000 Columbia-RCA Series}\02 - Bye Bye Blackbird.wav

Peak level 95.8 %
Extraction speed 5.8 X
Track quality 100.0 %
Test CRC 8B9843BE
Copy CRC 8B9843BE
Accurately ripped (confidence 1) [DE301AE1] (AR v2)
Copy OK

Track 3

Filename C:\Miles Davis - In Person Friday Night At The Blackhawk, San Francisco Vol.1 (1961) {2014 Japan Jazz Collection 1000 Columbia-RCA Series}\03 - All Of You.wav

Peak level 95.6 %
Extraction speed 6.9 X
Track quality 100.0 %
Test CRC D34BE4F9
Copy CRC D34BE4F9
Accurately ripped (confidence 1) [E0400978] (AR v2)
Copy OK

Track 4

Filename C:\Miles Davis - In Person Friday Night At The Blackhawk, San Francisco Vol.1 (1961) {2014 Japan Jazz Collection 1000 Columbia-RCA Series}\04 - No Blues.wav

Peak level 95.5 %
Extraction speed 7.9 X
Track quality 100.0 %
Test CRC E4705239
Copy CRC E4705239
Accurately ripped (confidence 1) [6ABEBA7C] (AR v2)
Copy OK

Track 5

Filename C:\Miles Davis - In Person Friday Night At The Blackhawk, San Francisco Vol.1 (1961) {2014 Japan Jazz Collection 1000 Columbia-RCA Series}\05 - Bye Bye (Theme).wav

Peak level 95.6 %
Extraction speed 7.1 X
Track quality 100.0 %
Test CRC DAC8F045
Copy CRC DAC8F045
Accurately ripped (confidence 1) [B9E5A9D3] (AR v2)
Copy OK

Track 6

Filename C:\Miles Davis - In Person Friday Night At The Blackhawk, San Francisco Vol.1 (1961) {2014 Japan Jazz Collection 1000 Columbia-RCA Series}\06 - Love, I've Found You.wav

Peak level 41.9 %
Extraction speed 4.4 X
Track quality 99.9 %
Test CRC 331824DF
Copy CRC 331824DF
Accurately ripped (confidence 1) [C4515253] (AR v2)
Copy OK


All tracks accurately ripped

No errors occurred

End of status report

==== Log checksum 5903F03B0514A2FB64D1BC53AFB64E526726BF09B44898EEB04F12300429390E ====


Miles Davis - In Person Friday Night At The Blackhawk Vol.1 (1961) {2014 Japan Jazz Collection 1000 Columbia-RCA Series}

Miles Davis - In Person Friday Night At The Blackhawk Vol.1 (1961) {2014 Japan Jazz Collection 1000 Columbia-RCA Series}


see more Japan Jazz Collection 1000 Columbia-RCA Series…


===