Subcategories

Miles Davis Quintet - Live in Europe 1967: The Bootleg Series, Vol. 1 (2011) {3CD + Bonus DVD5 NTSC}

Posted By: ruskaval
Miles Davis Quintet - Live in Europe 1967: The Bootleg Series, Vol. 1 (2011) {3CD + Bonus DVD5 NTSC}

Miles Davis Quintet - Live in Europe 1967: The Bootleg Series, Vol. 1 (2011) {3CD + Bonus DVD5 NTSC}
EAC rip (secure mode) | FLAC (tracks)+CUE+LOG -> 782 Mb | MP3 @320 -> 474 Mb
DVD5 -> 3.86 Gb | All Regions | NTSC 4:3 | LinearPCM, 2 ch | ~ 65 min | ISO Image
Full Artwork @ 600 dpi (jpg) -> 305 Mb | 5% repair rar
© 1967, 2011 Columbia / Legacy / Sony Music | 88697 94053 2
Jazz / Hard Bop / Post Bop / Modal Music / Trumpet

The explosive transformation of Miles Davis’ “second great Quintet” with Wayne Shorter (tenor sax), Herbie Hancock (piano), Ron Carter (bass), and Tony Williams (drums) is laid bare on this release. Culled from original state-owned television and radio sources in Belgium, Denmark, France, Germany, and Sweden, the program spans five northern European festival performances over the course of nine days in October-November 1967. The audio shows consist entirely of previously unreleased or previously only bootlegged material. This is a 3-CD + DVD package, with an 8-panel digipak with 28-page booklet.

CD One tracks recorded on October 28, 1967 at the Konigin Elizabethzaal, Antwerp, Belgium by Belgian Radio and Television [BRT].

CD Two tracks 1-5 recorded on November 2, 1967 at the Tivoli Konsertsal, Copenhagen, Denmark by Danish Radio; tracks 6 & 7 recorded and broadcast on November 6, 1967 at the Paris Jazz Festival, Salle Pleyel, Paris, France on France Inter [ORTF]. Radio Program Producer: André Francis.

CD Three tracks recorded and broadcast on November 6, 1967 at the Paris Jazz Festival, Salle Pleyel, Paris, France on France Inter [ORTF]. Radio Program Producer: André Francis.

DVD tracks 1-6 recorded on November 7, 1967 at the Stadthalle, Karlsruhe, Germany by Südwestfunk TV; tracks 7-11 recorded on October 31, 1967 at the Konserthuset, Stockholm, Sweden by Sveriges Radio TV.
Miles Davis Quintet - Live in Europe 1967: The Bootleg Series, Vol. 1 (2011) {3CD + Bonus DVD5 NTSC}

The most—perhaps only—frustrating thing about this first installment in what trumpeter Miles Davis completists can only hope ends up being an exhaustive series of archival releases, is the 44 years it took Columbia/Legacy to release it. Though offbeat catalog oddity Miles in Berlin (Columbia, 1965) managed to snap what Japanese jazz buffs dubbed Davis' "Gold Quintet" (featuring tenor saxophonist Wayne Shorter, pianist Herbie Hancock, bassist Ron Carter and drummer Tony Williams) in its cocoon stage, and the exhaustive 8-disc Complete Live at the Plugged Nickel (Legacy, 1995) offered an in-depth exposé of the fully-formed ensemble famously recasting traditional jazz warhorses as amorphous art pieces, the bounty of material unearthed on Live in Europe 1967: The Bootleg Series Vol. 1 until now has nonetheless been the most glaring missing link in Davis' discography.

As much as that of any contemporary artist, Davis' body of work has been remastered and reissued so many times—and augmented with so much posthumous minutiae of variable quality—that it can be difficult for a non-completist to ascertain which super-mega-deluxe box set is worth the fifty bucks and which one would be money better spent on dinner with his wife at the Olive Garden. Few fans of this era will be surprised to learn just how hard this set falls into the former category.

Miles Davis Quintet - Live in Europe 1967: The Bootleg Series, Vol. 1 (2011) {3CD + Bonus DVD5 NTSC}


In addition to the two live sets mentioned above, Davis' mid-1960's quintet recorded five studio albums: E.S.P. (Columbia, 1965); Miles Smiles (Columbia, 1966); Sorcerer (Columbia, 1967); Nefertiti (Columbia, 1968); and Miles in the Sky (Columbia, 1968). The transitional Filles de Kilimanjaro (Columbia, 1969) and Water Babies (Columbia, 1975) also feature one side of music apiece by the quintet; the flip sides feature later cuts on which Hancock and Carter are replaced by electric keyboardist Chick Corea and bassist Dave Holland.

In total, that's nine programs of music, each one positively essential; the single duff track in the bunch is Sorcerer's "Nothing Like You," a dopey scat number featuring singer Bob Dorough (recorded in 1962, with Davis and Shorter being the only members of the quintet to feature) for which Davis berated his label for tagging on without his permission. These records are not uncommonly regarded as foundational works for modern jazz, and even in the landscape they created—which accounts for influence extending far beyond merely jazz—they continue to sound fresh, surprising and inimitable.

Live in Europe 1967 is better than every single one of them.

In fact, Europe—a three-CD/one-DVD set documenting five concerts from October and November of 1967—instantly takes its place in the uppermost echelon of Davis recordings, alongside Kind of Blue (Columbia, 1959) and In a Silent Way (Columbia, 1969) and maybe an elite handful of others, as a record that ultimately defines the fundamental essence of who Miles Davis the artist was. What sets it apart is its scope and precision; Europe does everything the quintet's longer-standing discography does only tighter and with greater focus, yet somehow looser and more broadly—a duality almost certainly the product of the virtually superhuman telepathy that lent the title of its first studio record a great, credible irony.

The musical ingredients which have long been the touchstone of this group's reputation are firing on all cylinders—Shorter's Eastern-tinged melodic surprises in "Footsteps" from the second disc's Copenhagen concert, Hancock's tender solo breakdown in "Masqualero" from the same gig, progressive standard warping on four separate interpretations of Thelonious Monk's "'Round Midnight," each take distinctly different from the one before it. Davis' chops, long thought by many critics to have been in remission since the romantic days of "Stella By Starlight" and Someday My Prince Will Come (Columbia, 1961), here possess a full-bodied bluesy determination that steers the music, that commands it, if not with the traditional lyricism of his reputation then with hard-swinging musical diatribes that are light years better suited to this group's relentless exploratory spirit.

As ever, all is keyed to the swooshing, oceanic riptide of drummer Williams, who plays fiercer and with more collaborative sympathy here than anywhere previously on a Miles Davis record—which says something, insofar as those previous records were themselves evidence enough to garner Williams a reputation as one of the greatest drummers in the world.

Miles Davis Quintet - Live in Europe 1967: The Bootleg Series, Vol. 1 (2011) {3CD + Bonus DVD5 NTSC}


Recorded on the cusp of Davis' full-on conversion from jazz to rock—to use two telling if woefully incomplete terms—it should come as little surprise that these concerts consistently have one foot apiece planted in each world, the reshaping of timepieces like Sammy Cahn's and Jule Styne's "I Fall in Love Too Easily" pointing backwards while sporadic 4/4 rhythms emerge throughout to foreshadow the impending hurricane of Bitches Brew (Columbia, 1970). The ability of this group to shift gears on a dime is mesmerizing; the start-stop jerkiness of Antwerp's "Riot" should be awkward and jarring, but never does it feel anything besides perfectly natural, the collective decisions of five men functioning acutely in conjunction on the highest possible artistic wavelength.

This is definitive Miles insofar as any one Davis album can be "definitive," insofar as any single record can provide anything beyond a fleeting snapshot of an artist who five minutes later would have changed again. But across four discs and five concerts, this package tracks those subtle advancements and captures the essential spirit of Davis' music as well as any ever have: the infusing of the old with the new and vice versa, the fearlessness at the risk of artistic failure, and, perhaps most significantly, the refusal to become complacent in the satisfaction of any single artistic success.

What a thrill it must have been to have attended these concerts—and what a shame that they remained vaulted for so long, now that so many of those who did have had forty-four years to either die or lose their faculties before receiving their souvenir.
Miles Davis Quintet - Live in Europe 1967: The Bootleg Series, Vol. 1 (2011) {3CD + Bonus DVD5 NTSC}


Personnel:
Miles Davis - trumpet
Wayne Shorter - tenor saxophone
Herbie Hancock - piano
Ron Carter - bass
Tony Williams - drums

Tracklist:

CD1:


1 Agitation (Davis) 5:26
2 Footprints (Shorter) 7:37
3 'Round Midnight (Hanighen, Monk, Williams) 3:39
4 No Blues (Davis) 8:26
5 Riot (herbie Hancock) 3:40
6 On Green Dolphin Street (Kasper, Washington) 9:37
7 Masqualero (Shorter) 8:53
8 Gingerbread Boy (Heath) 5:56
9 The Theme (Davis) 1:15

Miles Davis Quintet - Live in Europe 1967: The Bootleg Series, Vol. 1 (2011) {3CD + Bonus DVD5 NTSC}


CD2:

1 Agitation (Davis) 6:14
2 Footprints (Shorter) 9:01
3 'Round Midnight (Hanighen, Monk, Williams) 7:16
4 No Blues (Davis) 14:40
5 Masqualero (Shorter) 10:01
6 Agitation (Davis) 6:36
7 Footprints (Shorter) 10:35

Miles Davis Quintet - Live in Europe 1967: The Bootleg Series, Vol. 1 (2011) {3CD + Bonus DVD5 NTSC}


CD3:

1 'Round Midnight (Hanighen, Monk, Williams) 8:06
2 No Blues (Davis) 13:01
3 Masqualero (Shorter) 10:09
4 I Fall in Love Too Easily (Cahn, Styne) 10:34
5 Riot (Hancock) 3:39
6 Walkin' (Carpenter) 9:01
7 On Green Dolphin Street (Kasper, Washington) 9:04
8 The Theme (Davis) 8:22

Miles Davis Quintet - Live in Europe 1967: The Bootleg Series, Vol. 1 (2011) {3CD + Bonus DVD5 NTSC}


DVD:

01 Agitation (Davis) 6:43
02 Footprints (Shorter) 6:03
03 I Fall in Love Too Easily (Cahn, Styne) 11:34
04 Gingerbread Boy (Heath) 5:34
05 The Theme (Davis) 0:28
06 Agitation (Davis) 6:57
07 Footprints (Shorter) 9:06
08 'Round Midnight (Hanighen, Monk, Williams) 8:31
09 Gingerbread Boy (Heath) 7:35
10 The Theme (Davis) 1:34

Miles Davis Quintet - Live in Europe 1967: The Bootleg Series, Vol. 1 (2011) {3CD + Bonus DVD5 NTSC}


Exact Audio Copy V1.0 beta 2 from 29. April 2011

EAC extraction logfile from 11. November 2011, 19:19

Miles Davis / LIVE in Europe 1967 The Bootleg Series Vol 1 [CD 1]

Used drive : PLEXTOR DVDR PX-L890SA Adapter: 2 ID: 1

Read mode : Secure
Utilize accurate stream : Yes
Defeat audio cache : Yes
Make use of C2 pointers : No

Read offset correction : 6
Overread into Lead-In and Lead-Out : No
Fill up missing offset samples with silence : Yes
Delete leading and trailing silent blocks : No
Null samples used in CRC calculations : Yes
Used interface : Native Win32 interface for Win NT & 2000
Gap handling : Appended to previous track

Used output format : User Defined Encoder
Selected bitrate : 256 kBit/s
Quality : High
Add ID3 tag : No
Command line compressor : C:\Program Files (x86)\Exact Audio Copy\FLAC\FLAC.EXE
Additional command line options : -8 -V -T "ARTIST=%artist%" -T "TITLE=%title%" -T "ALBUM=%albumtitle%" -T "DATE=%year%" -T "TRACKNUMBER=%tracknr%" -T "TOTALTRACKS=%numtracks%" -T "GENRE=%genre%" -T "ALBUMARTIST=%albumartist%" -T "ALBUM ARTIST=%albumartist%


TOC of the extracted CD

Track | Start | Length | Start sector | End sector
––––––––––––––––––––––––––––-
1 | 0:00.43 | 5:26.68 | 43 | 24560
2 | 5:27.36 | 9:37.43 | 24561 | 67878
3 | 15:05.04 | 7:37.32 | 67879 | 102185
4 | 22:42.36 | 11:15.35 | 102186 | 152845
5 | 33:57.71 | 3:39.45 | 152846 | 169315
6 | 37:37.41 | 8:26.29 | 169316 | 207294
7 | 46:03.70 | 8:53.27 | 207295 | 247296
8 | 54:57.22 | 5:56.09 | 247297 | 274005
9 | 60:53.31 | 1:15.62 | 274006 | 279692


Track 1

Filename F:\Flac Rips\01 - Agitation.wav

Pre-gap length 0:00:02.43

Peak level 87.2 %
Extraction speed 4.0 X
Track quality 100.0 %
Test CRC B57B87E8
Copy CRC B57B87E8
Track not present in AccurateRip database
Copy OK

Track 2

Filename F:\Flac Rips\02 - Footprints.wav

Peak level 83.2 %
Extraction speed 5.0 X
Track quality 100.0 %
Test CRC D0D5A69A
Copy CRC D0D5A69A
Track not present in AccurateRip database
Copy OK

Track 3

Filename F:\Flac Rips\03 - 'Round Midnight.wav

Peak level 72.5 %
Extraction speed 5.5 X
Track quality 100.0 %
Test CRC C8200469
Copy CRC C8200469
Track not present in AccurateRip database
Copy OK

Track 4

Filename F:\Flac Rips\04 - No Blues.wav

Peak level 94.5 %
Extraction speed 6.3 X
Track quality 100.0 %
Test CRC 2AF9F30A
Copy CRC 2AF9F30A
Track not present in AccurateRip database
Copy OK

Track 5

Filename F:\Flac Rips\05 - Riot.wav

Peak level 55.6 %
Extraction speed 6.0 X
Track quality 100.0 %
Test CRC F0CADA9E
Copy CRC F0CADA9E
Track not present in AccurateRip database
Copy OK

Track 6

Filename F:\Flac Rips\06 - On Green Dolphin Street.wav

Peak level 56.9 %
Extraction speed 7.0 X
Track quality 100.0 %
Test CRC D027F82C
Copy CRC D027F82C
Track not present in AccurateRip database
Copy OK

Track 7

Filename F:\Flac Rips\07 - Masqualero.wav

Peak level 60.8 %
Extraction speed 7.4 X
Track quality 100.0 %
Test CRC CBFED65C
Copy CRC CBFED65C
Track not present in AccurateRip database
Copy OK

Track 8

Filename F:\Flac Rips\08 - Gingerbread Boy.wav

Peak level 62.8 %
Extraction speed 7.5 X
Track quality 100.0 %
Test CRC 8DDD591B
Copy CRC 8DDD591B
Track not present in AccurateRip database
Copy OK

Track 9

Filename F:\Flac Rips\09 - The Theme.wav

Peak level 45.8 %
Extraction speed 5.6 X
Track quality 100.0 %
Test CRC 57BE98A1
Copy CRC 57BE98A1
Track not present in AccurateRip database
Copy OK


None of the tracks are present in the AccurateRip database

No errors occurred

End of status report

==== Log checksum B0CE2014A11FB8081B77FE06E9757B00071EF64AB26555EAEC0EEF1F546DFDCC ====

Exact Audio Copy V1.0 beta 2 from 29. April 2011

EAC extraction logfile from 11. November 2011, 19:48

Miles Davis / Live in Europe 1967 The Bootleg Series Vol 1 [CD2]

Used drive : PLEXTOR DVDR PX-L890SA Adapter: 2 ID: 1

Read mode : Secure
Utilize accurate stream : Yes
Defeat audio cache : Yes
Make use of C2 pointers : No

Read offset correction : 6
Overread into Lead-In and Lead-Out : No
Fill up missing offset samples with silence : Yes
Delete leading and trailing silent blocks : No
Null samples used in CRC calculations : Yes
Used interface : Native Win32 interface for Win NT & 2000
Gap handling : Appended to previous track

Used output format : User Defined Encoder
Selected bitrate : 256 kBit/s
Quality : High
Add ID3 tag : No
Command line compressor : C:\Program Files (x86)\Exact Audio Copy\FLAC\FLAC.EXE
Additional command line options : -8 -V -T "ARTIST=%artist%" -T "TITLE=%title%" -T "ALBUM=%albumtitle%" -T "DATE=%year%" -T "TRACKNUMBER=%tracknr%" -T "TOTALTRACKS=%numtracks%" -T "GENRE=%genre%" -T "ALBUMARTIST=%albumartist%" -T "ALBUM ARTIST=%albumartist%


TOC of the extracted CD

Track | Start | Length | Start sector | End sector
––––––––––––––––––––––––––––-
1 | 0:00.43 | 6:14.45 | 43 | 28137
2 | 6:15.13 | 9:01.20 | 28138 | 68732
3 | 15:16.33 | 7:16.38 | 68733 | 101470
4 | 22:32.71 | 14:40.61 | 101471 | 167531
5 | 37:13.57 | 10:01.12 | 167532 | 212618
6 | 47:14.69 | 6:36.02 | 212619 | 242320
7 | 53:50.71 | 10:35.17 | 242321 | 289962


Track 1

Filename F:\Flac Rips\01 - Agitation.wav

Pre-gap length 0:00:02.43

Peak level 87.3 %
Extraction speed 4.1 X
Track quality 100.0 %
Test CRC B39FA74D
Copy CRC B39FA74D
Track not present in AccurateRip database
Copy OK

Track 2

Filename F:\Flac Rips\02 - Footprints.wav

Peak level 83.6 %
Extraction speed 5.0 X
Track quality 100.0 %
Test CRC EB07084A
Copy CRC EB07084A
Track not present in AccurateRip database
Copy OK

Track 3

Filename F:\Flac Rips\03 - 'Round Midnight.wav

Peak level 77.4 %
Extraction speed 5.6 X
Track quality 100.0 %
Test CRC BFAEAF35
Copy CRC BFAEAF35
Track not present in AccurateRip database
Copy OK

Track 4

Filename F:\Flac Rips\04 - No Blues.wav

Peak level 96.6 %
Extraction speed 6.1 X
Track quality 99.9 %
Test CRC 87127DB7
Copy CRC 87127DB7
Track not present in AccurateRip database
Copy OK

Track 5

Filename F:\Flac Rips\05 - Masqualero.wav

Peak level 90.8 %
Extraction speed 7.2 X
Track quality 100.0 %
Test CRC A63DC148
Copy CRC A63DC148
Track not present in AccurateRip database
Copy OK

Track 6

Filename F:\Flac Rips\06 - Agitation.wav

Pre-gap length 0:00:00.73

Peak level 53.3 %
Extraction speed 7.4 X
Track quality 100.0 %
Test CRC 97BD9FD9
Copy CRC 97BD9FD9
Track not present in AccurateRip database
Copy OK

Track 7

Filename F:\Flac Rips\07 - Footprints.wav

Peak level 68.9 %
Extraction speed 8.1 X
Track quality 100.0 %
Test CRC E860A6A7
Copy CRC E860A6A7
Track not present in AccurateRip database
Copy OK


None of the tracks are present in the AccurateRip database

No errors occurred

End of status report

==== Log checksum 226AA0D1990976EA703A3386DB4E57464B1F18647F6823AA163B94DC6277A4B1 ====

Exact Audio Copy V1.0 beta 2 from 29. April 2011

EAC extraction logfile from 11. November 2011, 20:15

Miles Davis / Live in Europe 1967 The Bootleg Series Vol. 1 [CD 3]

Used drive : PLEXTOR DVDR PX-L890SA Adapter: 2 ID: 1

Read mode : Secure
Utilize accurate stream : Yes
Defeat audio cache : Yes
Make use of C2 pointers : No

Read offset correction : 6
Overread into Lead-In and Lead-Out : No
Fill up missing offset samples with silence : Yes
Delete leading and trailing silent blocks : No
Null samples used in CRC calculations : Yes
Used interface : Native Win32 interface for Win NT & 2000
Gap handling : Appended to previous track

Used output format : User Defined Encoder
Selected bitrate : 256 kBit/s
Quality : High
Add ID3 tag : No
Command line compressor : C:\Program Files (x86)\Exact Audio Copy\FLAC\FLAC.EXE
Additional command line options : -8 -V -T "ARTIST=%artist%" -T "TITLE=%title%" -T "ALBUM=%albumtitle%" -T "DATE=%year%" -T "TRACKNUMBER=%tracknr%" -T "TOTALTRACKS=%numtracks%" -T "GENRE=%genre%" -T "ALBUMARTIST=%albumartist%" -T "ALBUM ARTIST=%albumartist%


TOC of the extracted CD

Track | Start | Length | Start sector | End sector
––––––––––––––––––––––––––––-
1 | 0:00.43 | 8:06.57 | 43 | 36549
2 | 8:07.25 | 13:01.27 | 36550 | 95151
3 | 21:08.52 | 10:09.62 | 95152 | 140888
4 | 31:18.39 | 10:34.18 | 140889 | 188456
5 | 41:52.57 | 3:39.12 | 188457 | 204893
6 | 45:31.69 | 9:01.04 | 204894 | 245472
7 | 54:32.73 | 9:04.55 | 245473 | 286327
8 | 63:37.53 | 8:22.43 | 286328 | 324020


Track 1

Filename F:\Flac Rips\01 - 'Round Midnight.wav

Pre-gap length 0:00:02.43

Peak level 93.8 %
Extraction speed 4.4 X
Track quality 100.0 %
Test CRC 446E9CEB
Copy CRC 446E9CEB
Track not present in AccurateRip database
Copy OK

Track 2

Filename F:\Flac Rips\02 - No Blues.wav

Peak level 94.5 %
Extraction speed 5.4 X
Track quality 100.0 %
Test CRC 8A8C1833
Copy CRC 8A8C1833
Track not present in AccurateRip database
Copy OK

Track 3

Filename F:\Flac Rips\03 - Masqualero.wav

Peak level 95.3 %
Extraction speed 6.2 X
Track quality 100.0 %
Test CRC BDEF6644
Copy CRC BDEF6644
Track not present in AccurateRip database
Copy OK

Track 4

Filename F:\Flac Rips\04 - I Fall In Love Too Easily.wav

Pre-gap length 0:00:01.36

Peak level 95.2 %
Extraction speed 6.9 X
Track quality 100.0 %
Test CRC 0C6D808E
Copy CRC 0C6D808E
Track not present in AccurateRip database
Copy OK

Track 5

Filename F:\Flac Rips\05 - Riot.wav

Peak level 95.6 %
Extraction speed 6.6 X
Track quality 100.0 %
Test CRC 44D853B0
Copy CRC 44D853B0
Track not present in AccurateRip database
Copy OK

Track 6

Filename F:\Flac Rips\06 - Walkin'.wav

Peak level 95.7 %
Extraction speed 7.5 X
Track quality 100.0 %
Test CRC 8B08E888
Copy CRC 8B08E888
Track not present in AccurateRip database
Copy OK

Track 7

Filename F:\Flac Rips\07 - On Green Dolphin Street.wav

Peak level 95.7 %
Extraction speed 8.0 X
Track quality 100.0 %
Test CRC 77CE4A3C
Copy CRC 77CE4A3C
Track not present in AccurateRip database
Copy OK

Track 8

Filename F:\Flac Rips\08 - The Theme.wav

Peak level 95.8 %
Extraction speed 8.3 X
Track quality 100.0 %
Test CRC 86F4B248
Copy CRC 86F4B248
Track not present in AccurateRip database
Copy OK


None of the tracks are present in the AccurateRip database

No errors occurred

End of status report

==== Log checksum 1D07E2DCD648C13DF9A94D4DD969625BCFA0BC3F298251022AE7CD75B14BCCDA ====

I 00:28:14 DVD Decrypter Version 3.5.4.0 started!
I 00:28:14 Home Edition (6.1, Build 7601 : Service Pack 1)
I 00:28:14 Initialising SPTI…
I 00:28:14 Searching for SCSI / ATAPI devices…
I 00:28:14 Found 2 DVD-ROMs and 2 DVD-RAM/±RWs!
I 00:29:33 Operation Started!
I 00:29:33 Source Device: [2:1:0] PLEXTOR DVDR PX-L890SA 1.06 (I:) (ATA)
I 00:29:33 Source Media Type: DVD-ROM
I 00:29:33 Source Media Region Code: 1; 2; 3; 4; 5; 6; 7; 8
I 00:29:33 Source Media Copyright Protection System Type: CSS/CPPM
I 00:29:33 Source Media Implementation Identifier: Sonic Scenarist 3.1
I 00:29:33 Destination File: F:\Flac Rips\Miles Davis - Live in Europe 1967 The Bootleg Series Vol 1 [FLAC] {Bonus DVD9 NTSC}\Image\MILES_DAVIS.ISO
I 00:29:33 File Splitting: None
I 00:29:33 Hardware Read Error Retries: 20
I 00:29:33 Detect Mastering Errors: No
I 00:29:33 Remove Macrovision Protection: Yes
I 00:29:33 Extracting Sectors… (LBA: 0 - 2070395)
I 00:29:34 Found IFO File: VIDEO_TS.IFO - (LBA: 284 - 290)
I 00:29:35 Found VOB File: VIDEO_TS.VOB - (LBA: 291 - 11078) - KEY: N/A
I 00:29:38 Found BUP File: VIDEO_TS.BUP - (LBA: 11095 - 11101)
I 00:29:38 Found IFO File: VTS_01_0.IFO - (LBA: 11102 - 11137)
I 00:29:38 Found VOB File: VTS_01_0.VOB - (LBA: 11138 - 94487) - KEY: C4 A3 9B AB A1
I 00:29:56 Found VOB File: VTS_01_1.VOB - (LBA: 94488 - 618635) - KEY: C4 A3 9B AB A1
I 00:31:26 Found VOB File: VTS_01_2.VOB - (LBA: 618636 - 1142687) - KEY: C4 A3 9B AB A1
I 00:32:37 Found VOB File: VTS_01_3.VOB - (LBA: 1142688 - 1666908) - KEY: C4 A3 9B AB A1
I 00:33:37 Found VOB File: VTS_01_4.VOB - (LBA: 1666909 - 2069064) - KEY: C4 A3 9B AB A1
I 00:34:17 Found BUP File: VTS_01_0.BUP - (LBA: 2069081 - 2069116)
I 00:34:17 Found IFO File: VTS_02_0.IFO - (LBA: 2069117 - 2069125)
I 00:34:17 Found VOB File: VTS_02_0.VOB - (LBA: 2069126 - 2069312) - KEY: CD 32 7B B4 00
I 00:34:17 Found VOB File: VTS_02_1.VOB - (LBA: 2069313 - 2070321) - KEY: CD 32 7B B4 00
I 00:34:17 Found BUP File: VTS_02_0.BUP - (LBA: 2070386 - 2070394)
I 00:34:18 Operation Successfully Completed! - Duration: 00:04:44
I 00:34:18 Average Read Rate: 14.580 KB/s (10.5x) - Maximum Read Rate: 21.300 KB/s (15.4x)


Miles Davis Quintet - Live in Europe 1967: The Bootleg Series, Vol. 1 (2011) {3CD + Bonus DVD5 NTSC}

Miles Davis Quintet - Live in Europe 1967: The Bootleg Series, Vol. 1 (2011) {3CD + Bonus DVD5 NTSC}

Miles Davis Quintet - Live in Europe 1967: The Bootleg Series, Vol. 1 (2011) {3CD + Bonus DVD5 NTSC}

Miles Davis Quintet - Live in Europe 1967: The Bootleg Series, Vol. 1 (2011) {3CD + Bonus DVD5 NTSC}

Miles Davis Quintet - Live in Europe 1967: The Bootleg Series, Vol. 1 (2011) {3CD + Bonus DVD5 NTSC}


see also:
Miles Davis - Miles Davis At Newport 1955-1975: The Bootleg Series Vol. 4 (2015) [4CD Set] {Columbia}
Miles Davis Quintet - Freedom Jazz Dance: The Bootleg Series, Vol. 5 (2016) {3CD Set Columbia-Legacy 88985357372}
Miles Davis - Miles At The Fillmore - Miles Davis 1970: The Bootleg Series Vol. 3 (2014) {4CD Set Columbia-Sony Music}



===