Subcategories

Miles Davis - The Original Jacket Collection (2006) [30 Albums, 37 CDs] {DSD Japan Mini LP Analog Collection} (part 4of6)

Posted By: ruskaval
Miles Davis - The Original Jacket Collection (2006) [30 Albums, 37 CDs] {DSD Japan Mini LP Analog Collection} (part 4of6)

Miles Davis - The Original Jacket Collection (2006) [30 Albums, 37 CDs] {DSD Japan Mini LP Analog Collection} (part 4of6)
EAC rip (secure mode) | FLAC (tracks)+CUE+LOG -> 1.70 Gb | MP3 @320 -> 739 Mb | Artwork
© 2006 Sony Music Japan / Columbia | SICP 1216~21 | DSD | HQD High Quality Disc
Jazz / Hard Bop / Modal Music / Fusion / Trumpet

With their second album, Miles Smiles, the second Miles Davis Quintet really began to hit their stride, delving deeper into the more adventurous, exploratory side of their signature sound. This is clear as soon as "Orbits" comes crashing out the gate, but it's not just the fast, manic material that has an edge – slower, quieter numbers are mercurial, not just in how they shift melodies and chords, but how the voicing and phrasing never settles into a comfortable groove. This is music that demands attention, never taking predictable paths or easy choices.
Miles Davis - The Original Jacket Collection (2006) [30 Albums, 37 CDs] {DSD Japan Mini LP Analog Collection} (part 4of6)

Miles Davis - The Original Jacket Collection (2006) [30 Albums, 37 CDs] {DSD Japan Mini LP Analog Collection} (part 4of6)


––––––––––––––––-
Miles Davis - The Original Jacket Collection (2006) [30 Albums, 37 CDs] {DSD Japan Mini LP Analog Collection} (part 4of6)

Miles Davis - Miles Smiles (1966) {2006 DSD Japan Mini LP Edition}
EAC rip (secure mode) | FLAC (tracks)+CUE+LOG -> 283 Mb | MP3 @320 -> 99 Mb | Artwork
© 2006 Sony Music Japan / Columbia | SICP 1216 | DSD | HQD High Quality Disc

Its greatest triumph is that it masks this adventurousness within music that is warm and accessible – it just never acts that way. No matter how accessible this is, what's so utterly brilliant about it is that the group never brings it forth to the audience. They're playing for each other, pushing and prodding each other in an effort to discover new territory. As such, this crackles with vitality, sounding fresh decades after its release. And, like its predecessor, ESP, this freshness informs the writing as well, as the originals are memorable, yet open-ended and nervy, setting (and creating) standards for modern bop that were emulated well into the new century. Arguably, this quintet was never better than they are here, when all their strengths are in full bloom.

Personnel: Miles Davis (trumpet); Wayne Shorter (tenor saxophone); Herbie Hancock (piano); Ron Carter (acoustic bass); Tony Williams (drums).

tracklist:
01. Orbits
02. Circle
03. Footprints
04. Dolores
05. Freedom Jazz Dance
06. Gingerbread Boy

Exact Audio Copy V0.99 prebeta 5 from 4. May 2009

EAC extraction logfile from 10. February 2013, 23:07

Miles Davis / Miles Smiles

Used drive : PLEXTOR DVDR PX-L890SA Adapter: 6 ID: 0

Read mode : Secure
Utilize accurate stream : Yes
Defeat audio cache : Yes
Make use of C2 pointers : No

Read offset correction : 6
Overread into Lead-In and Lead-Out : No
Fill up missing offset samples with silence : Yes
Delete leading and trailing silent blocks : No
Null samples used in CRC calculations : Yes
Used interface : Native Win32 interface for Win NT & 2000
Gap handling : Appended to previous track

Used output format : User Defined Encoder
Selected bitrate : 1024 kBit/s
Quality : High
Add ID3 tag : No
Command line compressor : C:\Program Files (x86)\FLAC\flac.exe
Additional command line options : -8 -V -T "ARTIST=%a" -T "TITLE=%t" -T "ALBUM=%g" -T "DATE=%y" -T "TRACKNUMBER=%n" -T "GENRE=%m" -T "COMMENT=EAC FLAC -8" %s


TOC of the extracted CD

Track | Start | Length | Start sector | End sector
––––––––––––––––––––––––––––-
1 | 0:00.00 | 4:38.74 | 0 | 20923
2 | 4:38.74 | 5:53.40 | 20924 | 47438
3 | 10:32.39 | 9:48.52 | 47439 | 91590
4 | 20:21.16 | 6:22.34 | 91591 | 120274
5 | 26:43.50 | 7:15.15 | 120275 | 152914
6 | 33:58.65 | 7:44.41 | 152915 | 187755


Track 1

Filename C:\EAC\Miles Davis - The Original Jacket Collection (2006) [37CD]\16. Miles Davis - Miles Smiles (1966) {2006 DSD Japan Mini LP Edition, SICP 1216}\01 - Orbits.wav

Pre-gap length 0:00:02.00

Peak level 100.0 %
Track quality 100.0 %
Test CRC BD7E32BC
Copy CRC BD7E32BC
Accurately ripped (confidence 5) [9FBB4136]
Copy OK

Track 2

Filename C:\EAC\Miles Davis - The Original Jacket Collection (2006) [37CD]\16. Miles Davis - Miles Smiles (1966) {2006 DSD Japan Mini LP Edition, SICP 1216}\02 - Circle.wav

Pre-gap length 0:00:02.72

Peak level 100.0 %
Track quality 100.0 %
Test CRC E8CFF6EC
Copy CRC E8CFF6EC
Accurately ripped (confidence 5) [EC083C0D]
Copy OK

Track 3

Filename C:\EAC\Miles Davis - The Original Jacket Collection (2006) [37CD]\16. Miles Davis - Miles Smiles (1966) {2006 DSD Japan Mini LP Edition, SICP 1216}\03 - Footprints.wav

Pre-gap length 0:00:02.70

Peak level 100.0 %
Track quality 100.0 %
Test CRC 6A527FDC
Copy CRC 6A527FDC
Accurately ripped (confidence 5) [DFF8BBA5]
Copy OK

Track 4

Filename C:\EAC\Miles Davis - The Original Jacket Collection (2006) [37CD]\16. Miles Davis - Miles Smiles (1966) {2006 DSD Japan Mini LP Edition, SICP 1216}\04 - Dolores.wav

Pre-gap length 0:00:02.80

Peak level 100.0 %
Track quality 100.0 %
Test CRC 9CFCF528
Copy CRC 9CFCF528
Accurately ripped (confidence 5) [F5E9582B]
Copy OK

Track 5

Filename C:\EAC\Miles Davis - The Original Jacket Collection (2006) [37CD]\16. Miles Davis - Miles Smiles (1966) {2006 DSD Japan Mini LP Edition, SICP 1216}\05 - Freedom Jazz Dance.wav

Pre-gap length 0:00:02.50

Peak level 100.0 %
Track quality 100.0 %
Test CRC CBB078D9
Copy CRC CBB078D9
Accurately ripped (confidence 5) [7D27280D]
Copy OK

Track 6

Filename C:\EAC\Miles Davis - The Original Jacket Collection (2006) [37CD]\16. Miles Davis - Miles Smiles (1966) {2006 DSD Japan Mini LP Edition, SICP 1216}\06 - Ginger Bread Boy.wav

Pre-gap length 0:00:02.65

Peak level 100.0 %
Track quality 99.9 %
Test CRC 16A7693F
Copy CRC 16A7693F
Accurately ripped (confidence 5) [7C639CD3]
Copy OK


All tracks accurately ripped

No errors occurred

End of status report


Miles Davis - The Original Jacket Collection (2006) [30 Albums, 37 CDs] {DSD Japan Mini LP Analog Collection} (part 4of6)



–––––––––––––-
Miles Davis - The Original Jacket Collection (2006) [30 Albums, 37 CDs] {DSD Japan Mini LP Analog Collection} (part 4of6)

Miles Davis - Sorcerer (1962, 1967) {2006 DSD Japan Mini LP Edition}
EAC rip (secure mode) | FLAC (tracks)+CUE+LOG -> 253 Mb | MP3 @320 -> 96 Mb | Artwork -> 72 Mb
© 2006 Sony Music Japan / Columbia | SICP 1217 | DSD | HQD High Quality Disc

Sorcerer, the third album by the second Miles Davis Quintet, is in a sense a transitional album, a quiet, subdued affair that rarely blows hot, choosing to explore cerebral tonal colorings. Even when the tempo picks up, as it does on the title track, there's little of the dense, manic energy on Miles Smiles – this is about subtle shadings, even when the compositions are as memorable as Tony Williams' "Pee Wee" or Herbie Hancock's "Sorcerer." As such, it's a little elusive, since it represents the deepening of the band's music as they choose to explore different territory. The emphasis is as much on complex, interweaving chords and a coolly relaxed sound as it is on sheer improvisation, though each member tears off thoroughly compelling solos. Still, the individual flights aren't placed at the forefront the way they were on the two predecessors – it all merges together, pointing toward the dense soundscapes of Miles' later '60s work. It's such a layered, intriguing work that the final cut, recorded in 1962 with Bob Dorough on vocals, is an utterly jarring, inappropriate way to end the record, even if it's intended as a tribute to Miles' then-wife, Cicely Tyson (whose image graces the cover).

Personnel:
Miles Davis - Trumpet
Wayne Shorter - Tenor saxophone
Herbie Hancock - Piano
Ron Carter - Double bass
Tony Williams - Drums
Frank Rehak - Trombone
Paul Chambers - Double bass
Jimmy Cobb - Drums
Willie Bobo - Bongos
Bob Dorough - Vocals

tracklist:
01. Prince of Darkness
02. Pee Wee
03. Masqualero
04. The Sorcerer
05. Limbo
06. Vonetta
07. Nothing Like You

Exact Audio Copy V0.99 prebeta 5 from 4. May 2009

EAC extraction logfile from 11. February 2013, 13:23

Miles Davis / Sorcerer

Used drive : PLEXTOR DVDR PX-L890SA Adapter: 6 ID: 0

Read mode : Secure
Utilize accurate stream : Yes
Defeat audio cache : Yes
Make use of C2 pointers : No

Read offset correction : 6
Overread into Lead-In and Lead-Out : No
Fill up missing offset samples with silence : Yes
Delete leading and trailing silent blocks : No
Null samples used in CRC calculations : Yes
Used interface : Native Win32 interface for Win NT & 2000
Gap handling : Appended to previous track

Used output format : User Defined Encoder
Selected bitrate : 1024 kBit/s
Quality : High
Add ID3 tag : No
Command line compressor : C:\Program Files (x86)\FLAC\flac.exe
Additional command line options : -8 -V -T "ARTIST=%a" -T "TITLE=%t" -T "ALBUM=%g" -T "DATE=%y" -T "TRACKNUMBER=%n" -T "GENRE=%m" -T "COMMENT=EAC FLAC -8" %s


TOC of the extracted CD

Track | Start | Length | Start sector | End sector
––––––––––––––––––––––––––––-
1 | 0:00.00 | 6:28.35 | 0 | 29134
2 | 6:28.35 | 4:49.56 | 29135 | 50865
3 | 11:18.16 | 8:56.24 | 50866 | 91089
4 | 20:14.40 | 5:13.34 | 91090 | 114598
5 | 25:27.74 | 7:18.33 | 114599 | 147481
6 | 32:46.32 | 5:37.24 | 147482 | 172780
7 | 38:23.56 | 1:59.12 | 172781 | 181717


Track 1

Filename C:\EAC\Miles Davis - The Original Jacket Collection (2006) [37CD]\17. Miles Davis - Sorcerer (1967) {2006 DSD Japan Mini LP Edition, SICP 1217}\01 - Prince of Darkness.wav

Pre-gap length 0:00:02.00

Peak level 100.0 %
Track quality 100.0 %
Test CRC BDCDA897
Copy CRC BDCDA897
Accurately ripped (confidence 6) [699156DB]
Copy OK

Track 2

Filename C:\EAC\Miles Davis - The Original Jacket Collection (2006) [37CD]\17. Miles Davis - Sorcerer (1967) {2006 DSD Japan Mini LP Edition, SICP 1217}\02 - Pee Wee.wav

Pre-gap length 0:00:01.93

Peak level 76.2 %
Track quality 100.0 %
Test CRC D1A42411
Copy CRC D1A42411
Accurately ripped (confidence 6) [CFB2BA0F]
Copy OK

Track 3

Filename C:\EAC\Miles Davis - The Original Jacket Collection (2006) [37CD]\17. Miles Davis - Sorcerer (1967) {2006 DSD Japan Mini LP Edition, SICP 1217}\03 - Masqualero.wav

Pre-gap length 0:00:03.34

Peak level 100.0 %
Track quality 100.0 %
Test CRC 1942CCBB
Copy CRC 1942CCBB
Accurately ripped (confidence 6) [C0A08F49]
Copy OK

Track 4

Filename C:\EAC\Miles Davis - The Original Jacket Collection (2006) [37CD]\17. Miles Davis - Sorcerer (1967) {2006 DSD Japan Mini LP Edition, SICP 1217}\04 - The Sorcerer.wav

Pre-gap length 0:00:03.48

Peak level 100.0 %
Track quality 99.9 %
Test CRC BB51B2A7
Copy CRC BB51B2A7
Accurately ripped (confidence 6) [5D7E81EE]
Copy OK

Track 5

Filename C:\EAC\Miles Davis - The Original Jacket Collection (2006) [37CD]\17. Miles Davis - Sorcerer (1967) {2006 DSD Japan Mini LP Edition, SICP 1217}\05 - Limbo.wav

Pre-gap length 0:00:04.40

Peak level 100.0 %
Track quality 100.0 %
Test CRC 872B7203
Copy CRC 872B7203
Accurately ripped (confidence 6) [9E9F7058]
Copy OK

Track 6

Filename C:\EAC\Miles Davis - The Original Jacket Collection (2006) [37CD]\17. Miles Davis - Sorcerer (1967) {2006 DSD Japan Mini LP Edition, SICP 1217}\06 - Voneta.wav

Pre-gap length 0:00:03.66

Peak level 100.0 %
Track quality 100.0 %
Test CRC 1803BD80
Copy CRC 1803BD80
Accurately ripped (confidence 6) [7142B7D4]
Copy OK

Track 7

Filename C:\EAC\Miles Davis - The Original Jacket Collection (2006) [37CD]\17. Miles Davis - Sorcerer (1967) {2006 DSD Japan Mini LP Edition, SICP 1217}\07 - Nothing Like You.wav

Pre-gap length 0:00:03.57

Peak level 100.0 %
Track quality 100.0 %
Test CRC A143A9AF
Copy CRC A143A9AF
Cannot be verified as accurate (confidence 5) [FE4AA960], AccurateRip returned [2A9705A8]
Copy OK


6 track(s) accurately ripped
1 track(s) could not be verified as accurate

Some tracks could not be verified as accurate

No errors occurred

End of status report


Miles Davis - The Original Jacket Collection (2006) [30 Albums, 37 CDs] {DSD Japan Mini LP Analog Collection} (part 4of6)



––––––––––––––––
Miles Davis - The Original Jacket Collection (2006) [30 Albums, 37 CDs] {DSD Japan Mini LP Analog Collection} (part 4of6)

Miles Davis - Nefertiti (1968) {2006 DSD Japan Mini LP Edition}
EAC rip (secure mode) | FLAC (tracks)+CUE+LOG -> 238 Mb | MP3 @320 -> 93 Mb | Artwork -> 66 Mb
© 2006 Sony Music Japan / Columbia | SICP 1218 | DSD | HQD High Quality Disc

Nefertiti, the fourth album by Miles Davis' second classic quintet, continues the forward motion of Sorcerer, as the group settles into a low-key, exploratory groove, offering music with recognizable themes – but themes that were deliberately dissonant, slightly unsettling even as they burrowed their way into the consciousness. In a sense, this is mood music, since, like on much of Sorcerer, the individual parts mesh in unpredictable ways, creating evocative, floating soundscapes. This music anticipates the free-fall, impressionistic work of In a Silent Way, yet it remains rooted in hard bop, particularly when the tempo is a bit sprightly, as on "Hand Jive." Yet even when the instrumentalists and soloists are placed in the foreground – such as Miles' extended opening solo on "Madness" or Hancock's long solo toward the end of the piece – this never feels like showcases for virtuosity, the way some showboating hard bop can, though each player shines. What's impressive, like on all of this quintet's sessions, is the interplay, how the musicians follow an unpredictable path as a unit, turning in music that is always searching, always provocative, and never boring. Perhaps Nefertiti's charms are a little more subtle than those of its predecessors, but that makes it intriguing. Besides, this album so clearly points the way to fusion, while remaining acoustic, that it may force listeners on either side of the fence into another direction.

Personnel: Miles Davis (trumpet); Wayne Shorter (tenor saxophone); Herbie Hancock (piano); Ron Carter (bass); Tony Williams (drums).

tracklist:
01. Nefertiti
02. Fall
03. Hand Jive
04. Madness
05. Riot
06. Pinocchio

Exact Audio Copy V0.99 prebeta 5 from 4. May 2009

EAC extraction logfile from 11. February 2013, 15:33

Miles Davis / Nefertiti

Used drive : PLEXTOR DVDR PX-L890SA Adapter: 6 ID: 0

Read mode : Secure
Utilize accurate stream : Yes
Defeat audio cache : Yes
Make use of C2 pointers : No

Read offset correction : 6
Overread into Lead-In and Lead-Out : No
Fill up missing offset samples with silence : Yes
Delete leading and trailing silent blocks : No
Null samples used in CRC calculations : Yes
Used interface : Native Win32 interface for Win NT & 2000
Gap handling : Appended to previous track

Used output format : User Defined Encoder
Selected bitrate : 1024 kBit/s
Quality : High
Add ID3 tag : No
Command line compressor : C:\Program Files (x86)\FLAC\flac.exe
Additional command line options : -8 -V -T "ARTIST=%a" -T "TITLE=%t" -T "ALBUM=%g" -T "DATE=%y" -T "TRACKNUMBER=%n" -T "GENRE=%m" -T "COMMENT=EAC FLAC -8" %s


TOC of the extracted CD

Track | Start | Length | Start sector | End sector
––––––––––––––––––––––––––––-
1 | 0:00.00 | 7:53.07 | 0 | 35481
2 | 7:53.07 | 6:38.19 | 35482 | 65350
3 | 14:31.26 | 8:55.48 | 65351 | 105523
4 | 23:26.74 | 7:32.39 | 105524 | 139462
5 | 30:59.38 | 3:03.46 | 139463 | 153233
6 | 34:03.09 | 5:05.70 | 153234 | 176178


Track 1

Filename C:\EAC\Miles Davis - The Original Jacket Collection (2006) [37CD]\18. Miles Davis - Nefertiti (1968) {2006 DSD Japan Mini LP Edition, SICP 1218}\01 - Nefertiti.wav

Pre-gap length 0:00:02.00

Peak level 94.4 %
Track quality 100.0 %
Test CRC A9D4901F
Copy CRC A9D4901F
Accurately ripped (confidence 6) [BDDECF61]
Copy OK

Track 2

Filename C:\EAC\Miles Davis - The Original Jacket Collection (2006) [37CD]\18. Miles Davis - Nefertiti (1968) {2006 DSD Japan Mini LP Edition, SICP 1218}\02 - Fall.wav

Pre-gap length 0:00:01.10

Peak level 68.8 %
Track quality 100.0 %
Test CRC BC489452
Copy CRC BC489452
Accurately ripped (confidence 6) [75CCDEBA]
Copy OK

Track 3

Filename C:\EAC\Miles Davis - The Original Jacket Collection (2006) [37CD]\18. Miles Davis - Nefertiti (1968) {2006 DSD Japan Mini LP Edition, SICP 1218}\03 - Hand Jive.wav

Pre-gap length 0:00:02.06

Peak level 72.7 %
Track quality 99.9 %
Test CRC 2883ECBB
Copy CRC 2883ECBB
Accurately ripped (confidence 6) [A448F201]
Copy OK

Track 4

Filename C:\EAC\Miles Davis - The Original Jacket Collection (2006) [37CD]\18. Miles Davis - Nefertiti (1968) {2006 DSD Japan Mini LP Edition, SICP 1218}\04 - Madness.wav

Pre-gap length 0:00:01.38

Peak level 65.3 %
Track quality 100.0 %
Test CRC 87A32B5C
Copy CRC 87A32B5C
Accurately ripped (confidence 6) [1F270590]
Copy OK

Track 5

Filename C:\EAC\Miles Davis - The Original Jacket Collection (2006) [37CD]\18. Miles Davis - Nefertiti (1968) {2006 DSD Japan Mini LP Edition, SICP 1218}\05 - Riot.wav

Pre-gap length 0:00:01.46

Peak level 61.3 %
Track quality 99.9 %
Test CRC 26EAB1EE
Copy CRC 26EAB1EE
Accurately ripped (confidence 6) [3431035B]
Copy OK

Track 6

Filename C:\EAC\Miles Davis - The Original Jacket Collection (2006) [37CD]\18. Miles Davis - Nefertiti (1968) {2006 DSD Japan Mini LP Edition, SICP 1218}\06 - Pinocchio.wav

Pre-gap length 0:00:01.64

Peak level 78.2 %
Track quality 100.0 %
Test CRC A0E865E3
Copy CRC A0E865E3
Accurately ripped (confidence 6) [AEF3D6EC]
Copy OK


All tracks accurately ripped

No errors occurred

End of status report


Miles Davis - The Original Jacket Collection (2006) [30 Albums, 37 CDs] {DSD Japan Mini LP Analog Collection} (part 4of6)



––––––––––––––––––-
Miles Davis - The Original Jacket Collection (2006) [30 Albums, 37 CDs] {DSD Japan Mini LP Analog Collection} (part 4of6)

Miles Davis - In A Silent Way (1969) {2006 DSD Japan Mini LP Edition}
EAC rip (secure mode) | FLAC (tracks)+CUE+LOG -> 228 Mb | MP3 @320 -> 92 Mb | Artwork
© 2006 Sony Music Japan / Columbia | SICP 1219 | DSD | HQD High Quality Disc

Listening to Miles Davis' originally released version of In a Silent Way in light of the complete sessions released by Sony in 2001 (Columbia Legacy 65362) reveals just how strategic and dramatic a studio construction it was. If one listens to Joe Zawinul's original version of "In a Silent Way," it comes across as almost a folk song with a very pronounced melody. The version Miles Davis and Teo Macero assembled from the recording session in July of 1968 is anything but. There is no melody, not even a melodic frame. There are only vamps and solos, grooves layered on top of other grooves spiraling toward space but ending in silence. But even these don't begin until almost ten minutes into the piece. It's Miles and McLaughlin, sparely breathing and wending their way through a series of seemingly disconnected phrases until the groove monster kicks in. The solos are extended, digging deep into the heart of the ethereal groove, which was dark, smoky, and ashen. McLaughlin and Hancock are particularly brilliant, but Corea's solo on the Fender Rhodes is one of his most articulate and spiraling on the instrument ever. The A-side of the album, "Shhh/Peaceful," is even more so. With Tony Williams shimmering away on the cymbals in double time, Miles comes out slippery and slowly, playing over the top of the vamp, playing ostinato and moving off into more mysterious territory a moment at a time. With Zawinul's organ in the background offering the occasional swell of darkness and dimension, Miles could continue indefinitely. But McLaughlin is hovering, easing in, moving up against the organ and the trills by Hancock and Corea; Wayne Shorter hesitantly winds in and out of the mix on his soprano, filling space until it's his turn to solo. But John McLaughlin, playing solos and fills throughout (the piece is like one long dreamy solo for the guitarist), is what gives it its open quality, like a piece of music with no borders as he turns in and through the commingling keyboards as Holland paces everything along. When the first round of solos ends, Zawinul and McLaughlin and Williams usher it back in with painterly decoration and illumination from Corea and Hancock. Miles picks up on another riff created by Corea and slips in to bring back the ostinato "theme" of the work. He plays glissando right near the very end, which is the only place where the band swells and the tune moves above a whisper before Zawinul's organ fades it into silence. This disc holds up, and perhaps is even stronger because of the issue of the complete sessions. It is, along with Jack Johnson and Bitches Brew, a signature Miles Davis session from the electric era

Personnel: Miles Davis (trumpet); Wayne Shorter (soprano saxophone); Chick Corea, Herbie Hancock (electric piano); Joe Zawinul (organ); Dave Holland (bass); John McLaughlin (guitar); Tony Williams (drums).

tracklist:
01. Shhh / Peaceful
02. In A Silent Way / It's About That Time

Exact Audio Copy V0.99 prebeta 5 from 4. May 2009

EAC extraction logfile from 12. March 2013, 14:21

Miles Davis / In A Silent Way

Used drive : PLEXTOR DVDR PX-L890SA Adapter: 6 ID: 0

Read mode : Secure
Utilize accurate stream : Yes
Defeat audio cache : Yes
Make use of C2 pointers : No

Read offset correction : 6
Overread into Lead-In and Lead-Out : No
Fill up missing offset samples with silence : Yes
Delete leading and trailing silent blocks : No
Null samples used in CRC calculations : Yes
Used interface : Native Win32 interface for Win NT & 2000
Gap handling : Appended to previous track

Used output format : User Defined Encoder
Selected bitrate : 1024 kBit/s
Quality : High
Add ID3 tag : No
Command line compressor : C:\Program Files (x86)\FLAC\flac.exe
Additional command line options : -8 -V -T "ARTIST=%a" -T "TITLE=%t" -T "ALBUM=%g" -T "DATE=%y" -T "TRACKNUMBER=%n" -T "GENRE=%m" -T "COMMENT=EAC FLAC -8" %s


TOC of the extracted CD

Track | Start | Length | Start sector | End sector
––––––––––––––––––––––––––––-
1 | 0:00.00 | 18:16.66 | 0 | 82265
2 | 18:16.66 | 19:53.44 | 82266 | 171784


Track 1

Filename C:\EAC\Miles Davis - The Original Jacket Collection (2006) [37CD]\19. Miles Davis - In A Silent Way (1969) {2006 DSD Japan Mini LP Edition, SICP 1219}\01 - Shhh , Peaceful.wav

Pre-gap length 0:00:02.00

Peak level 100.0 %
Track quality 100.0 %
Test CRC 68369AB9
Copy CRC 68369AB9
Accurately ripped (confidence 11) [5BBEE84A]
Copy OK

Track 2

Filename C:\EAC\Miles Davis - The Original Jacket Collection (2006) [37CD]\19. Miles Davis - In A Silent Way (1969) {2006 DSD Japan Mini LP Edition, SICP 1219}\02 - In a Silent Way , It's About That Time.wav

Pre-gap length 0:00:01.09

Peak level 100.0 %
Track quality 100.0 %
Test CRC 3A432331
Copy CRC 3A432331
Accurately ripped (confidence 11) [E5178D2E]
Copy OK


All tracks accurately ripped

No errors occurred

End of status report


Miles Davis - The Original Jacket Collection (2006) [30 Albums, 37 CDs] {DSD Japan Mini LP Analog Collection} (part 4of6)



––––––––––––––––––––
Miles Davis - The Original Jacket Collection (2006) [30 Albums, 37 CDs] {DSD Japan Mini LP Analog Collection} (part 4of6)

Miles Davis - Bitches Brew (1969) [2CD] {2006 DSD Japan Mini LP Edition}
EAC rip (secure mode) | FLAC (tracks)+CUE+LOG -> 601 Mb | MP3 @320 -> 224 Mb | Artwork
© 2006 Sony Music Japan / Columbia | SICP 1220~21 | DSD | HQD High Quality Disc

Thought by many to be among the most revolutionary albums in jazz history, Miles Davis' Bitches Brew solidified the genre known as jazz-rock fusion. The original double LP included only six cuts and featured up to 12 musicians at any given time, some of whom were already established while others would become high-profile players later, Joe Zawinul, Wayne Shorter, Airto, John McLaughlin, Chick Corea, Jack DeJohnette, Dave Holland, Don Alias, Bennie Maupin, Larry Young, and Lenny White among them. Originally thought to be a series of long jams locked into grooves around keyboard, bass, or guitar vamps, Bitches Brew is actually a recording that producer Teo Macero assembled from various jams and takes by razor blade, splice to splice, section to section. "Pharaoh's Dance" opens the set with its slippery trumpet lines, McLaughlin's snaky guitar figures skirting the edge of the rhythm section and Don Alias' conga slipping through the middle. Corea and Zawinul's keyboards create a haunted, riffing modal groove, echoed and accented by the basses of Harvey Brooks and Holland. The title cut was originally composed as a five-part suite, though only three were used. Here the keyboards punch through the mix and big chords ring up distorted harmonics for Davis to solo rhythmically over, outside the mode. McLaughlin's comping creates a vamp, and the bass and drums carry the rest. It's a small taste of the deep voodoo funk to appear on Davis' later records. Side three opens with McLaughlin and Davis trading fours and eights over a lockstep hypnotic vamp on "Spanish Key." Zawinul's lyric sensibility provides a near chorus for Corea to flit around in; the congas and drummers juxtapose themselves against the basslines. It nearly segues into the brief "John McLaughlin," featuring an organ playing modes below arpeggiated blues guitar runs. The end of Bitches Brew, signified by the stellar "Miles Runs the Voodoo Down," reflects the influence of Jimi Hendrix with its chunky, slipped chords and Davis playing a ghostly melody through the funkiness of the rhythm section. It seemingly dances, becoming increasingly more chaotic until it nearly disintegrates before shimmering into a loose foggy nadir. The disc closes with "Sanctuary," completely redone here as a moody electric ballad that was reworked for this band while keeping enough of its integrity to be recognizable. Bitches Brew is so forward-thinking that it retains its freshness and mystery in the 21st century.

Personnel: Miles Davis (trumpet); John McLaughlin (guitar, electric guitar); Harvey Brooks (electric guitar, electric bass, bass guitar); Bennie Maupin (bass clarinet); Wayne Shorter (soprano saxophone); Joe Zawinul (electric piano, organ); Chick Corea, Larry Young (electric piano); Don Alias (drums, congas, percussion); Jack DeJohnette, Lenny White (drums); Jumma Santos (congas, shaker, percussion); Airto Moreira (cuica, percussion); Jim Riley (percussion); Dave Holland (bass).

tracklist:
CD1

01. Pharaoh's Dance
02. Bitches Brew

CD2
01. Spanish Key
02. John Mclaughlin
03. Miles Runs The Voodoo Down
04. Sanctuary

Exact Audio Copy V0.99 prebeta 5 from 4. May 2009

EAC extraction logfile from 12. February 2013, 10:08

Miles Davis / Bitches Brew (CD1)

Used drive : PLEXTOR DVDR PX-L890SA Adapter: 6 ID: 0

Read mode : Secure
Utilize accurate stream : Yes
Defeat audio cache : Yes
Make use of C2 pointers : No

Read offset correction : 6
Overread into Lead-In and Lead-Out : No
Fill up missing offset samples with silence : Yes
Delete leading and trailing silent blocks : No
Null samples used in CRC calculations : Yes
Used interface : Native Win32 interface for Win NT & 2000
Gap handling : Appended to previous track

Used output format : User Defined Encoder
Selected bitrate : 1024 kBit/s
Quality : High
Add ID3 tag : No
Command line compressor : C:\Program Files (x86)\FLAC\flac.exe
Additional command line options : -8 -V -T "ARTIST=%a" -T "TITLE=%t" -T "ALBUM=%g" -T "DATE=%y" -T "TRACKNUMBER=%n" -T "GENRE=%m" -T "COMMENT=EAC FLAC -8" %s


TOC of the extracted CD

Track | Start | Length | Start sector | End sector
––––––––––––––––––––––––––––-
1 | 0:00.00 | 20:04.64 | 0 | 90363
2 | 20:04.64 | 26:57.52 | 90364 | 211690


Track 1

Filename C:\EAC\Miles Davis - The Original Jacket Collection (2006) [37CD]\20. Miles Davis - Bitches Brew (1969) [2CD] {2006 DSD Japan Mini LP Edition, SICP 1220~21}\CD1\01 - Pharaoh's Dance.wav

Pre-gap length 0:00:02.00

Peak level 100.0 %
Track quality 100.0 %
Test CRC 30C523D0
Copy CRC 30C523D0
Accurately ripped (confidence 10) [A60415F8]
Copy OK

Track 2

Filename C:\EAC\Miles Davis - The Original Jacket Collection (2006) [37CD]\20. Miles Davis - Bitches Brew (1969) [2CD] {2006 DSD Japan Mini LP Edition, SICP 1220~21}\CD1\02 - Bitches Brew.wav

Peak level 100.0 %
Track quality 100.0 %
Test CRC 9D146CF7
Copy CRC 9D146CF7
Accurately ripped (confidence 10) [CE117870]
Copy OK


All tracks accurately ripped

No errors occurred

End of status report

Exact Audio Copy V0.99 prebeta 5 from 4. May 2009

EAC extraction logfile from 12. February 2013, 12:11

Miles Davis / Bitches Brew (CD2)

Used drive : PLEXTOR DVDR PX-L890SA Adapter: 6 ID: 0

Read mode : Secure
Utilize accurate stream : Yes
Defeat audio cache : Yes
Make use of C2 pointers : No

Read offset correction : 6
Overread into Lead-In and Lead-Out : No
Fill up missing offset samples with silence : Yes
Delete leading and trailing silent blocks : No
Null samples used in CRC calculations : Yes
Used interface : Native Win32 interface for Win NT & 2000
Gap handling : Appended to previous track

Used output format : User Defined Encoder
Selected bitrate : 1024 kBit/s
Quality : High
Add ID3 tag : No
Command line compressor : C:\Program Files (x86)\FLAC\flac.exe
Additional command line options : -8 -V -T "ARTIST=%a" -T "TITLE=%t" -T "ALBUM=%g" -T "DATE=%y" -T "TRACKNUMBER=%n" -T "GENRE=%m" -T "COMMENT=EAC FLAC -8" %s


TOC of the extracted CD

Track | Start | Length | Start sector | End sector
––––––––––––––––––––––––––––-
1 | 0:00.00 | 17:34.15 | 0 | 79064
2 | 17:34.15 | 4:25.47 | 79065 | 98986
3 | 21:59.62 | 14:03.35 | 98987 | 162246
4 | 36:03.22 | 10:57.09 | 162247 | 211530


Track 1

Filename C:\EAC\Miles Davis - The Original Jacket Collection (2006) [37CD]\20. Miles Davis - Bitches Brew (1969) [2CD] {2006 DSD Japan Mini LP Edition, SICP 1220~21}\CD2\01 - Spanish Key.wav

Pre-gap length 0:00:02.00

Peak level 100.0 %
Track quality 100.0 %
Test CRC 1BA334AA
Copy CRC 1BA334AA
Accurately ripped (confidence 11) [9626491B]
Copy OK

Track 2

Filename C:\EAC\Miles Davis - The Original Jacket Collection (2006) [37CD]\20. Miles Davis - Bitches Brew (1969) [2CD] {2006 DSD Japan Mini LP Edition, SICP 1220~21}\CD2\02 - John McLaughlin.wav

Pre-gap length 0:00:01.60

Peak level 85.0 %
Track quality 99.9 %
Test CRC 43C3D09E
Copy CRC 43C3D09E
Accurately ripped (confidence 11) [1648BBAE]
Copy OK

Track 3

Filename C:\EAC\Miles Davis - The Original Jacket Collection (2006) [37CD]\20. Miles Davis - Bitches Brew (1969) [2CD] {2006 DSD Japan Mini LP Edition, SICP 1220~21}\CD2\03 - Miles Runs The Voodoo Down.wav

Pre-gap length 0:00:02.20

Peak level 97.1 %
Track quality 99.9 %
Test CRC 2E14D1CE
Copy CRC 2E14D1CE
Accurately ripped (confidence 11) [48DCA28F]
Copy OK

Track 4

Filename C:\EAC\Miles Davis - The Original Jacket Collection (2006) [37CD]\20. Miles Davis - Bitches Brew (1969) [2CD] {2006 DSD Japan Mini LP Edition, SICP 1220~21}\CD2\04 - Sanctuary.wav

Pre-gap length 0:00:01.86

Peak level 94.5 %
Track quality 100.0 %
Test CRC 79ACFF40
Copy CRC 79ACFF40
Accurately ripped (confidence 10) [DA92576A]
Copy OK


All tracks accurately ripped

No errors occurred

End of status report


Miles Davis - The Original Jacket Collection (2006) [30 Albums, 37 CDs] {DSD Japan Mini LP Analog Collection} (part 4of6)


See also:
Miles Davis - The Original Jacket Collection (2006) [30 Albums, 37 CDs] {DSD Japan Mini LP Analog Collection} (part 1of6)
Miles Davis - The Original Jacket Collection (2006) [30 Albums, 37 CDs] {DSD Japan Mini LP Analog Collection} (part 2of6)
Miles Davis - The Original Jacket Collection (2006) [30 Albums, 37 CDs] {DSD Japan Mini LP Analog Collection} (part 3of6)
===



Miles Davis - Miles Smiles (1966) {2006 DSD Japan Mini LP SICP 1216}

Nitroflare

Miles Davis - Sorcerer (1967) {2006 DSD Japan Mini LP Edition SICP 1217}

Nitroflare

Miles Davis - Nefertiti (1968) {2006 DSD Japan Mini LP Edition SICP 1218}

Nitroflare

Miles Davis - In A Silent Way (1969) {2006 DSD Japan Mini LP Edition SICP 1219}

Nitroflare

Miles Davis - Bitches Brew (1970) {2CD 2006 DSD Japan Mini LP Edition SICP 1220-21}

Nitroflare