Subcategories

Miles Davis - The Original Jacket Collection (2006) [30 Albums, 37 CDs] {DSD Japan Mini LP Analog Collection} (part 5of6)

Posted By: ruskaval
Miles Davis - The Original Jacket Collection (2006) [30 Albums, 37 CDs] {DSD Japan Mini LP Analog Collection} (part 5of6)

Miles Davis - The Original Jacket Collection (2006) [30 Albums, 37 CDs] {DSD Japan Mini LP Analog Collection} (part 5of6)
EAC rip (secure mode) | FLAC (tracks)+CUE+LOG -> 2.88 Gb | MP3 @320 -> 1.11 Gb | Artwork
© 2006 Sony Music Japan / Columbia | SICP 1222~29 | DSD | HQD High Quality Disc
Jazz / Fusion / Jazz Rock / Jazz Funk / Trumpet

None of Miles Davis' recordings has been more shrouded in mystery than Jack Johnson, yet none has better fulfilled Miles Davis' promise that he could form the "greatest rock band you ever heard." Containing only two tracks, the album was assembled out of no less than four recording sessions between February 18, 1970, and June 4, 1970, and was patched together by producer Teo Macero. Most of the outtake material ended up on Directions, Big Fun, and elsewhere. The first misconception is the lineup: the credits on the recording are incomplete. For the opener, "Right Off," the band is Miles, John McLaughlin, Billy Cobham, Herbie Hancock, Michael Henderson, and Steve Grossman (no piano player!), which reflects the liner notes.
Miles Davis - The Original Jacket Collection (2006) [30 Albums, 37 CDs] {DSD Japan Mini LP Analog Collection} (part 5of6)

Miles Davis - The Original Jacket Collection (2006) [30 Albums, 37 CDs] {DSD Japan Mini LP Analog Collection} (part 5of6)


–––––––––-
Miles Davis - The Original Jacket Collection (2006) [30 Albums, 37 CDs] {DSD Japan Mini LP Analog Collection} (part 5of6)

Miles Davis - A Tribute To Jack Johnson (1971) {2006 DSD Japan Mini LP Edition}
EAC rip (secure mode) | FLAC (tracks)+CUE+LOG -> 338 Mb | MP3 @320 -> 126 Mb | Artwork
© 2006 Sony Music Japan / Columbia | SICP 1222 | DSD | HQD High Quality Disc

This was from the musicians' point of view, in a single take, recorded as McLaughlin began riffing in the studio while waiting for Miles; it was picked up on by Henderson and Cobham, Hancock was ushered in to jump on a Hammond organ (he was passing through the building), and Miles rushed in at 2:19 and proceeded to play one of the longest, funkiest, knottiest, and most complex solos of his career. Seldom has he cut loose like that and played in the high register with such a full sound. In the meantime, the interplay between Cobham, McLaughlin, and Henderson is out of the box, McLaughlin playing long, angular chords centering around E. This was funky, dirty rock & roll jazz. There is this groove that gets nastier and nastier as the track carries on, and never quits, though there are insertions by Macero of two Miles takes on Sly Stone tunes and an ambient textured section before the band comes back with the groove, fires it up again, and carries it out. On "Yesternow," the case is far more complex. There are two lineups, the one mentioned above, and one that begins at about 12:55. The second lineup was Miles, McLaughlin, Jack DeJohnette, Chick Corea, Bennie Maupin, Dave Holland, and Sonny Sharrock. The first 12 minutes of the tune revolve around a single bass riff lifted from James Brown's "Say It Loud, I'm Black and I'm Proud." The material that eases the first half of the tune into the second is taken from "Shhh/Peaceful," from In a Silent Way, overdubbed with the same trumpet solo that is in the ambient section of "Right Off." It gets more complex as the original lineup is dubbed back in with a section from Miles' tune "Willie Nelson," another part of the ambient section of "Right Off," and an orchestral bit of "The Man Nobody Saw" at 23:52, before the voice of Jack Johnson (by actor Brock Peters) takes the piece out. The highly textured, nearly pastoral ambience at the end of the album is a fitting coda to the chilling, overall high-energy rockist stance of the album. Jack Johnson is the purest electric jazz record ever made because of the feeling of spontaneity and freedom it evokes in the listener, for the stellar and inspiring solos by McLaughlin and Davis that blur all edges between the two musics, and for the tireless perfection of the studio assemblage by Miles and producer Macero.

Personnel: Miles Davis (trumpet); Brock Peters (spoken vocals); John McLaughlin, Sonny Sharrock (electric guitar); Steve Grossman (soprano saxophone); Herbie Hancock (organ); Michael Henderson (bass guitar); Billy Cobham (drums).

tracklist:
01. Right Off
02. Yesternow

Exact Audio Copy V0.99 prebeta 5 from 4. May 2009

EAC extraction logfile from 6. February 2013, 15:32

Miles Davis / A Tribute To Jack Johnson

Used drive : PLEXTOR DVDR PX-L890SA Adapter: 6 ID: 0

Read mode : Secure
Utilize accurate stream : Yes
Defeat audio cache : Yes
Make use of C2 pointers : No

Read offset correction : 6
Overread into Lead-In and Lead-Out : No
Fill up missing offset samples with silence : Yes
Delete leading and trailing silent blocks : No
Null samples used in CRC calculations : Yes
Used interface : Native Win32 interface for Win NT & 2000
Gap handling : Appended to previous track

Used output format : User Defined Encoder
Selected bitrate : 1024 kBit/s
Quality : High
Add ID3 tag : No
Command line compressor : C:\Program Files (x86)\FLAC\flac.exe
Additional command line options : -8 -V -T "ARTIST=%a" -T "TITLE=%t" -T "ALBUM=%g" -T "DATE=%y" -T "TRACKNUMBER=%n" -T "GENRE=%m" -T "COMMENT=EAC FLAC -8" %s


TOC of the extracted CD

Track | Start | Length | Start sector | End sector
––––––––––––––––––––––––––––-
1 | 0:00.00 | 26:52.61 | 0 | 120960
2 | 26:52.61 | 25:33.45 | 120961 | 235980


Track 1

Filename C:\EAC\Miles Davis - The Original Jacket Collection (2006) [37CD]\21. Miles Davis - A Tribute To Jack Johnson (1971) {2006 DSD Japan Mini LP Edition, SICP 1222}\01 - Right Off.wav

Pre-gap length 0:00:02.00

Peak level 100.0 %
Track quality 99.9 %
Test CRC 633E282E
Copy CRC 633E282E
Accurately ripped (confidence 5) [5760380B]
Copy OK

Track 2

Filename C:\EAC\Miles Davis - The Original Jacket Collection (2006) [37CD]\21. Miles Davis - A Tribute To Jack Johnson (1971) {2006 DSD Japan Mini LP Edition, SICP 1222}\02 - Yesternow.wav

Pre-gap length 0:00:02.46

Peak level 100.0 %
Track quality 100.0 %
Test CRC E12F460E
Copy CRC E12F460E
Accurately ripped (confidence 5) [3A8F370B]
Copy OK


All tracks accurately ripped

No errors occurred

End of status report


Miles Davis - The Original Jacket Collection (2006) [30 Albums, 37 CDs] {DSD Japan Mini LP Analog Collection} (part 5of6)



––––––––––––––-
Miles Davis - The Original Jacket Collection (2006) [30 Albums, 37 CDs] {DSD Japan Mini LP Analog Collection} (part 5of6)

Miles Davis - At Fillmore. Live At The Fillmore East (1970) [2CD] {2006 DSD Japan Mini LP Edition}
EAC rip (secure mode) | FLAC (tracks)+CUE+LOG -> 650 Mb | MP3 @320 -> 244 Mb | Artwork
© 2006 Sony Music Japan / Columbia | SICP 1223~24 | DSD | HQD High Quality Disc

With the critical reviews for Bitches Brew popping up in everything from local and national newspapers to jazz magazines, and Steve Grossman firmly established in the saxophone chair recently vacated by Wayne Shorter, Miles threw his band a curve ball. He added Keith Jarrett on organ to a group that already included bassist Dave Holland, electric pianist Chick Corea, percussionist Airto Moreira, and drummer Jack DeJohnette for a four-night stand at the Fillmore East. This double-LP/CD package puts together selections from each night, without regard for repetition. It's fine that there are numerous performances of certain tunes: the problem is that, although the music is compelling, it's schizophrenic because there are no full performances on the final release; they were all edited severely (as was standard practice by Teo Macero and Davis). Rather than the long jams that fans and foes had been accustomed to hearing, presented here are snippets taken from the heart of the performances, such as two and a half minutes from "Directions" and eight from the center of "It's About That Time" (which sounds a hell of a lot like Weather Report's "125th Street Congress" from Sweetnighter). To compound this, when the music from Friday night actually collects some of the music from Thursday night – different segments are edited within tunes, the grooves don't necessarily match and for this set (unlike many other live Miles dates) just as a composition starts to gel, it segues into another rather abruptly. Organically, in a live setting, it isn't the way Miles worked; pieces would evolve, slowly, with a kind of spooky continuity.

Personnel: Miles Davis (trumpet); Steve Grossman (soprano saxophone); Chick Corea (Fender Rhodes piano); Keith Jarrett (organ); Dave Holland (acoustic & electric basses); Jack DeJohnette (drums); Airto Moreira (percussion).

tracklist:
CD1

01. Directions
02. Bitches Brew
03. The Mask
04. It's About That Time
05. Bitches Brew / The Theme
06. Directions
07. The Mask
08. It's About That Time

CD2
01. It's About That Time
02. I Fall in Love Too Easily
03. Sanctuary
04. Bitches Brew / The Theme
05. It's About That Time
06. I Fall in Love Too Easily
07. Sanctuary
08. Bitches Brew
09. Willie Nelson / The Theme

Exact Audio Copy V0.99 prebeta 5 from 4. May 2009

EAC extraction logfile from 6. February 2013, 16:34

Miles Davis / At Fillmore. Live At The Fillmore East (CD1)

Used drive : PLEXTOR DVDR PX-L890SA Adapter: 6 ID: 0

Read mode : Secure
Utilize accurate stream : Yes
Defeat audio cache : Yes
Make use of C2 pointers : No

Read offset correction : 6
Overread into Lead-In and Lead-Out : No
Fill up missing offset samples with silence : Yes
Delete leading and trailing silent blocks : No
Null samples used in CRC calculations : Yes
Used interface : Native Win32 interface for Win NT & 2000
Gap handling : Appended to previous track

Used output format : User Defined Encoder
Selected bitrate : 1024 kBit/s
Quality : High
Add ID3 tag : No
Command line compressor : C:\Program Files (x86)\FLAC\flac.exe
Additional command line options : -8 -V -T "ARTIST=%a" -T "TITLE=%t" -T "ALBUM=%g" -T "DATE=%y" -T "TRACKNUMBER=%n" -T "GENRE=%m" -T "COMMENT=EAC FLAC -8" %s


TOC of the extracted CD

Track | Start | Length | Start sector | End sector
––––––––––––––––––––––––––––-
1 | 0:00.00 | 2:29.59 | 0 | 11233
2 | 2:29.59 | 0:53.21 | 11234 | 15229
3 | 3:23.05 | 1:35.35 | 15230 | 22389
4 | 4:58.40 | 8:12.44 | 22390 | 59333
5 | 13:11.09 | 10:59.17 | 59334 | 108775
6 | 24:10.26 | 5:35.61 | 108776 | 133961
7 | 29:46.12 | 9:50.18 | 133962 | 178229
8 | 39:36.30 | 11:23.39 | 178230 | 229493


Track 1

Filename C:\EAC\Miles Davis - The Original Jacket Collection (2006) [37CD]\22. Miles Davis - At Fillmore. Live At The Fillmore East (1970) [2CD] {2006 DSD Japan Mini LP Edition, SICP 1223~24}\CD1\01 - Wednesday Miles- Directions.wav

Pre-gap length 0:00:02.00

Peak level 83.1 %
Track quality 100.0 %
Test CRC 4760C6B7
Copy CRC 4760C6B7
Accurately ripped (confidence 5) [3126B048]
Copy OK

Track 2

Filename C:\EAC\Miles Davis - The Original Jacket Collection (2006) [37CD]\22. Miles Davis - At Fillmore. Live At The Fillmore East (1970) [2CD] {2006 DSD Japan Mini LP Edition, SICP 1223~24}\CD1\02 - Wednesday Miles - Bitches Brew.wav

Peak level 89.9 %
Track quality 100.0 %
Test CRC 35F1397F
Copy CRC 35F1397F
Accurately ripped (confidence 5) [A4E92E46]
Copy OK

Track 3

Filename C:\EAC\Miles Davis - The Original Jacket Collection (2006) [37CD]\22. Miles Davis - At Fillmore. Live At The Fillmore East (1970) [2CD] {2006 DSD Japan Mini LP Edition, SICP 1223~24}\CD1\03 - Wednesday Miles - The Mask.wav

Peak level 96.6 %
Track quality 100.0 %
Test CRC 49842233
Copy CRC 49842233
Accurately ripped (confidence 5) [64A3F96D]
Copy OK

Track 4

Filename C:\EAC\Miles Davis - The Original Jacket Collection (2006) [37CD]\22. Miles Davis - At Fillmore. Live At The Fillmore East (1970) [2CD] {2006 DSD Japan Mini LP Edition, SICP 1223~24}\CD1\04 - Wednesday Miles - It's About That Time.wav

Peak level 93.1 %
Track quality 100.0 %
Test CRC 7D9F3123
Copy CRC 7D9F3123
Accurately ripped (confidence 5) [D0168D78]
Copy OK

Track 5

Filename C:\EAC\Miles Davis - The Original Jacket Collection (2006) [37CD]\22. Miles Davis - At Fillmore. Live At The Fillmore East (1970) [2CD] {2006 DSD Japan Mini LP Edition, SICP 1223~24}\CD1\05 - Wednesday Miles - Bitches Brew,The Theme.wav

Peak level 100.0 %
Track quality 100.0 %
Test CRC 0E591059
Copy CRC 0E591059
Accurately ripped (confidence 5) [FF5095E0]
Copy OK

Track 6

Filename C:\EAC\Miles Davis - The Original Jacket Collection (2006) [37CD]\22. Miles Davis - At Fillmore. Live At The Fillmore East (1970) [2CD] {2006 DSD Japan Mini LP Edition, SICP 1223~24}\CD1\06 - Thursday Miles - Directions.wav

Pre-gap length 0:00:02.48

Peak level 86.8 %
Track quality 100.0 %
Test CRC 90324960
Copy CRC 90324960
Accurately ripped (confidence 5) [FC570A33]
Copy OK

Track 7

Filename C:\EAC\Miles Davis - The Original Jacket Collection (2006) [37CD]\22. Miles Davis - At Fillmore. Live At The Fillmore East (1970) [2CD] {2006 DSD Japan Mini LP Edition, SICP 1223~24}\CD1\07 - Thursday Miles - The Mask.wav

Peak level 94.8 %
Track quality 100.0 %
Test CRC 8AA429D8
Copy CRC 8AA429D8
Accurately ripped (confidence 5) [949BD850]
Copy OK

Track 8

Filename C:\EAC\Miles Davis - The Original Jacket Collection (2006) [37CD]\22. Miles Davis - At Fillmore. Live At The Fillmore East (1970) [2CD] {2006 DSD Japan Mini LP Edition, SICP 1223~24}\CD1\08 - Thursday Miles - It's About That Time.wav

Peak level 91.7 %
Track quality 100.0 %
Test CRC 5FE295F9
Copy CRC 5FE295F9
Accurately ripped (confidence 5) [2D1233DD]
Copy OK


All tracks accurately ripped

No errors occurred

End of status report

Exact Audio Copy V0.99 prebeta 5 from 4. May 2009

EAC extraction logfile from 6. February 2013, 18:37

Miles Davis / At Fillmore. Live At The Fillmore East (CD2)

Used drive : PLEXTOR DVDR PX-L890SA Adapter: 6 ID: 0

Read mode : Secure
Utilize accurate stream : Yes
Defeat audio cache : Yes
Make use of C2 pointers : No

Read offset correction : 6
Overread into Lead-In and Lead-Out : No
Fill up missing offset samples with silence : Yes
Delete leading and trailing silent blocks : No
Null samples used in CRC calculations : Yes
Used interface : Native Win32 interface for Win NT & 2000
Gap handling : Appended to previous track

Used output format : User Defined Encoder
Selected bitrate : 1024 kBit/s
Quality : High
Add ID3 tag : No
Command line compressor : C:\Program Files (x86)\FLAC\flac.exe
Additional command line options : -8 -V -T "ARTIST=%a" -T "TITLE=%t" -T "ALBUM=%g" -T "DATE=%y" -T "TRACKNUMBER=%n" -T "GENRE=%m" -T "COMMENT=EAC FLAC -8" %s


TOC of the extracted CD

Track | Start | Length | Start sector | End sector
––––––––––––––––––––––––––––-
1 | 0:00.00 | 9:00.19 | 0 | 40518
2 | 9:00.19 | 2:01.42 | 40519 | 49635
3 | 11:01.61 | 3:44.06 | 49636 | 66441
4 | 14:45.67 | 13:13.27 | 66442 | 125943
5 | 27:59.19 | 3:43.31 | 125944 | 142699
6 | 31:42.50 | 0:53.65 | 142700 | 146739
7 | 32:36.40 | 2:49.10 | 146740 | 159424
8 | 35:25.50 | 6:57.12 | 159425 | 190711
9 | 42:22.62 | 7:58.48 | 190712 | 226609


Track 1

Filename C:\EAC\Miles Davis - The Original Jacket Collection (2006) [37CD]\22. Miles Davis - At Fillmore. Live At The Fillmore East (1970) [2CD] {2006 DSD Japan Mini LP Edition, SICP 1223~24}\CD2\01 - Friday Miles - It's About That Time.wav

Pre-gap length 0:00:02.00

Peak level 90.5 %
Track quality 99.9 %
Test CRC C572E81B
Copy CRC C572E81B
Accurately ripped (confidence 5) [0112D736]
Copy OK

Track 2

Filename C:\EAC\Miles Davis - The Original Jacket Collection (2006) [37CD]\22. Miles Davis - At Fillmore. Live At The Fillmore East (1970) [2CD] {2006 DSD Japan Mini LP Edition, SICP 1223~24}\CD2\02 - Friday Miles - I Fall In Love Too Easily.wav

Peak level 79.2 %
Track quality 100.0 %
Test CRC FC3935C4
Copy CRC FC3935C4
Accurately ripped (confidence 5) [40DD2907]
Copy OK

Track 3

Filename C:\EAC\Miles Davis - The Original Jacket Collection (2006) [37CD]\22. Miles Davis - At Fillmore. Live At The Fillmore East (1970) [2CD] {2006 DSD Japan Mini LP Edition, SICP 1223~24}\CD2\03 - Friday Miles - Sanctuary.wav

Peak level 86.5 %
Track quality 100.0 %
Test CRC FD782B0F
Copy CRC FD782B0F
Accurately ripped (confidence 5) [7D77DFF6]
Copy OK

Track 4

Filename C:\EAC\Miles Davis - The Original Jacket Collection (2006) [37CD]\22. Miles Davis - At Fillmore. Live At The Fillmore East (1970) [2CD] {2006 DSD Japan Mini LP Edition, SICP 1223~24}\CD2\04 - Friday Miles - Bitches Brew,The Theme.wav

Peak level 90.4 %
Track quality 100.0 %
Test CRC D35B9BF0
Copy CRC D35B9BF0
Accurately ripped (confidence 5) [8FDB789C]
Copy OK

Track 5

Filename C:\EAC\Miles Davis - The Original Jacket Collection (2006) [37CD]\22. Miles Davis - At Fillmore. Live At The Fillmore East (1970) [2CD] {2006 DSD Japan Mini LP Edition, SICP 1223~24}\CD2\05 - Saturday Miles - It's About That Time.wav

Pre-gap length 0:00:02.46

Peak level 79.5 %
Track quality 100.0 %
Test CRC 9B936633
Copy CRC 9B936633
Accurately ripped (confidence 5) [4ECBA052]
Copy OK

Track 6

Filename C:\EAC\Miles Davis - The Original Jacket Collection (2006) [37CD]\22. Miles Davis - At Fillmore. Live At The Fillmore East (1970) [2CD] {2006 DSD Japan Mini LP Edition, SICP 1223~24}\CD2\06 - Saturday Miles - I Fall In Love Too Easily.wav

Peak level 65.2 %
Track quality 100.0 %
Test CRC 988CA22E
Copy CRC 988CA22E
Accurately ripped (confidence 5) [FF1D2AE4]
Copy OK

Track 7

Filename C:\EAC\Miles Davis - The Original Jacket Collection (2006) [37CD]\22. Miles Davis - At Fillmore. Live At The Fillmore East (1970) [2CD] {2006 DSD Japan Mini LP Edition, SICP 1223~24}\CD2\07 - Saturday Miles - Sanctuary.wav

Peak level 83.0 %
Track quality 100.0 %
Test CRC 5D1D9CF8
Copy CRC 5D1D9CF8
Accurately ripped (confidence 5) [4FD0AB76]
Copy OK

Track 8

Filename C:\EAC\Miles Davis - The Original Jacket Collection (2006) [37CD]\22. Miles Davis - At Fillmore. Live At The Fillmore East (1970) [2CD] {2006 DSD Japan Mini LP Edition, SICP 1223~24}\CD2\08 - Saturday Miles - Bitches Brew.wav

Peak level 84.7 %
Track quality 100.0 %
Test CRC 88DF8E94
Copy CRC 88DF8E94
Accurately ripped (confidence 5) [0CE4D311]
Copy OK

Track 9

Filename C:\EAC\Miles Davis - The Original Jacket Collection (2006) [37CD]\22. Miles Davis - At Fillmore. Live At The Fillmore East (1970) [2CD] {2006 DSD Japan Mini LP Edition, SICP 1223~24}\CD2\09 - Saturday Miles - Willie Nelson,The Theme.wav

Peak level 89.1 %
Track quality 100.0 %
Test CRC 9886F544
Copy CRC 9886F544
Accurately ripped (confidence 5) [B6BF3F2A]
Copy OK


All tracks accurately ripped

No errors occurred

End of status report


Miles Davis - The Original Jacket Collection (2006) [30 Albums, 37 CDs] {DSD Japan Mini LP Analog Collection} (part 5of6)



––––––––––––-
Miles Davis - The Original Jacket Collection (2006) [30 Albums, 37 CDs] {DSD Japan Mini LP Analog Collection} (part 5of6)

Miles Davis - Live-Evil (1971) [2CD] {2006 DSD Japan Mini LP Edition}
EAC rip (secure mode) | FLAC (tracks)+CUE+LOG -> 672 Mb | MP3 @320 -> 245 Mb | Artwork
© 2006 Sony Music Japan / Columbia | SICP 1225~26 | DSD | HQD High Quality Disc

Live-Evil is one of Miles Davis' most confusing and illuminating documents. As a double album, it features very different settings of his band – and indeed two very different bands. The double-LP CD package is an amalgam of a December 19, 1970, gig at the Cellar Door, which featured a band comprised of Miles, bassist Michael Henderson, drummer Jack DeJohnette, guitarist John McLaughlin, saxophonist Gary Bartz, Keith Jarrett on organ, and percussionist Airto. These tunes show a septet that grooved hard and fast, touching on the great funkiness that would come on later. But they are also misleading in that McLaughlin only joined the band for this night of a four-night stand; he wasn't really a member of the band at this time. Therefore, as fine and deeply lyrically grooved-out as these tracks are, they feel just a bit stiff – check any edition of this band without him and hear the difference. The other band on these discs was recorded in Columbia's Studio B and subbed Ron Carter or Dave Holland on bass, added Chick Corea and Herbie Hancock on electric pianos, dropped the guitar on "Selim" and "Nem Um Talvez," and subbed Steve Grossman over Gary Bartz while adding Hermeto Pascoal on percussion and drums in one place ("Selim"). In fact, these sessions were recorded earlier than the live dates, the previous June in fact, when the three-keyboard band was beginning to fall apart. Why the discs were not issued separately or as a live disc and a studio disc has more to do with Miles' mind than anything else. As for the performances, the live material is wonderfully immediate and fiery: "Sivad," "Funky Tonk," and "What I Say" all cream with enthusiasm, even if they are a tad unsure of how to accommodate McLaughlin. Of the studio tracks, only "Little Red Church" comes up to that level of excitement, but the other tracks, particularly "Gemini/Double Image," have a winding, whirring kind of dynamic to them that seems to turn them back in on themselves, as if the band was really pushing in a free direction that Miles was trying to rein in. It's an awesome record, but it's because of its flaws rather than in spite of them. This is the sound of transition and complexity, and somehow it still grooves wonderfully.

Personnel: Miles Davis (trumpet); Hermeto Pascoal (vocals, whistling, electric piano, drums); John McLaughlin (guitar); Khalil Balakrishna (electric sitar); Gary Bartz (soprano saxophone, alto saxophone); Steve Grossman, Wayne Shorter (soprano saxophone); Keith Jarrett (electric piano, organ, keyboards); Herbie Hancock (electric piano, keyboards); Chick Corea, Joe Zawinul (electric piano); Dave Holland (acoustic bass, electric bass); Ron Carter (acoustic bass); Michael Henderson (electric bass, bass guitar); Jack DeJohnette, Billy Cobham (drums); Airto Moreira (percussion).

tracklist:
CD1

01. Sivad
02. Little Church
03. Medley: Gemini/Double
04. What I Say
05. Nem Um Talvez

CD2
01. Selim
02. Funky Tonk
03. Inamorata and Narration by Conrad Roberts

Exact Audio Copy V0.99 prebeta 5 from 4. May 2009

EAC extraction logfile from 6. February 2013, 19:45

Miles Davis / Live-Evil (CD1)

Used drive : PLEXTOR DVDR PX-L890SA Adapter: 6 ID: 0

Read mode : Secure
Utilize accurate stream : Yes
Defeat audio cache : Yes
Make use of C2 pointers : No

Read offset correction : 6
Overread into Lead-In and Lead-Out : No
Fill up missing offset samples with silence : Yes
Delete leading and trailing silent blocks : No
Null samples used in CRC calculations : Yes
Used interface : Native Win32 interface for Win NT & 2000
Gap handling : Appended to previous track

Used output format : User Defined Encoder
Selected bitrate : 1024 kBit/s
Quality : High
Add ID3 tag : No
Command line compressor : C:\Program Files (x86)\FLAC\flac.exe
Additional command line options : -8 -V -T "ARTIST=%a" -T "TITLE=%t" -T "ALBUM=%g" -T "DATE=%y" -T "TRACKNUMBER=%n" -T "GENRE=%m" -T "COMMENT=EAC FLAC -8" %s


TOC of the extracted CD

Track | Start | Length | Start sector | End sector
––––––––––––––––––––––––––––-
1 | 0:00.00 | 15:16.25 | 0 | 68724
2 | 15:16.25 | 3:16.72 | 68725 | 83496
3 | 18:33.22 | 5:54.28 | 83497 | 110074
4 | 24:27.50 | 21:12.02 | 110075 | 205476
5 | 45:39.52 | 4:04.15 | 205477 | 223791


Track 1

Filename C:\EAC\Miles Davis - The Original Jacket Collection (2006) [37CD]\23. Miles Davis - Live-Evil (1971) [2CD] [2CD] {2006 DSD Japan Mini LP Edition, SICP 1225~26}\CD1\01 - Sivad.wav

Pre-gap length 0:00:02.00

Peak level 95.7 %
Track quality 100.0 %
Test CRC DDB465A2
Copy CRC DDB465A2
Accurately ripped (confidence 5) [E9538E86]
Copy OK

Track 2

Filename C:\EAC\Miles Davis - The Original Jacket Collection (2006) [37CD]\23. Miles Davis - Live-Evil (1971) [2CD] [2CD] {2006 DSD Japan Mini LP Edition, SICP 1225~26}\CD1\02 - Little Church.wav

Pre-gap length 0:00:01.33

Peak level 93.4 %
Track quality 100.0 %
Test CRC A4A50195
Copy CRC A4A50195
Accurately ripped (confidence 5) [D9BF1594]
Copy OK

Track 3

Filename C:\EAC\Miles Davis - The Original Jacket Collection (2006) [37CD]\23. Miles Davis - Live-Evil (1971) [2CD] [2CD] {2006 DSD Japan Mini LP Edition, SICP 1225~26}\CD1\03 - Medley- Gemini,Double Image.wav

Pre-gap length 0:00:01.36

Peak level 95.3 %
Track quality 100.0 %
Test CRC E50A6F18
Copy CRC E50A6F18
Accurately ripped (confidence 5) [D5D3097B]
Copy OK

Track 4

Filename C:\EAC\Miles Davis - The Original Jacket Collection (2006) [37CD]\23. Miles Davis - Live-Evil (1971) [2CD] [2CD] {2006 DSD Japan Mini LP Edition, SICP 1225~26}\CD1\04 - What I Say.wav

Pre-gap length 0:00:01.00

Peak level 95.4 %
Track quality 100.0 %
Test CRC 8C7D8CD3
Copy CRC 8C7D8CD3
Accurately ripped (confidence 5) [13D8BD94]
Copy OK

Track 5

Filename C:\EAC\Miles Davis - The Original Jacket Collection (2006) [37CD]\23. Miles Davis - Live-Evil (1971) [2CD] [2CD] {2006 DSD Japan Mini LP Edition, SICP 1225~26}\CD1\05 - Nem Um Talvez.wav

Pre-gap length 0:00:01.96

Peak level 92.0 %
Track quality 100.0 %
Test CRC 21790B9B
Copy CRC 21790B9B
Accurately ripped (confidence 5) [4530077C]
Copy OK


All tracks accurately ripped

No errors occurred

End of status report

Exact Audio Copy V0.99 prebeta 5 from 4. May 2009

EAC extraction logfile from 6. February 2013, 22:11

Miles Davis / Live-Evil (CD2)

Used drive : PLEXTOR DVDR PX-L890SA Adapter: 6 ID: 0

Read mode : Secure
Utilize accurate stream : Yes
Defeat audio cache : Yes
Make use of C2 pointers : No

Read offset correction : 6
Overread into Lead-In and Lead-Out : No
Fill up missing offset samples with silence : Yes
Delete leading and trailing silent blocks : No
Null samples used in CRC calculations : Yes
Used interface : Native Win32 interface for Win NT & 2000
Gap handling : Appended to previous track

Used output format : User Defined Encoder
Selected bitrate : 1024 kBit/s
Quality : High
Add ID3 tag : No
Command line compressor : C:\Program Files (x86)\FLAC\flac.exe
Additional command line options : -8 -V -T "ARTIST=%a" -T "TITLE=%t" -T "ALBUM=%g" -T "DATE=%y" -T "TRACKNUMBER=%n" -T "GENRE=%m" -T "COMMENT=EAC FLAC -8" %s


TOC of the extracted CD

Track | Start | Length | Start sector | End sector
––––––––––––––––––––––––––––-
1 | 0:00.00 | 2:15.45 | 0 | 10169
2 | 2:15.45 | 23:27.47 | 10170 | 115741
3 | 25:43.17 | 26:30.45 | 115742 | 235036


Track 1

Filename C:\EAC\Miles Davis - The Original Jacket Collection (2006) [37CD]\23. Miles Davis - Live-Evil (1971) [2CD] [2CD] {2006 DSD Japan Mini LP Edition, SICP 1225~26}\CD2\01 - Selim.wav

Pre-gap length 0:00:02.00

Peak level 82.9 %
Track quality 100.0 %
Test CRC 9A97720B
Copy CRC 9A97720B
Accurately ripped (confidence 5) [592C3A70]
Copy OK

Track 2

Filename C:\EAC\Miles Davis - The Original Jacket Collection (2006) [37CD]\23. Miles Davis - Live-Evil (1971) [2CD] [2CD] {2006 DSD Japan Mini LP Edition, SICP 1225~26}\CD2\02 - Funky Tonk.wav

Pre-gap length 0:00:01.04

Peak level 95.0 %
Track quality 99.9 %
Test CRC 6AC0EB12
Copy CRC 6AC0EB12
Accurately ripped (confidence 5) [4C2AB10B]
Copy OK

Track 3

Filename C:\EAC\Miles Davis - The Original Jacket Collection (2006) [37CD]\23. Miles Davis - Live-Evil (1971) [2CD] [2CD] {2006 DSD Japan Mini LP Edition, SICP 1225~26}\CD2\03 - Inamorata And Narration by Conrad Roberts.wav

Pre-gap length 0:00:01.13

Peak level 95.9 %
Track quality 99.9 %
Test CRC 05B7C05F
Copy CRC 05B7C05F
Accurately ripped (confidence 5) [D339690E]
Copy OK


All tracks accurately ripped

No errors occurred

End of status report


Miles Davis - The Original Jacket Collection (2006) [30 Albums, 37 CDs] {DSD Japan Mini LP Analog Collection} (part 5of6)



–––––––––––––
Miles Davis - The Original Jacket Collection (2006) [30 Albums, 37 CDs] {DSD Japan Mini LP Analog Collection} (part 5of6)

Miles Davis - On The Corner (1972) {2006 DSD Japan Mini LP Edition}
EAC rip (secure mode) | FLAC (tracks)+CUE+LOG -> 382 Mb | MP3 @320 -> 130 Mb | Artwork
© 2006 Sony Music Japan / Columbia | SICP 1227 | DSD | HQD High Quality Disc

Could there be any more confrontational sound in Miles Davis' vast catalog than the distorted guitars and tinny double-timing drums reacting to a two-note bass riff funking it up on the first track from On the Corner? Before the trumpet even enters the picture, the story has been broken off somewhere in the middle, with deep street music melding with a secret language held within the band and those who can actually hear this music – certainly not the majority of Miles' fan base built up over the past 25 years. They heard this as a huge "f*ck you." Miles just shrugged and told them it wasn't personal, but they could take it that way if they wanted to, and he blew on his trumpet. Here are killer groove riffs that barely hold on as bleating trumpet and soprano sax lines (courtesy of Dave Liebman on track one) interact with John McLaughlin's distortion-box frenzy. Michael Henderson's bass keeps the basic so basic it hypnotizes; keyboards slowly enter the picture, a pair of them handled by Herbie Hancock and Chick Corea, as well as Ivory Williams' synthesizer. Finally, Colin Walcott jumps in with an electric sitar and there are no less than five drummers – three kits (Al Foster, Billy Hart, and Jack DeJohnette), a tabla player, and Mtume. It's a four-tune suite, "On the Corner" is, but the separations hardly matter, just the shifts in groove that alter the time/space continuum. After 20 minutes, the set feels over and a form of Miles' strange lyricism returns in "Black Satin." Though a tabla kicks the tune off, there's a recognizable eight-note melody that runs throughout. Carlos Garnett and Bennie Maupin replace Liebman, Dave Creamer replaces McLaughlin, and the groove rides a bit easier – except for those hand bells shimmering in the background off the beat just enough to make the squares crazy. The respite is short-lived, however. Davis and band move the music way over to the funk side of the street – though the street funkers thought these cats were too weird with their stranded time signatures and modal fugues that begin and end nowhere and live for the way the riff breaks down into emptiness. "One and One" begins the new tale, so jazz breaks down and gets polished off and resurrected as a far blacker, deeper-than-blue character in the form of "Helen Butte/Mr. Freedom X," where guitars and horns careen off Henderson's cracking bass and Foster's skittering hi-hats. It may sound weird even today, but On the Corner is the most street record ever recorded by a jazz musician. And it still kicks.

Personnel:
Miles Davis - trumpet
Al Foster - drums
Badal Roy – tabla
Bennie Maupin – bass clarinet
Carlos Garnett – soprano and tenor saxophone
Don Alias – percussion
Chick Corea – electric piano
Collin Walcott – electric sitar
Dave Liebman – soprano saxophone
David Creamer – electric guitar
Harold I. Williams – organ, synthesizer
Herbie Hancock – electric piano, synthesizer
Jabali Billy Hart – drums, bongos
Jack DeJohnette – drums
James Mtume Foreman – percussion
John McLaughlin – electric guitar
Khalil Balakrishna - electric sitar
Lonnie Liston Smith – organ
Michael Henderson – electric bass
Paul Buckmaster – cello

tracklist:
01. On The Corner, New York Girl, Thinkin' One Thing And Doin' Another, Vote For Miles
02. Black Satin
03. One And One
04. Helen Butte, Mr. Freedom X

Exact Audio Copy V0.99 prebeta 5 from 4. May 2009

EAC extraction logfile from 7. February 2013, 19:17

Miles Davis / On The Corner

Used drive : PLEXTOR DVDR PX-L890SA Adapter: 6 ID: 0

Read mode : Secure
Utilize accurate stream : Yes
Defeat audio cache : Yes
Make use of C2 pointers : No

Read offset correction : 6
Overread into Lead-In and Lead-Out : No
Fill up missing offset samples with silence : Yes
Delete leading and trailing silent blocks : No
Null samples used in CRC calculations : Yes
Used interface : Native Win32 interface for Win NT & 2000
Gap handling : Appended to previous track

Used output format : User Defined Encoder
Selected bitrate : 1024 kBit/s
Quality : High
Add ID3 tag : No
Command line compressor : C:\Program Files (x86)\FLAC\flac.exe
Additional command line options : -8 -V -T "ARTIST=%a" -T "TITLE=%t" -T "ALBUM=%g" -T "DATE=%y" -T "TRACKNUMBER=%n" -T "GENRE=%m" -T "COMMENT=EAC FLAC -8" %s


TOC of the extracted CD

Track | Start | Length | Start sector | End sector
––––––––––––––––––––––––––––-
1 | 0:00.00 | 19:59.03 | 0 | 89927
2 | 19:59.03 | 5:20.34 | 89928 | 113961
3 | 25:19.37 | 6:09.05 | 113962 | 141641
4 | 31:28.42 | 23:18.28 | 141642 | 246519


Track 1

Filename C:\EAC\Miles Davis - The Original Jacket Collection (2006) [37CD]\24. Miles Davis - On The Corner (1972) {2006 DSD Japan Mini LP Edition, SICP 1227}\01 - On The Corner,New York Girl,Thinkin' One Thing and Doin' Another,Vote for Miles.wav

Pre-gap length 0:00:02.00

Peak level 85.4 %
Track quality 100.0 %
Test CRC 5A2A9AF0
Copy CRC 5A2A9AF0
Accurately ripped (confidence 10) [3A5491B6]
Copy OK

Track 2

Filename C:\EAC\Miles Davis - The Original Jacket Collection (2006) [37CD]\24. Miles Davis - On The Corner (1972) {2006 DSD Japan Mini LP Edition, SICP 1227}\02 - Black Satin.wav

Pre-gap length 0:00:02.48

Peak level 86.1 %
Track quality 99.9 %
Test CRC 4C8CC45B
Copy CRC 4C8CC45B
Accurately ripped (confidence 11) [77E1BBD8]
Copy OK

Track 3

Filename C:\EAC\Miles Davis - The Original Jacket Collection (2006) [37CD]\24. Miles Davis - On The Corner (1972) {2006 DSD Japan Mini LP Edition, SICP 1227}\03 - One and One.wav

Pre-gap length 0:00:05.06

Peak level 100.0 %
Track quality 100.0 %
Test CRC C8496E48
Copy CRC C8496E48
Accurately ripped (confidence 11) [057F0997]
Copy OK

Track 4

Filename C:\EAC\Miles Davis - The Original Jacket Collection (2006) [37CD]\24. Miles Davis - On The Corner (1972) {2006 DSD Japan Mini LP Edition, SICP 1227}\04 - Helen Butte,Mr. Freedom X.wav

Peak level 100.0 %
Track quality 100.0 %
Test CRC B31ED883
Copy CRC B31ED883
Accurately ripped (confidence 11) [1DC38835]
Copy OK


All tracks accurately ripped

No errors occurred

End of status report


Miles Davis - The Original Jacket Collection (2006) [30 Albums, 37 CDs] {DSD Japan Mini LP Analog Collection} (part 5of6)



––––––––––––––––––––
Miles Davis - The Original Jacket Collection (2006) [30 Albums, 37 CDs] {DSD Japan Mini LP Analog Collection} (part 5of6)

Miles Davis - Get Up With It (1974) [2CD] {2006 DSD Japan Mini LP Edition}
EAC rip (secure mode) | FLAC (tracks)+CUE+LOG -> 807 Mb | MP3 @320 -> 298 Mb | Artwork
© 2006 Sony Music Japan / Columbia | SICP 1228~29 | DSD | HQD High Quality Disc

When Get Up with It was released in 1974, critics – let alone fans – had a tough time with it. The package was a – by then customary – double LP, with sessions ranging from 1970-1974 and a large host of musicians who had indeed played on late-'60s and early-'70s recordings, including but not limited to Al Foster, Airto, John McLaughlin, Reggie Lucas, Pete Cosey, Mtume, David Liebman, Billy Cobham, Michael Henderson, Herbie Hancock, Keith Jarrett, Sonny Fortune, Steve Grossman, and others. The music felt, as was customary then, woven together from other sources by Miles and producer Teo Macero. However, these eight selections point in the direction of Miles saying goodbye, as he did for six years after this disc. This was a summation of all that jazz had been to Davis in the '70s and he was leaving it in yet another place altogether; check the opening track, "He Loved Him Madly," with its gorgeous shimmering organ vamp (not even credited to Miles) and its elaborate, decidedly slow, ambient unfolding – yet with pronounced Ellingtonian lyricism – over 33 minutes. Given three guitar players, flute, trumpet, bass, drums, and percussion, its restraint is remarkable. When Miles engages the organ formally as he does on the funky groove that moves through "Maiysha," with a shimmering grace that colors the proceedings impressionistically through Lucas, Cosey and guitarist Dominique Gaumont, it's positively shattering. This is Miles as he hadn't been heard since In a Silent Way, and definitely points the way to records like Tutu, The Man with the Horn, and even Decoy when he re-emerged.

That's not to say the harder edges are absent: far from it. There's the off-world Latin funk of "Calypso Frelimo" from 1973, with John Stubblefield, Liebman, Cosey, and Lucas turning the rhythm section inside out as Miles sticks sharp knives of angular riffs and bleats into the middle of the mix, almost like a guitarist. Davis also moves the groove here with an organ and an electric piano to cover all the textural shapes. There's even a rather straight – for Miles – blues jam in "Red China Blues" from 1972, featuring Wally Chambers on harmonica and Cornell Dupree on guitar with a full brass arrangement. The set closes with another 1972 session, the endearing "Billy Preston," another of Davis' polyrhythmic funk exercises where the drummers and percussionists – Al Foster, Badal Roy, and Mtume – are up front with the trumpet, sax (Carlos Garrett), and keyboards (Cedric Lawson), while the strings – Lucas, Henderson, and electric sitarist Khalil Balakrishna – are shimmering, cooking, and painting the groove in the back. Billy Preston, the organist who the tune is named after, is nowhere present and neither is his instrument. It choogles along, shifting rhythms and meters while Miles tries like hell to slip another kind of groove through the band's armor, but it doesn't happen. The track fades, and then there is silence, a deafening silence that would not be filled until Miles' return six years later. This may be the most "commercial" sounding of all of Miles' electric records from the '70s, but it still sounds out there, alien, and futuristic in all the best ways, and Get Up with It is perhaps just coming into its own here in the 21st century.

Personnel: Miles Davis (trumpet, piano, electric piano, organ); Reggie Lucas, Cornell Dupree, Dominique Gaumont, John McLaughlin, Pete Cosey (guitar); Khalil Balakrishna (sitar, electric sitar); David Liebman (flute, alto flute, tenor saxophone); Sonny Fortune (flute, saxophone); Wally Chambers (harmonica); Carlos Garnett (saxophone, soprano saxophone); John Stubblefield, Steve Grossman (soprano saxophone); Cedric Lawson (piano, electric piano, Fender Rhodes piano); Keith Jarrett (electric piano, Fender Rhodes piano, keyboards); Herbie Hancock (Clavinet, keyboards); Michael Henderson (bass guitar); Al Foster, Bernard "Pretty" Purdie, Billy Cobham (drums); Badal Roy (tabla); James "Mtume" Forman, Airto Moreira (percussion).

tracklist:
CD1

01. He Loved Him Madly
02. Maiysha
03. Honky Tonk
04. Rated X

CD2
01. Calypso Frelimo
02. Red China Blues
03. Mtume
04. Billy Preston

Exact Audio Copy V0.99 prebeta 5 from 4. May 2009

EAC extraction logfile from 7. February 2013, 21:41

Miles Davis / Get Up With It (CD1)

Used drive : PLEXTOR DVDR PX-L890SA Adapter: 6 ID: 0

Read mode : Secure
Utilize accurate stream : Yes
Defeat audio cache : Yes
Make use of C2 pointers : No

Read offset correction : 6
Overread into Lead-In and Lead-Out : No
Fill up missing offset samples with silence : Yes
Delete leading and trailing silent blocks : No
Null samples used in CRC calculations : Yes
Used interface : Native Win32 interface for Win NT & 2000
Gap handling : Appended to previous track

Used output format : User Defined Encoder
Selected bitrate : 1024 kBit/s
Quality : High
Add ID3 tag : No
Command line compressor : C:\Program Files (x86)\FLAC\flac.exe
Additional command line options : -8 -V -T "ARTIST=%a" -T "TITLE=%t" -T "ALBUM=%g" -T "DATE=%y" -T "TRACKNUMBER=%n" -T "GENRE=%m" -T "COMMENT=EAC FLAC -8" %s


TOC of the extracted CD

Track | Start | Length | Start sector | End sector
––––––––––––––––––––––––––––-
1 | 0:00.00 | 32:17.22 | 0 | 145296
2 | 32:17.22 | 14:53.65 | 145297 | 212336
3 | 47:11.12 | 5:55.48 | 212337 | 239009
4 | 53:06.60 | 6:51.65 | 239010 | 269899


Track 1

Filename C:\EAC\Miles Davis - The Original Jacket Collection (2006) [37CD]\25. Miles Davis - Get Up With It (1974) [2CD] {2006 DSD Japan Mini LP Edition, SICP 1228~29}\CD1\01 - He Loved Him Madly.wav

Pre-gap length 0:00:02.00

Peak level 100.0 %
Track quality 100.0 %
Test CRC E61571F6
Copy CRC E61571F6
Accurately ripped (confidence 6) [8BE5685E]
Copy OK

Track 2

Filename C:\EAC\Miles Davis - The Original Jacket Collection (2006) [37CD]\25. Miles Davis - Get Up With It (1974) [2CD] {2006 DSD Japan Mini LP Edition, SICP 1228~29}\CD1\02 - Maiysha.wav

Pre-gap length 0:00:03.56

Peak level 100.0 %
Track quality 100.0 %
Test CRC A33A1659
Copy CRC A33A1659
Accurately ripped (confidence 6) [95C2A983]
Copy OK

Track 3

Filename C:\EAC\Miles Davis - The Original Jacket Collection (2006) [37CD]\25. Miles Davis - Get Up With It (1974) [2CD] {2006 DSD Japan Mini LP Edition, SICP 1228~29}\CD1\03 - Honky Tonk.wav

Pre-gap length 0:00:02.00

Peak level 100.0 %
Track quality 99.9 %
Test CRC 12395503
Copy CRC 12395503
Accurately ripped (confidence 6) [F2D0969D]
Copy OK

Track 4

Filename C:\EAC\Miles Davis - The Original Jacket Collection (2006) [37CD]\25. Miles Davis - Get Up With It (1974) [2CD] {2006 DSD Japan Mini LP Edition, SICP 1228~29}\CD1\04 - Rated X.wav

Pre-gap length 0:00:01.80

Peak level 94.5 %
Track quality 100.0 %
Test CRC 27F31566
Copy CRC 27F31566
Accurately ripped (confidence 5) [49756DD9]
Copy OK


All tracks accurately ripped

No errors occurred

End of status report

Exact Audio Copy V0.99 prebeta 5 from 4. May 2009

EAC extraction logfile from 7. February 2013, 23:53

Miles Davis / Get Up With It (CD2)

Used drive : PLEXTOR DVDR PX-L890SA Adapter: 6 ID: 0

Read mode : Secure
Utilize accurate stream : Yes
Defeat audio cache : Yes
Make use of C2 pointers : No

Read offset correction : 6
Overread into Lead-In and Lead-Out : No
Fill up missing offset samples with silence : Yes
Delete leading and trailing silent blocks : No
Null samples used in CRC calculations : Yes
Used interface : Native Win32 interface for Win NT & 2000
Gap handling : Appended to previous track

Used output format : User Defined Encoder
Selected bitrate : 1024 kBit/s
Quality : High
Add ID3 tag : No
Command line compressor : C:\Program Files (x86)\FLAC\flac.exe
Additional command line options : -8 -V -T "ARTIST=%a" -T "TITLE=%t" -T "ALBUM=%g" -T "DATE=%y" -T "TRACKNUMBER=%n" -T "GENRE=%m" -T "COMMENT=EAC FLAC -8" %s


TOC of the extracted CD

Track | Start | Length | Start sector | End sector
––––––––––––––––––––––––––––-
1 | 0:00.00 | 32:08.12 | 0 | 144611
2 | 32:08.12 | 4:09.28 | 144612 | 163314
3 | 36:17.40 | 15:11.47 | 163315 | 231686
4 | 51:29.12 | 12:36.58 | 231687 | 288444


Track 1

Filename C:\EAC\Miles Davis - The Original Jacket Collection (2006) [37CD]\25. Miles Davis - Get Up With It (1974) [2CD] {2006 DSD Japan Mini LP Edition, SICP 1228~29}\CD2\01 - Calypso Frelimo.wav

Pre-gap length 0:00:02.00

Peak level 100.0 %
Track quality 100.0 %
Test CRC 1D79EC1F
Copy CRC 1D79EC1F
Accurately ripped (confidence 6) [48423819]
Copy OK

Track 2

Filename C:\EAC\Miles Davis - The Original Jacket Collection (2006) [37CD]\25. Miles Davis - Get Up With It (1974) [2CD] {2006 DSD Japan Mini LP Edition, SICP 1228~29}\CD2\02 - Red China Blues.wav

Pre-gap length 0:00:02.18

Peak level 97.1 %
Track quality 99.9 %
Test CRC CF02A807
Copy CRC CF02A807
Accurately ripped (confidence 6) [98209F9E]
Copy OK

Track 3

Filename C:\EAC\Miles Davis - The Original Jacket Collection (2006) [37CD]\25. Miles Davis - Get Up With It (1974) [2CD] {2006 DSD Japan Mini LP Edition, SICP 1228~29}\CD2\03 - Mtume.wav

Pre-gap length 0:00:01.64

Peak level 99.9 %
Track quality 100.0 %
Test CRC 044F0A8A
Copy CRC 044F0A8A
Accurately ripped (confidence 6) [F2A0A488]
Copy OK

Track 4

Filename C:\EAC\Miles Davis - The Original Jacket Collection (2006) [37CD]\25. Miles Davis - Get Up With It (1974) [2CD] {2006 DSD Japan Mini LP Edition, SICP 1228~29}\CD2\04 - Billy Preston.wav

Pre-gap length 0:00:01.66

Peak level 100.0 %
Track quality 99.9 %
Test CRC 0B933571
Copy CRC 0B933571
Accurately ripped (confidence 6) [F12E8DAF]
Copy OK


All tracks accurately ripped

No errors occurred

End of status report


Miles Davis - The Original Jacket Collection (2006) [30 Albums, 37 CDs] {DSD Japan Mini LP Analog Collection} (part 5of6)


See also:
Miles Davis - The Original Jacket Collection (2006) [30 Albums, 37 CDs] {DSD Japan Mini LP Analog Collection} (part 1of6)
Miles Davis - The Original Jacket Collection (2006) [30 Albums, 37 CDs] {DSD Japan Mini LP Analog Collection} (part 2of6)
Miles Davis - The Original Jacket Collection (2006) [30 Albums, 37 CDs] {DSD Japan Mini LP Analog Collection} (part 3of6)
Miles Davis - The Original Jacket Collection (2006) [30 Albums, 37 CDs] {DSD Japan Mini LP Analog Collection} (part 4of6)
===



Miles Davis - A Tribute to Jack Johnson (1971) {Japan DSD, SICP-1222}

Nitroflare

Miles Davis - At Fillmore: Live At The Fillmore East (1970) {2CD Sony JP DSD, SICP 1223+4}

Nitroflare

Miles Davis - Live-Evil (1971) {2CD Sony JP DSD, SICP 1225+6}

Nitroflare

Miles Davis - On The Corner (1972) {Sony JP DSD, SICP 1227}

Nitroflare

Miles Davis - Get Up With It (1974) {Sony JP DSD, SICP 1228+9}

Nitroflare