Subcategories

Miles Davis - Panthalassa: The Remixes (1999) {Columbia CK 69897}

Posted By: ruskaval
Miles Davis - Panthalassa: The Remixes (1999) {Columbia CK 69897}

Miles Davis - Panthalassa: The Remixes (1999) {Columbia CK 69897}
EAC rip (secure mode) | FLAC (tracks)+CUE+LOG -> 296 Mb | MP3 @320 -> 110 Mb
Full Artwork @ 300 dpi (png) -> 27 Mb | 5% repair rar
© 1999 Columbia / Sony Music | CK 69897
Jazz / Fusion / Breakbeat / Experimental / Jungle / Trumpet

A remix album of the most influencial jazz legend Miles Davis' "Panthalassa" album (compiled by Bill Laswell) released in 1999. Panthalassa: The Remixes is the logical extension of the previous year's Panthalassa project, in which longtime aficionado Bill Laswell restructured several Miles Davis recordings in similar fashion to the original production techniques pioneered by Teo Macero on Miles albums In a Silent Way, On the Corner and Get Up with It. Here, several dance producers are brought into the fold, not just to rearrange the material but to remix it as well.

The versions that work the best are done by producers unafraid to tamper with the tapes: hence, two separate reworkings of "Rated X" (from Get Up with It) result in darkside drum'n'bass burners by Doc Scott and Jamie Myerson that find the hyperkinetic energy in the original. The highlight of the entire project is an inexplicably vinyl-only bonus track by DJ Krush, who turns "Black Satin/On the Corner" into a minimalist beat odyssey with several different passages and effective scratching in all the right places. The only real disappointment on Panthalassa: The Remixes finds trip-hop deconstructionist DJ Cam creating an uneasy alliance by crudely inserting a loping breakbeat onto Miles' winsome solo from "In a Silent Way." Remix albums are often a mistake for both parties involved, but this one does work on several levels.
Miles Davis - Panthalassa: The Remixes (1999) {Columbia CK 69897}


Original performers:
1) February 18, 1969:
Miles Davis (tp); Wayne Shorter (ss); John McLaughlin (g); Herbie Hancock (el-p); , Chick Corea (el-p); Josef Zawinul (el-p, org); Dave Holland (b); Tony Williams (d)

2) June 2, 1972:
Miles Davis (tp); Carlos Garnett (ss); Cedric Lawson (org); John McLaughlin (g); Khalil Balakrishna (sitar); Michael Henderson (el-b, voc); Al Foster (d); James Mtume Foreman (cga, perc); Badal Roy (tabla)

3) September 6, 1972:
Miles Davis (org); Reggie Lucas (g); Khalil Balakrishna (sitar); Cedric Lawson (synth); Michael Henderson (el-b); Al Foster (d); James Mtume Forman (cga, perc); Badal Roy (tabla)

1) Columbia Studio, New York City, USA, February 18, 1969
2) Columbia Studio, New York City, USA, June 2, 1972
3) Columbia Studio, New York City, USA, September 6, 1972


tracklist:
01. Shhh (Sea4 Miles Remix By King Britt & Philip Charles) - (1)
02. Rated X (Doc Scott Remix) - (3)
03. In A Silent Way (Dj Cam Remix) - (1)
04. On The Corner (Subterranean Channel Mix By Bill Laswell) - (2)
05. Rated X (Jamie Myerson Remix) - (3)

EAC extraction logfile from 28. October 2007, 23:07 for CD
Miles Davis / Panthalassa: The Remixes

Used drive : MATSHITACD-RW CW-8221 Adapter: 1 ID: 0
Read mode : Secure with NO C2, accurate stream, disable cache
Read offset correction : 102
Overread into Lead-In and Lead-Out : No

Used output format : c:\eac\flac.exe (User Defined Encoder)
128 kBit/s
Additional command line options : -8 -V -T "artist=%a" -T "title=%t" -T "album=%g" -T "date=%y" -T "tracknumber=%n" -T "genre=%m" %s

Other options :
Fill up missing offset samples with silence : Yes
Delete leading and trailing silent blocks : No
Installed external ASPI interface


Track 1
Filename z:\ripped\Miles Davis - Panthalassa- The Remixes (1999) [FLAC]\01 - Shhh (Sea4 Miles Remix by King Britt & Philip Charles).wav

Pre-gap length 0:00:02.00

Peak level 99.7 %
Track quality 100.0 %
Test CRC CF0BC8B1
Copy CRC CF0BC8B1
Copy OK

Track 2
Filename z:\ripped\Miles Davis - Panthalassa- The Remixes (1999) [FLAC]\02 - Rated X (Doc Scott Remix).wav

Pre-gap length 0:00:01.52

Peak level 94.3 %
Track quality 99.9 %
Test CRC 57E892E2
Copy CRC 57E892E2
Copy OK

Track 3
Filename z:\ripped\Miles Davis - Panthalassa- The Remixes (1999) [FLAC]\03 - In A Silent Way (DJ Cam Remix).wav

Pre-gap length 0:00:02.55

Peak level 84.0 %
Track quality 100.0 %
Test CRC BAAFD3E0
Copy CRC BAAFD3E0
Copy OK

Track 4
Filename z:\ripped\Miles Davis - Panthalassa- The Remixes (1999) [FLAC]\04 - On The Corner (Subterranean Channel Mix by Bill Laswell).wav

Pre-gap length 0:00:01.55

Peak level 94.3 %
Track quality 100.0 %
Test CRC C04EF02E
Copy CRC C04EF02E
Copy OK

Track 5
Filename z:\ripped\Miles Davis - Panthalassa- The Remixes (1999) [FLAC]\05 - Rated X (Jamie Myerson Remix).wav

Pre-gap length 0:00:01.53

Peak level 90.0 %
Track quality 99.9 %
Test CRC 9258D536
Copy CRC 9258D536
Copy OK

No errors occured


End of status report


Miles Davis - Panthalassa: The Remixes (1999) {Columbia CK 69897}

Miles Davis - Panthalassa: The Remixes (1999) {Columbia CK 69897}



===