Subcategories

Miles Davis - Seven Steps: The Complete Columbia Recordings Of Miles Davis 1963-1964 (2004) {7CD Columbia C7K 90840}

Posted By: ruskaval
Miles Davis - Seven Steps: The Complete Columbia Recordings Of Miles Davis 1963-1964 (2004) {7CD Columbia C7K 90840}

Miles Davis - Seven Steps: The Complete Columbia Recordings Of Miles Davis 1963-1964 (2004) {7CD Columbia C7K 90840}
EAC rip (secure mode) | FLAC+CUE+LOG -> 2.12 Gb | MP3 @320 -> 958 Mb
Full Artwork @ 300 dpi (jpg) -> 50 Mb | 5% repair rar
© 1963-64, 2004 Columbia / Legacy / Sony Music | C7K 90840
Jazz / Hard Bop / Modal Music / Trumpet

Seven Steps: The Complete Columbia Recordings of Miles Davis 1963-1964 is an anomaly among the retrospective sets that have been issued from the late artist's catalog. It does not focus on particular collaborations (Miles with Coltrane, Gil Evans, the second quintet), complete sessions of historic albums (Bitches Brew, In a Silent Way, and Jack Johnson), or live runs (Plugged Nickel and Montreux). Instead, it is a portrait of the artist in flux, in the space between legendary bands, when he was looking for a new mode of expression, trying to find the band that would help him get there. These seven CDs begin after the demise of bands that included John Coltrane, Cannonball Adderley, Bill Evans, Paul Chambers, Jimmy Cobb, and Wynton Kelly, after his landmark Gil Evans period, and even after his attempts at creating a new band with everyone from Frank Strozier and Harold Mabern to Sonny Rollins and J.J. Johnson.
Miles Davis - Seven Steps: The Complete Columbia Recordings Of Miles Davis 1963-1964 (2004) {7CD Columbia C7K 90840}

The transition period depicted on recordings here is the one that would lead directly to the second great quintet, beginning with the addition of bassist Ron Carter and eventually Tony Williams in 1963 on Seven Steps to Heaven. That band also included pianist and composer Victor Feldman, drummer Frank Butler (before Williams), and saxophonist George Coleman. The album Seven Steps to Heaven is extended here with two previously unissued alternate takes of the title track and an amazing alternate of "Joshua" that opens the entire box, both of which were written by Feldman and added dimension to Miles' tried and true songbook. The track "Summer Nights" from this session is present here as part of these sessions even though it was originally released as part of Quiet Nights. Herbie Hancock enters the picture in July of 1963, replacing Feldman for the Live in Europe recording. The box includes unreleased performances of "Bye Bye Blackbird" and "The Theme" in addition to the original album.
Miles Davis - Seven Steps: The Complete Columbia Recordings Of Miles Davis 1963-1964 (2004) {7CD Columbia C7K 90840}

Other unreleased material here includes a fine "Autumn Leaves" from the live dates that resulted in the albums Four & More and My Funny Valentine as well as those recordings in their entirety. These years also contain the Miles in Tokyo performances. These are uneasy yet utterly compelling recordings that star Sam Rivers on tenor as Coleman's replacement. Williams recommended Rivers when Coleman decided the band was becoming too adventurous for his tastes as a soloist. While these cuts don't necessarily work on a symbiotic level in terms of communication, they do help define the terms in which Miles decided how "out" to get with his developing band. By the time Wayne Shorter comes on board for the Miles in Berlin date, the picture is complete and the perfect balance has been found leading to the studio sessions that began in 1965 with the new quintet.
Miles Davis - Seven Steps: The Complete Columbia Recordings Of Miles Davis 1963-1964 (2004) {7CD Columbia C7K 90840}

All tolled there are seven unreleased musical performances as well as a handful of spoken band introductions to concerts that have never been available before. As is customary for Legacy, the music is all painstakingly remastered. The box itself is an art object, with a hard backing board, bound by a chrome metal frame, and resides in a handsome hard gray slipcase. It contains loads of photos, has obsessively detailed discographical information, and essays by Michael Cuscuna and Bob Blumenthal. In other words, for Davis fans this is another essential addition to the catalog.
Miles Davis - Seven Steps: The Complete Columbia Recordings Of Miles Davis 1963-1964 (2004) {7CD Columbia C7K 90840}


AAJ INFO

Personnel: Miles Davis (trumpet); George Coleman, Sam Rivers, Wayne Shorter (tenor saxophone); Herbie Hancock, Victor Feldman (piano); Ron Carter (double bass); Frank Butler, Tony Williams (drums).

tracklist:
DISC 1

01. Joshua - (previously unreleased)
02. I Fall in Love Too Easily
03. Baby Won't You Please Come Home
04. So Near, So Far
05. Basin Street Blues
06. Seven Steps to Heaven - (previously unreleased, Take 3)
07. Seven Steps to Heaven - (previously unreleased, Take 5)
08. Summer Night

DISC 2
01. Seven Steps to Heaven - (previously unreleased, Rehearsal Take, rehearsal take)
02. Seven Steps to Heaven
03. So Near, So Far
04. Joshua
05. Introduction by Andre Francis - (previously unreleased, live)
06. Autumn Leaves - (live)
07. Milestones - (live)
08. I Thought About You - (live)

DISC 3
01. Joshua - (live)
02. All of You - (live)
03. Walkin' - (live)
04. Bye Bye Blackbird - (previously unreleased, live)
05. Bye Bye (Theme) - (previously unreleased, live)

DISC 4
01. Introduction by Mort Fega
02. Autumn Leaves - (previously unreleased)
03. So What
04. Stella by Starlight
05. Walkin'
06. All of You
07. Go-Go (Theme and Announcement)

DISC 5
01. Introduction by Billy Taylor
02. All Blues
03. My Funny Valentine
05. I Thought About You
06. Four
07. Seven Steps to Heaven
08. There Is No Greater Love
09. Go-Go (Theme and Re-Introduction)

DISC 6
01. Introduction by Teruo Isono - (live)
02. If I Were a Bell - (live)
03. My Funny Valentine - (live)
04. So What - (live)
05. Walkin' - (live)
06. All of You - (live)
07. Go-Go (Theme) - (live)

DISC 7
01. Milestones - (live)
02. Autumn Leaves - (live)
03. So What - (live)
04. Stella by Starlight - (previously unreleased, live)
05. Walkin'
06. Go-Go (Theme) - (live)

Initial pressings of SEVEN STEPS are packaged with a deluxe metal spine.
Also includes a 92-page booklet with rare photos, complete discography and essays by Michael Cuscuna and Bob Blumenthal.
Liner Note Authors: Michael Cuscuna; Bob Blumenthal.
Recording information: Columbia Studios, Los Angeles, California (04/16/1963 - 04/17/1963); Columbia 30th Street Studios, New York, New York (05/14/1963); Festival Mondial Du Jazz Antibes, Juan Les-Pin, France (07/27/1963); Philharmonic Hall, New York, New York (02/12/1964); Kohseinenkin Hall, Tokyo, Japan (07/14/1964); Philharmonie, Berlin, West Germany (09/25/1964).

All tracks have been digitally mastered using 24-bit technology.



EAC extraction logfile from 18. November 2007, 15:55 for CD
Miles Davis / Seven Steps: The Complete Columbia Recordings Of Miles Davis 1963-1964

Used drive : PLEXTOR CD-R PX-W1210A Adapter: 1 ID: 1
Read mode : Secure with NO C2, accurate stream, disable cache
Read offset correction : 99
Overread into Lead-In and Lead-Out : No

Used output format : C:\Program Files\FLAC\flac.exe (User Defined Encoder)
32 kBit/s
Additional command line options : -8 -A tukey(0.25) -A gauss(0.1875) -b 4096 -V -T "artist=%a" -T "title=%t" -T "album=%g" -T "date=%y" -T "tracknumber=%n" -T "genre=%m" %s –sector-align

Other options :
Fill up missing offset samples with silence : Yes
Delete leading and trailing silent blocks : No
Native Win32 interface for Win NT & 2000


Track 1
Filename D:\Musique\Davis Miles\Seven Steps 1963-1964 Flac\Seven Steps 1963-1964 CD1\01 - Joshua - Miles Davis.wav

Pre-gap length 0:00:02.00

Peak level 99.4 %
Track quality 100.0 %
Test CRC C26EE77D
Copy CRC C26EE77D
Copy OK

Track 2
Filename D:\Musique\Davis Miles\Seven Steps 1963-1964 Flac\Seven Steps 1963-1964 CD1\02 - I Fall In Love Too Easily - Miles Davis.wav

Pre-gap length 0:00:02.45

Peak level 98.9 %
Track quality 100.0 %
Test CRC B08802C1
Copy CRC B08802C1
Copy OK

Track 3
Filename D:\Musique\Davis Miles\Seven Steps 1963-1964 Flac\Seven Steps 1963-1964 CD1\03 - Baby Won't You Please Come Home - Miles Davis.wav

Pre-gap length 0:00:03.12

Peak level 99.3 %
Track quality 100.0 %
Test CRC DE79FDCC
Copy CRC DE79FDCC
Copy OK

Track 4
Filename D:\Musique\Davis Miles\Seven Steps 1963-1964 Flac\Seven Steps 1963-1964 CD1\04 - So Near, So Far - Miles Davis.wav

Pre-gap length 0:00:02.07

Peak level 99.7 %
Track quality 100.0 %
Test CRC 198162ED
Copy CRC 198162ED
Copy OK

Track 5
Filename D:\Musique\Davis Miles\Seven Steps 1963-1964 Flac\Seven Steps 1963-1964 CD1\05 - Basin Street Blues - Miles Davis.wav

Pre-gap length 0:00:02.27

Peak level 99.3 %
Track quality 100.0 %
Test CRC FC53B9C5
Copy CRC FC53B9C5
Copy OK

Track 6
Filename D:\Musique\Davis Miles\Seven Steps 1963-1964 Flac\Seven Steps 1963-1964 CD1\06 - Seven Steps To Heaven (take 3) - Miles Davis.wav

Pre-gap length 0:00:01.30

Peak level 100.0 %
Track quality 100.0 %
Test CRC BBAC8D7D
Copy CRC BBAC8D7D
Copy OK

Track 7
Filename D:\Musique\Davis Miles\Seven Steps 1963-1964 Flac\Seven Steps 1963-1964 CD1\07 - Seven Steps To Heaven (take 5) - Miles Davis.wav

Pre-gap length 0:00:01.50

Peak level 100.0 %
Track quality 99.9 %
Test CRC D2BE3370
Copy CRC D2BE3370
Copy OK

Track 8
Filename D:\Musique\Davis Miles\Seven Steps 1963-1964 Flac\Seven Steps 1963-1964 CD1\08 - Summer Night - Miles Davis.wav

Pre-gap length 0:00:02.35

Peak level 99.5 %
Track quality 100.0 %
Test CRC 908BFC19
Copy CRC 908BFC19
Copy OK

No errors occured


End of status report

EAC extraction logfile from 18. November 2007, 17:00 for CD
Miles Davis / Seven Steps: The Complete Columbia Recordings of Miles Davis 1963-1964 (Disc 2 of 7)

Used drive : PLEXTOR CD-R PX-W1210A Adapter: 1 ID: 1
Read mode : Secure with NO C2, accurate stream, disable cache
Read offset correction : 99
Overread into Lead-In and Lead-Out : No

Used output format : C:\Program Files\FLAC\flac.exe (User Defined Encoder)
32 kBit/s
Additional command line options : -8 -A tukey(0.25) -A gauss(0.1875) -b 4096 -V -T "artist=%a" -T "title=%t" -T "album=%g" -T "date=%y" -T "tracknumber=%n" -T "genre=%m" %s –sector-align

Other options :
Fill up missing offset samples with silence : Yes
Delete leading and trailing silent blocks : No
Native Win32 interface for Win NT & 2000


Track 1
Filename D:\Musique\Davis Miles\Seven Steps 1963-1964 Flac\Seven Steps 1963-1964 CD2\01 - Seven Steps To Heaven (Rehearsal Take) - Miles Davis.wav

Pre-gap length 0:00:02.00

Peak level 100.0 %
Track quality 100.0 %
Test CRC 7D435132
Copy CRC 7D435132
Copy OK

Track 2
Filename D:\Musique\Davis Miles\Seven Steps 1963-1964 Flac\Seven Steps 1963-1964 CD2\02 - Seven Steps To Heaven - Miles Davis.wav

Pre-gap length 0:00:02.00

Peak level 100.0 %
Track quality 100.0 %
Test CRC E6608A46
Copy CRC E6608A46
Copy OK

Track 3
Filename D:\Musique\Davis Miles\Seven Steps 1963-1964 Flac\Seven Steps 1963-1964 CD2\03 - So Near, So Far - Miles Davis.wav

Pre-gap length 0:00:01.25

Peak level 100.0 %
Track quality 100.0 %
Test CRC 1AD7236F
Copy CRC 1AD7236F
Copy OK

Track 4
Filename D:\Musique\Davis Miles\Seven Steps 1963-1964 Flac\Seven Steps 1963-1964 CD2\04 - Joshua - Miles Davis.wav

Pre-gap length 0:00:01.73

Peak level 100.0 %
Track quality 100.0 %
Test CRC DFD0347A
Copy CRC DFD0347A
Copy OK

Track 5
Filename D:\Musique\Davis Miles\Seven Steps 1963-1964 Flac\Seven Steps 1963-1964 CD2\05 - Introduction By Andre Francis - Miles Davis.wav

Pre-gap length 0:00:02.17

Peak level 98.4 %
Track quality 100.0 %
Test CRC 773340CC
Copy CRC 773340CC
Copy OK

Track 6
Filename D:\Musique\Davis Miles\Seven Steps 1963-1964 Flac\Seven Steps 1963-1964 CD2\06 - Autumn Leaves - Miles Davis.wav

Peak level 99.8 %
Track quality 100.0 %
Test CRC E1919726
Copy CRC E1919726
Copy OK

Track 7
Filename D:\Musique\Davis Miles\Seven Steps 1963-1964 Flac\Seven Steps 1963-1964 CD2\07 - Milestones - Miles Davis.wav

Peak level 100.0 %
Track quality 100.0 %
Test CRC 8EB4F61D
Copy CRC 8EB4F61D
Copy OK

Track 8
Filename D:\Musique\Davis Miles\Seven Steps 1963-1964 Flac\Seven Steps 1963-1964 CD2\08 - I Thought About You - Miles Davis.wav

Peak level 99.7 %
Track quality 100.0 %
Test CRC B4250543
Copy CRC B4250543
Copy OK

No errors occured


End of status report

EAC extraction logfile from 18. November 2007, 17:43 for CD
Miles Davis / Seven Steps: The Complete Columbia Recordings Of Miles Davis 1963-1964 - Disc 3

Used drive : PLEXTOR CD-R PX-W1210A Adapter: 1 ID: 1
Read mode : Secure with NO C2, accurate stream, disable cache
Read offset correction : 99
Overread into Lead-In and Lead-Out : No

Used output format : C:\Program Files\FLAC\flac.exe (User Defined Encoder)
32 kBit/s
Additional command line options : -8 -A tukey(0.25) -A gauss(0.1875) -b 4096 -V -T "artist=%a" -T "title=%t" -T "album=%g" -T "date=%y" -T "tracknumber=%n" -T "genre=%m" %s –sector-align

Other options :
Fill up missing offset samples with silence : Yes
Delete leading and trailing silent blocks : No
Native Win32 interface for Win NT & 2000


Track 1
Filename D:\Musique\Davis Miles\Seven Steps 1963-1964 Flac\Seven Steps 1963-1964 CD3\01 - Joshua - Miles Davis.wav

Pre-gap length 0:00:02.00

Peak level 100.0 %
Track quality 100.0 %
Test CRC 3C967DFE
Copy CRC 3C967DFE
Copy OK

Track 2
Filename D:\Musique\Davis Miles\Seven Steps 1963-1964 Flac\Seven Steps 1963-1964 CD3\02 - All Of You - Miles Davis.wav

Peak level 99.8 %
Track quality 99.9 %
Test CRC C9EA0647
Copy CRC C9EA0647
Copy OK

Track 3
Filename D:\Musique\Davis Miles\Seven Steps 1963-1964 Flac\Seven Steps 1963-1964 CD3\03 - Walkin' - Miles Davis.wav

Peak level 99.9 %
Track quality 100.0 %
Test CRC 05BB45F2
Copy CRC 05BB45F2
Copy OK

Track 4
Filename D:\Musique\Davis Miles\Seven Steps 1963-1964 Flac\Seven Steps 1963-1964 CD3\04 - Bye Bye Blackbird - Miles Davis.wav

Peak level 100.0 %
Track quality 100.0 %
Test CRC F9C0AA7D
Copy CRC F9C0AA7D
Copy OK

Track 5
Filename D:\Musique\Davis Miles\Seven Steps 1963-1964 Flac\Seven Steps 1963-1964 CD3\05 - Bye Bye (Theme) - Miles Davis.wav

Peak level 100.0 %
Track quality 100.0 %
Test CRC C8D15C16
Copy CRC C8D15C16
Copy OK

No errors occured


End of status report

EAC extraction logfile from 18. November 2007, 18:27 for CD
Miles Davis / Seven Steps: The Complete Columbia Recordings Of Miles Davis 1963-1964

Used drive : PLEXTOR CD-R PX-W1210A Adapter: 1 ID: 1
Read mode : Secure with NO C2, accurate stream, disable cache
Read offset correction : 99
Overread into Lead-In and Lead-Out : No

Used output format : C:\Program Files\FLAC\flac.exe (User Defined Encoder)
32 kBit/s
Additional command line options : -8 -A tukey(0.25) -A gauss(0.1875) -b 4096 -V -T "artist=%a" -T "title=%t" -T "album=%g" -T "date=%y" -T "tracknumber=%n" -T "genre=%m" %s –sector-align

Other options :
Fill up missing offset samples with silence : Yes
Delete leading and trailing silent blocks : No
Native Win32 interface for Win NT & 2000


Track 1
Filename D:\Musique\Davis Miles\Seven Steps 1963-1964 Flac\Seven Steps 1963-1964 CD4\01 - Introduction By Mort Fega (Live) - Miles Davis.wav

Pre-gap length 0:00:02.00

Peak level 100.0 %
Track quality 100.0 %
Test CRC 6B7081EF
Copy CRC 6B7081EF
Copy OK

Track 2
Filename D:\Musique\Davis Miles\Seven Steps 1963-1964 Flac\Seven Steps 1963-1964 CD4\02 - Autumn Leaves (Live) - Miles Davis.wav

Peak level 100.0 %
Track quality 100.0 %
Test CRC 5791E6BE
Copy CRC 5791E6BE
Copy OK

Track 3
Filename D:\Musique\Davis Miles\Seven Steps 1963-1964 Flac\Seven Steps 1963-1964 CD4\03 - So What (Live) - Miles Davis.wav

Peak level 100.0 %
Track quality 100.0 %
Test CRC FEC54A3A
Copy CRC FEC54A3A
Copy OK

Track 4
Filename D:\Musique\Davis Miles\Seven Steps 1963-1964 Flac\Seven Steps 1963-1964 CD4\04 - Stella by Starlight (Live) - Miles Davis.wav

Peak level 100.0 %
Track quality 100.0 %
Test CRC 14D8DD69
Copy CRC 14D8DD69
Copy OK

Track 5
Filename D:\Musique\Davis Miles\Seven Steps 1963-1964 Flac\Seven Steps 1963-1964 CD4\05 - Walkin' (Live) - Miles Davis.wav

Peak level 100.0 %
Track quality 100.0 %
Test CRC 8BECC6F2
Copy CRC 8BECC6F2
Copy OK

Track 6
Filename D:\Musique\Davis Miles\Seven Steps 1963-1964 Flac\Seven Steps 1963-1964 CD4\06 - All Of You (Live) - Miles Davis.wav

Peak level 100.0 %
Track quality 100.0 %
Test CRC BB419A51
Copy CRC BB419A51
Copy OK

Track 7
Filename D:\Musique\Davis Miles\Seven Steps 1963-1964 Flac\Seven Steps 1963-1964 CD4\07 - Go-Go (Theme And Announcement) (Live) - Miles Davis.wav

Peak level 100.0 %
Track quality 100.0 %
Test CRC 431063E8
Copy CRC 431063E8
Copy OK

No errors occured


End of status report

EAC extraction logfile from 18. November 2007, 19:09 for CD
Miles Davis / Seven Steps: The Complete Columbia Recordings Of Miles Davis 1963-1964

Used drive : PLEXTOR CD-R PX-W1210A Adapter: 1 ID: 1
Read mode : Secure with NO C2, accurate stream, disable cache
Read offset correction : 99
Overread into Lead-In and Lead-Out : No

Used output format : C:\Program Files\FLAC\flac.exe (User Defined Encoder)
32 kBit/s
Additional command line options : -8 -A tukey(0.25) -A gauss(0.1875) -b 4096 -V -T "artist=%a" -T "title=%t" -T "album=%g" -T "date=%y" -T "tracknumber=%n" -T "genre=%m" %s –sector-align

Other options :
Fill up missing offset samples with silence : Yes
Delete leading and trailing silent blocks : No
Native Win32 interface for Win NT & 2000


Track 1
Filename D:\Musique\Davis Miles\Seven Steps 1963-1964 Flac\Seven Steps 1963-1964 CD5\01 - Introduction by Billy Taylor (Live) - Miles Davis.wav

Pre-gap length 0:00:02.00

Peak level 50.6 %
Track quality 99.7 %
Test CRC FE319869
Copy CRC FE319869
Copy OK

Track 2
Filename D:\Musique\Davis Miles\Seven Steps 1963-1964 Flac\Seven Steps 1963-1964 CD5\02 - All Blues (Live) - Miles Davis.wav

Peak level 98.8 %
Track quality 99.9 %
Test CRC BC1DCAEF
Copy CRC BC1DCAEF
Copy OK

Track 3
Filename D:\Musique\Davis Miles\Seven Steps 1963-1964 Flac\Seven Steps 1963-1964 CD5\03 - My Funny Valentine (Live) - Miles Davis.wav

Peak level 98.8 %
Track quality 99.9 %
Test CRC 8DE87DB4
Copy CRC 8DE87DB4
Copy OK

Track 4
Filename D:\Musique\Davis Miles\Seven Steps 1963-1964 Flac\Seven Steps 1963-1964 CD5\04 - Joshua (Live) - Miles Davis.wav

Peak level 98.8 %
Track quality 100.0 %
Test CRC D43A1856
Copy CRC D43A1856
Copy OK

Track 5
Filename D:\Musique\Davis Miles\Seven Steps 1963-1964 Flac\Seven Steps 1963-1964 CD5\05 - I Thought About You (Live) - Miles Davis.wav

Peak level 95.4 %
Track quality 100.0 %
Test CRC 39479B22
Copy CRC 39479B22
Copy OK

Track 6
Filename D:\Musique\Davis Miles\Seven Steps 1963-1964 Flac\Seven Steps 1963-1964 CD5\06 - Four (Live) - Miles Davis.wav

Peak level 98.7 %
Track quality 99.9 %
Test CRC 2D6AA1DB
Copy CRC 2D6AA1DB
Copy OK

Track 7
Filename D:\Musique\Davis Miles\Seven Steps 1963-1964 Flac\Seven Steps 1963-1964 CD5\07 - Seven Steps To Heaven (Live) - Miles Davis.wav

Peak level 98.8 %
Track quality 100.0 %
Test CRC B5E1C9CA
Copy CRC B5E1C9CA
Copy OK

Track 8
Filename D:\Musique\Davis Miles\Seven Steps 1963-1964 Flac\Seven Steps 1963-1964 CD5\08 - There Is No Greater Love (Live) - Miles Davis.wav

Peak level 98.8 %
Track quality 100.0 %
Test CRC 94039A86
Copy CRC 94039A86
Copy OK

Track 9
Filename D:\Musique\Davis Miles\Seven Steps 1963-1964 Flac\Seven Steps 1963-1964 CD5\09 - Go-Go (Theme And Re-Introduction) (Live) - Miles Davis.wav

Peak level 98.8 %
Track quality 100.0 %
Test CRC 97F95071
Copy CRC 97F95071
Copy OK

No errors occured


End of status report

EAC extraction logfile from 18. November 2007, 19:34 for CD
Miles Davis / Seven Steps: The Complete Columbia Recordings Of Miles Davis 1963-1964

Used drive : PLEXTOR CD-R PX-W1210A Adapter: 1 ID: 1
Read mode : Secure with NO C2, accurate stream, disable cache
Read offset correction : 99
Overread into Lead-In and Lead-Out : No

Used output format : C:\Program Files\FLAC\flac.exe (User Defined Encoder)
32 kBit/s
Additional command line options : -8 -A tukey(0.25) -A gauss(0.1875) -b 4096 -V -T "artist=%a" -T "title=%t" -T "album=%g" -T "date=%y" -T "tracknumber=%n" -T "genre=%m" %s –sector-align

Other options :
Fill up missing offset samples with silence : Yes
Delete leading and trailing silent blocks : No
Native Win32 interface for Win NT & 2000


Track 1
Filename D:\Musique\Davis Miles\Seven Steps 1963-1964 Flac\Seven Steps 1963-1964 CD6\01 - Introduction by Teruo Isono (Live) - Miles Davis.wav

Pre-gap length 0:00:02.00

Peak level 86.5 %
Track quality 100.0 %
Test CRC 08B0B1C9
Copy CRC 08B0B1C9
Copy OK

Track 2
Filename D:\Musique\Davis Miles\Seven Steps 1963-1964 Flac\Seven Steps 1963-1964 CD6\02 - If I Were A Bell (Live) - Miles Davis.wav

Peak level 99.6 %
Track quality 100.0 %
Test CRC 11A06FA2
Copy CRC 11A06FA2
Copy OK

Track 3
Filename D:\Musique\Davis Miles\Seven Steps 1963-1964 Flac\Seven Steps 1963-1964 CD6\03 - My Funny Valentine (Live) - Miles Davis.wav

Pre-gap length 0:00:01.45

Peak level 99.7 %
Track quality 100.0 %
Test CRC D73E7CC5
Copy CRC D73E7CC5
Copy OK

Track 4
Filename D:\Musique\Davis Miles\Seven Steps 1963-1964 Flac\Seven Steps 1963-1964 CD6\04 - So What (Live) - Miles Davis.wav

Pre-gap length 0:00:01.68

Peak level 99.7 %
Track quality 99.9 %
Test CRC 11CC6FD9
Copy CRC 11CC6FD9
Copy OK

Track 5
Filename D:\Musique\Davis Miles\Seven Steps 1963-1964 Flac\Seven Steps 1963-1964 CD6\05 - Walkin' (Live) - Miles Davis.wav

Pre-gap length 0:00:01.63

Peak level 99.8 %
Track quality 100.0 %
Test CRC 0B6C0B8C
Copy CRC 0B6C0B8C
Copy OK

Track 6
Filename D:\Musique\Davis Miles\Seven Steps 1963-1964 Flac\Seven Steps 1963-1964 CD6\06 - All Of You (Live) - Miles Davis.wav

Pre-gap length 0:00:01.60

Peak level 99.5 %
Track quality 99.9 %
Test CRC A81D36EF
Copy CRC A81D36EF
Copy OK

Track 7
Filename D:\Musique\Davis Miles\Seven Steps 1963-1964 Flac\Seven Steps 1963-1964 CD6\07 - Go-Go (Theme) (Live) - Miles Davis.wav

Peak level 99.7 %
Track quality 100.0 %
Test CRC 57EF2018
Copy CRC 57EF2018
Copy OK

No errors occured


End of status report

EAC extraction logfile from 18. November 2007, 20:09 for CD
Miles Davis / Seven Steps: The Complete Columbia Recordings Of Miles Davis 1963-1964

Used drive : PLEXTOR CD-R PX-W1210A Adapter: 1 ID: 1
Read mode : Secure with NO C2, accurate stream, disable cache
Read offset correction : 99
Overread into Lead-In and Lead-Out : No

Used output format : C:\Program Files\FLAC\flac.exe (User Defined Encoder)
32 kBit/s
Additional command line options : -8 -A tukey(0.25) -A gauss(0.1875) -b 4096 -V -T "artist=%a" -T "title=%t" -T "album=%g" -T "date=%y" -T "tracknumber=%n" -T "genre=%m" %s –sector-align

Other options :
Fill up missing offset samples with silence : Yes
Delete leading and trailing silent blocks : No
Native Win32 interface for Win NT & 2000


Track 1
Filename D:\Musique\Davis Miles\Seven Steps 1963-1964 Flac\Seven Steps 1963-1964 CD7\01 - Milestones (Live) - Miles Davis.wav

Pre-gap length 0:00:02.00

Peak level 99.4 %
Track quality 100.0 %
Test CRC B7946E66
Copy CRC B7946E66
Copy OK

Track 2
Filename D:\Musique\Davis Miles\Seven Steps 1963-1964 Flac\Seven Steps 1963-1964 CD7\02 - Autumn Leaves (Live) - Miles Davis.wav

Peak level 99.7 %
Track quality 100.0 %
Test CRC D6DE9A9E
Copy CRC D6DE9A9E
Copy OK

Track 3
Filename D:\Musique\Davis Miles\Seven Steps 1963-1964 Flac\Seven Steps 1963-1964 CD7\03 - So What (Live) - Miles Davis.wav

Peak level 99.5 %
Track quality 100.0 %
Test CRC F987F984
Copy CRC F987F984
Copy OK

Track 4
Filename D:\Musique\Davis Miles\Seven Steps 1963-1964 Flac\Seven Steps 1963-1964 CD7\04 - Stella by Starlight (Live) - Miles Davis.wav

Peak level 85.3 %
Track quality 100.0 %
Test CRC 3B0C3B3D
Copy CRC 3B0C3B3D
Copy OK

Track 5
Filename D:\Musique\Davis Miles\Seven Steps 1963-1964 Flac\Seven Steps 1963-1964 CD7\05 - Walkin' (Live) - Miles Davis.wav

Peak level 90.6 %
Track quality 100.0 %
Test CRC 9E062304
Copy CRC 9E062304
Copy OK

Track 6
Filename D:\Musique\Davis Miles\Seven Steps 1963-1964 Flac\Seven Steps 1963-1964 CD7\06 - Go-Go (Theme) (Live) - Miles Davis.wav

Peak level 86.8 %
Track quality 100.0 %
Test CRC 8A49D92E
Copy CRC 8A49D92E
Copy OK

No errors occured


End of status report


Miles Davis - Seven Steps: The Complete Columbia Recordings Of Miles Davis 1963-1964 (2004) {7CD Columbia C7K 90840}

Miles Davis - Seven Steps: The Complete Columbia Recordings Of Miles Davis 1963-1964 (2004) {7CD Columbia C7K 90840}

Miles Davis - Seven Steps: The Complete Columbia Recordings Of Miles Davis 1963-1964 (2004) {7CD Columbia C7K 90840}



===