Subcategories

Miles Davis - The Original Mono Recordings (2013) {9CD Box Set Columbia 88883756642 rec 1957-1964}

Posted By: ruskaval
Miles Davis - The Original Mono Recordings (2013) {9CD Box Set Columbia 88883756642 rec 1957-1964}

Miles Davis - The Original Mono Recordings (2013) {9CD Box Set Columbia 88883756642 rec 1957-1964}
EAC rip (secure mode) | FLAC (tracks)+CUE+LOG -> 1.55 Gb | MP3 @320 -> 967 Mb
Full Artwork @ 300 dpi (png) -> 575 Mb | 5% repair rar
© 1957-64, 2013 Columbia / Legacy / Sony Music | 88883756642
Jazz / Hard Bop / Modal Music / Trumpet

For nearly half a century, Miles Davis (1926-1991) was arguably the preeminent innovator in jazz - rarely staying in the same place twice, experimenting with the most cutting-edge styles and ideas he could imagine. This year, some of Miles' most enduring works for Columbia Records are collected the way they were originally heard: MILES DAVIS: THE ORIGINAL MONO RECORDINGS. Each CD, newly remastered by Mark Wilder at Battery Studios, is housed in a mini-LP replica jacket, faithfully replicating the original LP sleeves. They are encased in a quality slipcase, alongside a 40-page booklet with rare photos and brand-new essay offering in-depth, first-hand accounts from George Avakian, who signed Miles to Columbia in 1955, AND play-by-play from mastering engineer Mark Wilder. This is the true genius of Miles Davis as most people first heard it, the way it was intended to be heard: in mono.
Miles Davis - The Original Mono Recordings (2013) {9CD Box Set Columbia 88883756642 rec 1957-1964}

The 2013 box set The Original Mono Recordings, brings together all nine of the albums the legendary jazz trumpeter recorded for Columbia that were originally released in mono, including 1957's 'Round About Midnight, 1957's Miles Ahead, 1958's Milestones, 1959's Jazz Track, 1959's Porgy and Bess, 1959's Kind of Blue, 1960's Sketches of Spain, 1961's Someday My Prince Will Come, and 1964's Miles & Monk at Newport. Remastered using the original master tapes and with pristine versions of the LPs as comparative benchmarks for sound, these mono versions have a warmth and immediacy that, at the very least, match the stereo versions, and to some ears may even outdo them. Prior to 1959, all of Davis' recordings for Columbia were released in mono. Which means that, although stereo became a popular format during the '60s, most listeners first heard these landmark albums in mono. In fact, mono was considered the most faithful and purest representation of how the music sounded in the studio. There is some logic to this notion, as the aim was to present the music in the truest regard to the overall sound of the band in the studio. Subsequently, there is less post-production trickery involved on the mono versions. There is also a clarity and depth to the sound quality on these albums, especially when it comes to the piano and bass, that stands apart from previous stereo versions. It's as if you can see farther into the recording, revealing a fuller aural picture of the band as a whole. For some listeners this may not matter, but ultimately, for others, it will mean that these mono remasters, whether bought individually or as a part of this box set, will be must-have additions to their collections.
Miles Davis - The Original Mono Recordings (2013) {9CD Box Set Columbia 88883756642 rec 1957-1964}

From the start of the Miles Davis-Columbia relationship, enormous care was taken to record his albums, and no expense was spared to promote the results. The producers and engineers who toiled on Miles' albums between 1955 and 1963 considered mono truer to the original sound and original intent, even after the advent of stereo in 1958.

Miles Davis: The Original Mono Recordings offers Miles' nine earliest Columbia albums remastered and complete in one package - all in impeccable mono mixes for the first time on CD. Seven of these albums - 'Round About Midnight, Miles Ahead (both 1957), Milestones (1958), Porgy And Bess, Kind Of Blue (both 1959), Sketches Of Spain (1960) and Someday My Prince Will Come (1961) - are familiar classics which saw Miles rise to prominence as an architect of the "hard bop" style of jazz before revolutionizing the genre with ventures into modal jazz. Of these, Milestones and Kind Of Blue remain among the most universally recognized jazz recordings in the world.

Miles Davis: The Original Mono Recordings also includes two exciting rare albums: 1958's Jazz Track features 10 compositions recorded for a French film, L'Ascenseuer pour l'echafaud, and three selections from an acclaimed session recorded shortly after the release of Milestones (and a prelude to Kind Of Blue - starring Davis, John Coltrane, Cannonball Adderley, Bill Evans, Paul Chambers, and Jimmy Cobb - offering the only other studio sides we have by Davis's sextet before they would record what became the best-selling jazz album of all time). Miles & Monk At Newport, released in 1964, features selections from two separate live performances at the Newport Jazz Festival: Davis' leading the same sextet from Jazz Track in 1958, and a 1963 set from pianist Thelonious Monk, just recently signed to Columbia from the Riverside label.

Features:
• 9 CD Box Set
• Miles Davis' First 9 Albums for Columbia Records in One Package
• First Time on CD the Way They Were Meant to be Heard: in MONO
• Each CD Newly Remastered & Housed in Mini-LP Replica Jacket
• Each CD Encased in Quality Slipcase
• 40-Page Booklet with Rare Photos & Brand New Essay
Miles Davis - The Original Mono Recordings (2013) {9CD Box Set Columbia 88883756642 rec 1957-1964}



tracklist:
Disc 1 - 'Round About Midnight

01. 'Round About Midnight
02. Ah-Leu-Cha
03. All of You
04. Bye Bye Blackbird
05. Tadd's Delight
06. Dear Old Stockholm

Disc 2 - Miles Ahead
01. Springsville
02. The Maids of Cadiz
03. The Duke
04. My Ship
05. Miles Ahead
06. Blues for Pablo
07. New Rhumba
08. The Meaning of the Blues
09. Lament
10. I Don't Wanna Be Kissed (By Anybone but You)

Miles Davis - The Original Mono Recordings (2013) {9CD Box Set Columbia 88883756642 rec 1957-1964}


Disc 3 - Milestones
01. Dr. Jekyll
02. Sid's Ahead
03. Two Bass Hit
04. Miles
05. Billy Boy
06. Straight, No Chaser

Disc 4 - Jazz Track
01. Generique
02. L'assassinat de Carala
03. Sur l'autoroute
04. Julien dans l'ascenseur
05. Florence sur les Champs-Elysees
06. Diner au motel
07. Evasion de Julien
08. Visite du vigile
09. Au bar du Petit-Bac
10. Chez le photographe du motel
11. On Green Dolphin Street
12. Fran-Dance
13. Stella by Starlight

Disc 5 - Porgy and Bess
01. The Buzzard Song
02. Bess You Is My Woman
03. Gone
04. Gone, Gone, Gone
05. Summertime
06. Bess, Oh Where's My Bess
07. Prayer (Oh, Doctor Jesus)
08. Fishermen, Strawberry and Devil Crab
09. My Man's Gone Now
10. It Ain't Necessarily So
11. Here Come de Honey Man
12. I Loves You, Porgy
13. There's a Boat That's Leaving Soon for New York

Disc 6 - Kind of Blue
01. So What
02. Freddie Freeloader
03. Blue in Green
04. All Blues
05. Flamenco Sketches

Disc 7 - Sketches of Spain
01. Concierto de Aranjuez
02. Will o' the Wisp
03. The Pan Piper
04. Saeta
05. Solea

Disc 8 - Someday My Prince Will Come
01. Someday My Prince Will Come
02. Old Folks
03. Pfrancing
04. Drad-Dog
05. Teo
06. I Thought About You

Miles Davis - The Original Mono Recordings (2013) {9CD Box Set Columbia 88883756642 rec 1957-1964}


Disc 9 - Miles & Monk at Newport
The Miles Davis Sextet
01. Ah-Leu-Cha
02. Straight, No Chaser
03. Fran-Dance
04. Two Bass Hit
The Thelonious Monk Quartet
05. Nutty
06. Blue Monk

Exact Audio Copy V1.0 beta 3 from 29. August 2011

EAC extraction logfile from 15. November 2013, 13:29

Miles Davis / 'Round About Midnight

Used drive : SAMSUNG DVDWBD SH-B083L Adapter: 2 ID: 1

Read mode : Secure
Utilize accurate stream : Yes
Defeat audio cache : Yes
Make use of C2 pointers : No

Read offset correction : 6
Overread into Lead-In and Lead-Out : No
Fill up missing offset samples with silence : Yes
Delete leading and trailing silent blocks : No
Null samples used in CRC calculations : Yes
Used interface : Native Win32 interface for Win NT & 2000
Gap handling : Appended to previous track

Used output format : User Defined Encoder
Selected bitrate : 256 kBit/s
Quality : High
Add ID3 tag : No
Command line compressor : C:\Program Files (x86)\Exact Audio Copy\Flac\flac.exe
Additional command line options : -8 -V -T "ARTIST=%artist%" -T "TITLE=%title%" -T "ALBUM=%albumtitle%" -T "DATE=%year%" -T "TRACKNUMBER=%tracknr%" -T "TOTALTRACKS=%numtracks%" -T "GENRE=%genre%" -T "ALBUMARTIST=%albumartist%" -T "ALBUM ARTIST=%albumartist%" -T "COMMENT=EAC Secure Mode, Test & Copy, AccurateRip, FLAC -8" %source%


TOC of the extracted CD

Track | Start | Length | Start sector | End sector
––––––––––––––––––––––––––––-
1 | 0:00.43 | 6:02.03 | 43 | 27195
2 | 6:02.46 | 5:57.33 | 27196 | 54003
3 | 12:00.04 | 7:08.30 | 54004 | 86133
4 | 19:08.34 | 7:57.74 | 86134 | 121982
5 | 27:06.33 | 4:31.16 | 121983 | 142323
6 | 31:37.49 | 7:48.59 | 142324 | 177482


Track 1

Filename C:\01 - 'Round Midnight.wav

Pre-gap length 0:00:02.43

Peak level 95.6 %
Extraction speed 4.8 X
Track quality 100.0 %
Test CRC 33E98CF8
Copy CRC 33E98CF8
Track not present in AccurateRip database
Copy OK

Track 2

Filename C:\02 - Ah-Leu-Cha.wav

Pre-gap length 0:00:04.22

Peak level 82.3 %
Extraction speed 5.7 X
Track quality 100.0 %
Test CRC 04938369
Copy CRC 04938369
Track not present in AccurateRip database
Copy OK

Track 3

Filename C:\03 - All Of You.wav

Pre-gap length 0:00:04.22

Peak level 93.8 %
Extraction speed 6.5 X
Track quality 100.0 %
Test CRC 4166A0BE
Copy CRC 4166A0BE
Track not present in AccurateRip database
Copy OK

Track 4

Filename C:\04 - Bye Bye Blackbird.wav

Pre-gap length 0:00:04.22

Peak level 97.6 %
Extraction speed 7.3 X
Track quality 100.0 %
Test CRC DAA4BE81
Copy CRC DAA4BE81
Track not present in AccurateRip database
Copy OK

Track 5

Filename C:\05 - Tadd's Delight.wav

Pre-gap length 0:00:03.26

Peak level 96.1 %
Extraction speed 5.1 X
Track quality 99.9 %
Test CRC C536C375
Copy CRC C536C375
Track not present in AccurateRip database
Copy OK

Track 6

Filename C:\06 - Dear Old Stockholm.wav

Pre-gap length 0:00:03.36

Peak level 97.2 %
Extraction speed 6.4 X
Track quality 99.9 %
Test CRC 5C496B49
Copy CRC 5C496B49
Track not present in AccurateRip database
Copy OK


None of the tracks are present in the AccurateRip database

No errors occurred

End of status report

==== Log checksum 0BB1746828165E1F4D9E810991BDD1AA99300EAA82918F82EE4A31D72D3B8515 ====

Exact Audio Copy V1.0 beta 3 from 29. August 2011

EAC extraction logfile from 15. November 2013, 14:24

Miles Davis / Miles Ahead

Used drive : SAMSUNG DVDWBD SH-B083L Adapter: 2 ID: 1

Read mode : Secure
Utilize accurate stream : Yes
Defeat audio cache : Yes
Make use of C2 pointers : No

Read offset correction : 6
Overread into Lead-In and Lead-Out : No
Fill up missing offset samples with silence : Yes
Delete leading and trailing silent blocks : No
Null samples used in CRC calculations : Yes
Used interface : Native Win32 interface for Win NT & 2000
Gap handling : Appended to previous track

Used output format : User Defined Encoder
Selected bitrate : 256 kBit/s
Quality : High
Add ID3 tag : No
Command line compressor : C:\Program Files (x86)\Exact Audio Copy\Flac\flac.exe
Additional command line options : -8 -V -T "ARTIST=%artist%" -T "TITLE=%title%" -T "ALBUM=%albumtitle%" -T "DATE=%year%" -T "TRACKNUMBER=%tracknr%" -T "TOTALTRACKS=%numtracks%" -T "GENRE=%genre%" -T "ALBUMARTIST=%albumartist%" -T "ALBUM ARTIST=%albumartist%" -T "COMMENT=EAC Secure Mode, Test & Copy, AccurateRip, FLAC -8" %source%


TOC of the extracted CD

Track | Start | Length | Start sector | End sector
––––––––––––––––––––––––––––-
1 | 0:00.00 | 3:28.08 | 0 | 15607
2 | 3:28.08 | 3:55.40 | 15608 | 33272
3 | 7:23.48 | 3:37.02 | 33273 | 49549
4 | 11:00.50 | 4:30.57 | 49550 | 69856
5 | 15:31.32 | 3:32.61 | 69857 | 85817
6 | 19:04.18 | 5:22.72 | 85818 | 110039
7 | 24:27.15 | 4:38.33 | 110040 | 130922
8 | 29:05.48 | 2:49.30 | 130923 | 143627
9 | 31:55.03 | 2:17.63 | 143628 | 153965
10 | 34:12.66 | 3:06.12 | 153966 | 167927


Track 1

Filename C:\01 - Springsville.wav

Pre-gap length 0:00:02.00

Peak level 79.2 %
Extraction speed 3.6 X
Track quality 100.0 %
Test CRC 8F22A837
Copy CRC 8F22A837
Track not present in AccurateRip database
Copy OK

Track 2

Filename C:\02 - The Maids Of Cadiz.wav

Peak level 57.8 %
Extraction speed 3.9 X
Track quality 100.0 %
Test CRC 99F42AE6
Copy CRC 99F42AE6
Track not present in AccurateRip database
Copy OK

Track 3

Filename C:\03 - The Duke.wav

Peak level 100.0 %
Extraction speed 4.2 X
Track quality 100.0 %
Test CRC 05ED81B0
Copy CRC 05ED81B0
Track not present in AccurateRip database
Copy OK

Track 4

Filename C:\04 - My Ship.wav

Peak level 70.1 %
Extraction speed 4.6 X
Track quality 100.0 %
Test CRC F6D14829
Copy CRC F6D14829
Track not present in AccurateRip database
Copy OK

Track 5

Filename C:\05 - Miles Ahead.wav

Peak level 96.3 %
Extraction speed 3.9 X
Track quality 99.9 %
Test CRC 861EF2C6
Copy CRC 861EF2C6
Track not present in AccurateRip database
Copy OK

Track 6

Filename C:\06 - Blues For Pablo.wav

Peak level 79.5 %
Extraction speed 5.3 X
Track quality 100.0 %
Test CRC C7604A6B
Copy CRC C7604A6B
Track not present in AccurateRip database
Copy OK

Track 7

Filename C:\07 - New Rhumba.wav

Peak level 73.8 %
Extraction speed 5.6 X
Track quality 100.0 %
Test CRC 78334B3E
Copy CRC 78334B3E
Track not present in AccurateRip database
Copy OK

Track 8

Filename C:\08 - The Meaning Of The Blues.wav

Peak level 64.1 %
Extraction speed 5.4 X
Track quality 100.0 %
Test CRC 89E06A9A
Copy CRC 89E06A9A
Track not present in AccurateRip database
Copy OK

Track 9

Filename C:\09 - Lament.wav

Peak level 63.3 %
Extraction speed 5.3 X
Track quality 100.0 %
Test CRC A8A3B47C
Copy CRC A8A3B47C
Track not present in AccurateRip database
Copy OK

Track 10

Filename C:\10 - I Don't Wanna Be Kissed (By Anyone But You).wav

Peak level 95.6 %
Extraction speed 5.8 X
Track quality 100.0 %
Test CRC 786DFF1B
Copy CRC 786DFF1B
Track not present in AccurateRip database
Copy OK


None of the tracks are present in the AccurateRip database

No errors occurred

End of status report

–– CUETools DB Plugin V2.1.3

[CTDB TOCID: 9PEw.dPaL2UhBZRxEwYG1GMPU1Y-] disk not present in database, Submit result: 9PEw.dPaL2UhBZRxEwYG1GMPU1Y- has been uploaded


==== Log checksum 1F9D4D569F7B80669B024FF552E4C01B609796519A8074C94E58CD665FA9537D ====

Exact Audio Copy V1.0 beta 3 from 29. August 2011

EAC extraction logfile from 15. November 2013, 15:27

Miles Davis / Milestones

Used drive : SAMSUNG DVDWBD SH-B083L Adapter: 2 ID: 1

Read mode : Secure
Utilize accurate stream : Yes
Defeat audio cache : Yes
Make use of C2 pointers : No

Read offset correction : 6
Overread into Lead-In and Lead-Out : No
Fill up missing offset samples with silence : Yes
Delete leading and trailing silent blocks : No
Null samples used in CRC calculations : Yes
Used interface : Native Win32 interface for Win NT & 2000
Gap handling : Appended to previous track

Used output format : User Defined Encoder
Selected bitrate : 256 kBit/s
Quality : High
Add ID3 tag : No
Command line compressor : C:\Program Files (x86)\Exact Audio Copy\Flac\flac.exe
Additional command line options : -8 -V -T "ARTIST=%artist%" -T "TITLE=%title%" -T "ALBUM=%albumtitle%" -T "DATE=%year%" -T "TRACKNUMBER=%tracknr%" -T "TOTALTRACKS=%numtracks%" -T "GENRE=%genre%" -T "ALBUMARTIST=%albumartist%" -T "ALBUM ARTIST=%albumartist%" -T "COMMENT=EAC Secure Mode, Test & Copy, AccurateRip, FLAC -8" %source%


TOC of the extracted CD

Track | Start | Length | Start sector | End sector
––––––––––––––––––––––––––––-
1 | 0:00.00 | 5:54.45 | 0 | 26594
2 | 5:54.45 | 13:12.46 | 26595 | 86040
3 | 19:07.16 | 5:18.71 | 86041 | 109961
4 | 24:26.12 | 5:49.19 | 109962 | 136155
5 | 30:15.31 | 7:19.18 | 136156 | 169098
6 | 37:34.49 | 10:41.62 | 169099 | 217235


Track 1

Filename C:\01 - Dr. Jekyll.wav

Pre-gap length 0:00:02.00

Peak level 90.5 %
Extraction speed 4.8 X
Track quality 100.0 %
Test CRC 10924F73
Copy CRC 10924F73
Track not present in AccurateRip database
Copy OK

Track 2

Filename C:\02 - Sid's Ahead.wav

Pre-gap length 0:00:03.34

Peak level 88.4 %
Extraction speed 6.2 X
Track quality 100.0 %
Test CRC F6494E65
Copy CRC F6494E65
Track not present in AccurateRip database
Copy OK

Track 3

Filename C:\03 - Two Bass Hit.wav

Pre-gap length 0:00:04.49

Peak level 97.3 %
Extraction speed 6.7 X
Track quality 100.0 %
Test CRC A3B03C09
Copy CRC A3B03C09
Track not present in AccurateRip database
Copy OK

Track 4

Filename C:\04 - Milestones.wav

Pre-gap length 0:00:04.34

Peak level 75.1 %
Extraction speed 5.4 X
Track quality 99.9 %
Test CRC B506B7D8
Copy CRC B506B7D8
Track not present in AccurateRip database
Copy OK

Track 5

Filename C:\05 - Billy Boy.wav

Pre-gap length 0:00:04.30

Peak level 88.7 %
Extraction speed 6.1 X
Track quality 99.9 %
Test CRC 3F43ED31
Copy CRC 3F43ED31
Track not present in AccurateRip database
Copy OK

Track 6

Filename C:\06 - Straight, No Chaser.wav

Pre-gap length 0:00:04.26

Peak level 86.9 %
Extraction speed 8.8 X
Track quality 100.0 %
Test CRC 382089AB
Copy CRC 382089AB
Track not present in AccurateRip database
Copy OK


None of the tracks are present in the AccurateRip database

No errors occurred

End of status report

–– CUETools DB Plugin V2.1.3

[CTDB TOCID: vF8BvitntVEWm0tNqkFs5QnxLtQ-] found, Submit result: already submitted
[83a340e9] (1/1) Accurately ripped


==== Log checksum 197BFA36153C68D6E8A338639EB64A7469F9F7C449B04A6C7C408CAF4DDFC91B ====

Exact Audio Copy V1.0 beta 3 from 29. August 2011

EAC extraction logfile from 15. November 2013, 18:03

Miles Davis / Jazz Track

Used drive : hp CDDVDW TS-L633N Adapter: 1 ID: 0

Read mode : Secure
Utilize accurate stream : Yes
Defeat audio cache : Yes
Make use of C2 pointers : No

Read offset correction : 6
Overread into Lead-In and Lead-Out : No
Fill up missing offset samples with silence : Yes
Delete leading and trailing silent blocks : No
Null samples used in CRC calculations : Yes
Used interface : Native Win32 interface for Win NT & 2000
Gap handling : Appended to previous track

Used output format : User Defined Encoder
Selected bitrate : 1024 kBit/s
Quality : High
Add ID3 tag : No
Command line compressor : C:\Program Files (x86)\Exact Audio Copy\Flac\flac.exe
Additional command line options : -8 -V -T "ARTIST=%artist%" -T "TITLE=%title%" -T "ALBUM=%albumtitle%" -T "DATE=%year%" -T "TRACKNUMBER=%tracknr%" -T "TOTALTRACKS=%numtracks%" -T "GENRE=%genre%" -T "ALBUMARTIST=%albumartist%" -T "ALBUM ARTIST=%albumartist%" -T "COMMENT=EAC Secure Mode, Test & Copy, AccurateRip, FLAC -8" %source%


TOC of the extracted CD

Track | Start | Length | Start sector | End sector
––––––––––––––––––––––––––––-
1 | 0:00.00 | 2:49.52 | 0 | 12726
2 | 2:49.52 | 2:11.05 | 12727 | 22556
3 | 5:00.57 | 2:18.69 | 22557 | 32975
4 | 7:19.51 | 2:10.69 | 32976 | 42794
5 | 9:30.45 | 2:52.17 | 42795 | 55711
6 | 12:22.62 | 3:57.38 | 55712 | 73524
7 | 16:20.25 | 0:54.16 | 73525 | 77590
8 | 17:14.41 | 2:05.42 | 77591 | 87007
9 | 19:20.08 | 2:54.64 | 87008 | 100121
10 | 22:14.72 | 3:56.68 | 100122 | 117889
11 | 26:11.65 | 9:59.69 | 117890 | 162883
12 | 36:11.59 | 5:57.40 | 162884 | 189698
13 | 42:09.24 | 4:49.67 | 189699 | 211440


Track 1

Filename I:\01 - Generique.wav

Pre-gap length 0:00:02.00

Peak level 87.3 %
Extraction speed 1.1 X
Track quality 100.0 %
Test CRC 4B324236
Copy CRC 4B324236
Track not present in AccurateRip database
Copy OK

Track 2

Filename I:\02 - L'Assassinat De Carala.wav

Pre-gap length 0:00:02.20

Peak level 97.8 %
Extraction speed 1.1 X
Track quality 100.0 %
Test CRC 091BFB80
Copy CRC 091BFB80
Track not present in AccurateRip database
Copy OK

Track 3

Filename I:\03 - Sur L'Autoroute.wav

Pre-gap length 0:00:01.57

Peak level 70.3 %
Extraction speed 1.2 X
Track quality 100.0 %
Test CRC FBDAC977
Copy CRC FBDAC977
Track not present in AccurateRip database
Copy OK

Track 4

Filename I:\04 - Julien Dans L'Ascenseur.wav

Pre-gap length 0:00:02.15

Peak level 91.6 %
Extraction speed 1.2 X
Track quality 100.0 %
Test CRC BE2A7029
Copy CRC BE2A7029
Track not present in AccurateRip database
Copy OK

Track 5

Filename I:\05 - Florence Sur Les Champs-Elysees.wav

Pre-gap length 0:00:02.26

Peak level 81.6 %
Extraction speed 1.4 X
Track quality 100.0 %
Test CRC 42FE7013
Copy CRC 42FE7013
Track not present in AccurateRip database
Copy OK

Track 6

Filename I:\06 - Diner Au Motel.wav

Pre-gap length 0:00:02.30

Peak level 68.8 %
Extraction speed 1.5 X
Track quality 100.0 %
Test CRC 05850530
Copy CRC 05850530
Track not present in AccurateRip database
Copy OK

Track 7

Filename I:\07 - Evasion De Julien.wav

Pre-gap length 0:00:01.66

Peak level 62.2 %
Extraction speed 1.0 X
Track quality 100.0 %
Test CRC B8D44161
Copy CRC B8D44161
Track not present in AccurateRip database
Copy OK

Track 8

Filename I:\08 - Visite Du Vigile.wav

Pre-gap length 0:00:02.61

Peak level 83.9 %
Extraction speed 1.4 X
Track quality 100.0 %
Test CRC 3A730D32
Copy CRC 3A730D32
Track not present in AccurateRip database
Copy OK

Track 9

Filename I:\09 - Au Bar Du Petit Bac.wav

Pre-gap length 0:00:02.33

Peak level 87.1 %
Extraction speed 1.6 X
Track quality 100.0 %
Test CRC 0883116C
Copy CRC 0883116C
Track not present in AccurateRip database
Copy OK

Track 10

Filename I:\10 - Chez Le Photographe Du Motel.wav

Pre-gap length 0:00:02.55

Peak level 80.4 %
Extraction speed 1.7 X
Track quality 100.0 %
Test CRC 5F1DAE19
Copy CRC 5F1DAE19
Track not present in AccurateRip database
Copy OK

Track 11

Filename I:\11 - On Green Dolphin Street.wav

Pre-gap length 0:00:03.32

Peak level 99.5 %
Extraction speed 1.9 X
Track quality 99.9 %
Test CRC B9A101F5
Copy CRC B9A101F5
Track not present in AccurateRip database
Copy OK

Track 12

Filename I:\12 - Fran-Dance.wav

Pre-gap length 0:00:04.26

Peak level 66.0 %
Extraction speed 1.9 X
Track quality 99.9 %
Test CRC 98E64F08
Copy CRC 98E64F08
Track not present in AccurateRip database
Copy OK

Track 13

Filename I:\13 - Stella By Starlight.wav

Pre-gap length 0:00:04.26

Peak level 59.4 %
Extraction speed 2.2 X
Track quality 100.0 %
Test CRC 86DD0829
Copy CRC 86DD0829
Track not present in AccurateRip database
Copy OK


None of the tracks are present in the AccurateRip database

No errors occurred

End of status report

–– CUETools DB Plugin V2.1.3

[CTDB TOCID: GdLYfRvjILgDNsbLKGs.a6vSp6A-] disk not present in database, Submit result: GdLYfRvjILgDNsbLKGs.a6vSp6A- has been uploaded


==== Log checksum 504DD7EB2B3395DE71B85D4E529134D1F3E32D9A5D6E06F69EF091B25B40A964 ====

Exact Audio Copy V1.0 beta 3 from 29. August 2011

EAC extraction logfile from 15. November 2013, 16:41

Miles Davis / Porgy And Bess

Used drive : SAMSUNG DVDWBD SH-B083L Adapter: 2 ID: 1

Read mode : Secure
Utilize accurate stream : Yes
Defeat audio cache : Yes
Make use of C2 pointers : No

Read offset correction : 6
Overread into Lead-In and Lead-Out : No
Fill up missing offset samples with silence : Yes
Delete leading and trailing silent blocks : No
Null samples used in CRC calculations : Yes
Used interface : Native Win32 interface for Win NT & 2000
Gap handling : Appended to previous track

Used output format : User Defined Encoder
Selected bitrate : 256 kBit/s
Quality : High
Add ID3 tag : No
Command line compressor : C:\Program Files (x86)\Exact Audio Copy\Flac\flac.exe
Additional command line options : -8 -V -T "ARTIST=%artist%" -T "TITLE=%title%" -T "ALBUM=%albumtitle%" -T "DATE=%year%" -T "TRACKNUMBER=%tracknr%" -T "TOTALTRACKS=%numtracks%" -T "GENRE=%genre%" -T "ALBUMARTIST=%albumartist%" -T "ALBUM ARTIST=%albumartist%" -T "COMMENT=EAC Secure Mode, Test & Copy, AccurateRip, FLAC -8" %source%


TOC of the extracted CD

Track | Start | Length | Start sector | End sector
––––––––––––––––––––––––––––-
1 | 0:00.00 | 4:11.70 | 0 | 18894
2 | 4:11.70 | 5:17.23 | 18895 | 42692
3 | 9:29.18 | 3:43.57 | 42693 | 59474
4 | 13:13.00 | 2:06.38 | 59475 | 68962
5 | 15:19.38 | 3:20.66 | 68963 | 84028
6 | 18:40.29 | 4:35.20 | 84029 | 104673
7 | 23:15.49 | 4:43.17 | 104674 | 125915
8 | 27:58.66 | 4:12.74 | 125916 | 144889
9 | 32:11.65 | 6:18.05 | 144890 | 173244
10 | 38:29.70 | 4:29.07 | 173245 | 193426
11 | 42:59.02 | 1:20.38 | 193427 | 199464
12 | 44:19.40 | 4:03.05 | 199465 | 217694
13 | 48:22.45 | 3:26.54 | 217695 | 233198


Track 1

Filename C:\01 - The Buzzard Song.wav

Pre-gap length 0:00:02.00

Peak level 68.9 %
Extraction speed 4.5 X
Track quality 100.0 %
Test CRC F58ED89D
Copy CRC F58ED89D
Track not present in AccurateRip database
Copy OK

Track 2

Filename C:\02 - Bess, You Is My Woman Now.wav

Pre-gap length 0:00:02.57

Peak level 62.0 %
Extraction speed 5.3 X
Track quality 100.0 %
Test CRC E8F38F8F
Copy CRC E8F38F8F
Track not present in AccurateRip database
Copy OK

Track 3

Filename C:\03 - Gone.wav

Pre-gap length 0:00:02.42

Peak level 99.7 %
Extraction speed 3.8 X
Track quality 99.9 %
Test CRC AA7BC288
Copy CRC AA7BC288
Track not present in AccurateRip database
Copy OK

Track 4

Filename C:\04 - Gone, Gone, Gone.wav

Pre-gap length 0:00:03.15

Peak level 61.0 %
Extraction speed 3.8 X
Track quality 99.9 %
Test CRC A1BB901C
Copy CRC A1BB901C
Track not present in AccurateRip database
Copy OK

Track 5

Filename C:\05 - Summertime.wav

Pre-gap length 0:00:02.39

Peak level 51.5 %
Extraction speed 5.9 X
Track quality 100.0 %
Test CRC 3B461D57
Copy CRC 3B461D57
Track not present in AccurateRip database
Copy OK

Track 6

Filename C:\06 - Bess, Oh Where's My Bess.wav

Pre-gap length 0:00:02.28

Peak level 73.0 %
Extraction speed 6.6 X
Track quality 100.0 %
Test CRC 32399273
Copy CRC 32399273
Track not present in AccurateRip database
Copy OK

Track 7

Filename C:\07 - Prayer (Oh Doctor Jesus).wav

Pre-gap length 0:00:03.32

Peak level 56.0 %
Extraction speed 6.9 X
Track quality 100.0 %
Test CRC 72735837
Copy CRC 72735837
Track not present in AccurateRip database
Copy OK

Track 8

Filename C:\08 - Fishermen, Strawberry And Devil Crab.wav

Pre-gap length 0:00:03.03

Peak level 50.3 %
Extraction speed 4.8 X
Track quality 99.9 %
Test CRC E14C01D3
Copy CRC E14C01D3
Track not present in AccurateRip database
Copy OK

Track 9

Filename C:\09 - My Man's Gone Now.wav

Pre-gap length 0:00:00.33

Peak level 66.3 %
Extraction speed 7.9 X
Track quality 100.0 %
Test CRC 2FCA19C4
Copy CRC 2FCA19C4
Track not present in AccurateRip database
Copy OK

Track 10

Filename C:\10 - It Ain't Necessarily So.wav

Peak level 76.7 %
Extraction speed 8.0 X
Track quality 100.0 %
Test CRC DC397285
Copy CRC DC397285
Track not present in AccurateRip database
Copy OK

Track 11

Filename C:\11 - Here Come De Honey Man.wav

Pre-gap length 0:00:02.49

Peak level 54.7 %
Extraction speed 6.4 X
Track quality 100.0 %
Test CRC 4A73181E
Copy CRC 4A73181E
Track not present in AccurateRip database
Copy OK

Track 12

Filename C:\12 - I Loves You, Porgy.wav

Peak level 61.8 %
Extraction speed 8.3 X
Track quality 100.0 %
Test CRC D3BFAAC6
Copy CRC D3BFAAC6
Track not present in AccurateRip database
Copy OK

Track 13

Filename C:\13 - There's A Boat That's Leaving Soon For New York.wav

Peak level 94.1 %
Extraction speed 8.2 X
Track quality 100.0 %
Test CRC 8EE28747
Copy CRC 8EE28747
Track not present in AccurateRip database
Copy OK


None of the tracks are present in the AccurateRip database

No errors occurred

End of status report

–– CUETools DB Plugin V2.1.3

[CTDB TOCID: 4cyV52rl3vaNfWvew.G489qvqdk-] disk not present in database, Submit result: 4cyV52rl3vaNfWvew.G489qvqdk- has been uploaded


==== Log checksum 8D0AE298AD0D78B3C2916D193295897BE197913FE0B4330174E39BC843A15DA0 ====

Exact Audio Copy V1.0 beta 3 from 29. August 2011

EAC extraction logfile from 15. November 2013, 17:16

Miles Davis / Kind Of Blue

Used drive : SAMSUNG DVDWBD SH-B083L Adapter: 2 ID: 1

Read mode : Secure
Utilize accurate stream : Yes
Defeat audio cache : Yes
Make use of C2 pointers : No

Read offset correction : 6
Overread into Lead-In and Lead-Out : No
Fill up missing offset samples with silence : Yes
Delete leading and trailing silent blocks : No
Null samples used in CRC calculations : Yes
Used interface : Native Win32 interface for Win NT & 2000
Gap handling : Appended to previous track

Used output format : User Defined Encoder
Selected bitrate : 256 kBit/s
Quality : High
Add ID3 tag : No
Command line compressor : C:\Program Files (x86)\Exact Audio Copy\Flac\flac.exe
Additional command line options : -8 -V -T "ARTIST=%artist%" -T "TITLE=%title%" -T "ALBUM=%albumtitle%" -T "DATE=%year%" -T "TRACKNUMBER=%tracknr%" -T "TOTALTRACKS=%numtracks%" -T "GENRE=%genre%" -T "ALBUMARTIST=%albumartist%" -T "ALBUM ARTIST=%albumartist%" -T "COMMENT=EAC Secure Mode, Test & Copy, AccurateRip, FLAC -8" %source%


TOC of the extracted CD

Track | Start | Length | Start sector | End sector
––––––––––––––––––––––––––––-
1 | 0:00.00 | 9:07.65 | 0 | 41089
2 | 9:07.65 | 9:48.31 | 41090 | 85220
3 | 18:56.21 | 5:35.70 | 85221 | 110415
4 | 24:32.16 | 11:32.68 | 110416 | 162383
5 | 36:05.09 | 9:21.50 | 162384 | 204508


Track 1

Filename C:\01 - So What.wav

Pre-gap length 0:00:02.00

Peak level 82.4 %
Extraction speed 2.3 X
Track quality 100.0 %
Test CRC 92EB5972
Copy CRC 92EB5972
Track not present in AccurateRip database
Copy OK

Track 2

Filename C:\02 - Freddie Freeloader.wav

Pre-gap length 0:00:02.32

Peak level 92.8 %
Extraction speed 2.8 X
Track quality 100.0 %
Test CRC D8283A12
Copy CRC D8283A12
Track not present in AccurateRip database
Copy OK

Track 3

Filename C:\03 - Blue In Green.wav

Pre-gap length 0:00:02.32

Peak level 71.5 %
Extraction speed 3.0 X
Track quality 100.0 %
Test CRC AF55AC5E
Copy CRC AF55AC5E
Track not present in AccurateRip database
Copy OK

Track 4

Filename C:\04 - All Blues.wav

Pre-gap length 0:00:02.32

Peak level 82.7 %
Extraction speed 3.4 X
Track quality 100.0 %
Test CRC C3AA0411
Copy CRC C3AA0411
Track not present in AccurateRip database
Copy OK

Track 5

Filename C:\05 - Flamenco Sketches.wav

Pre-gap length 0:00:02.32

Peak level 94.6 %
Extraction speed 3.8 X
Track quality 100.0 %
Test CRC EE9CB965
Copy CRC EE9CB965
Track not present in AccurateRip database
Copy OK


None of the tracks are present in the AccurateRip database

No errors occurred

End of status report

–– CUETools DB Plugin V2.1.3

[CTDB TOCID: zXjfCxEhqDB4HS1.BrHLc.uzUnU-] disk not present in database, Submit result: zXjfCxEhqDB4HS1.BrHLc.uzUnU- has been uploaded


==== Log checksum 1845F95FF70A0A51950DFD38C497348C4D4E46632C1F7848365C1DCBE5F676CC ====

Exact Audio Copy V1.0 beta 3 from 29. August 2011

EAC extraction logfile from 15. November 2013, 18:04

Miles Davis / Sketches of Spain

Used drive : SAMSUNG DVDWBD SH-B083L Adapter: 2 ID: 1

Read mode : Secure
Utilize accurate stream : Yes
Defeat audio cache : Yes
Make use of C2 pointers : No

Read offset correction : 6
Overread into Lead-In and Lead-Out : No
Fill up missing offset samples with silence : Yes
Delete leading and trailing silent blocks : No
Null samples used in CRC calculations : Yes
Used interface : Native Win32 interface for Win NT & 2000
Gap handling : Appended to previous track

Used output format : User Defined Encoder
Selected bitrate : 256 kBit/s
Quality : High
Add ID3 tag : No
Command line compressor : C:\Program Files (x86)\Exact Audio Copy\Flac\flac.exe
Additional command line options : -8 -V -T "ARTIST=%artist%" -T "TITLE=%title%" -T "ALBUM=%albumtitle%" -T "DATE=%year%" -T "TRACKNUMBER=%tracknr%" -T "TOTALTRACKS=%numtracks%" -T "GENRE=%genre%" -T "ALBUMARTIST=%albumartist%" -T "ALBUM ARTIST=%albumartist%" -T "COMMENT=EAC Secure Mode, Test & Copy, AccurateRip, FLAC -8" %source%


TOC of the extracted CD

Track | Start | Length | Start sector | End sector
––––––––––––––––––––––––––––-
1 | 0:00.00 | 16:26.63 | 0 | 74012
2 | 16:26.63 | 3:52.09 | 74013 | 91421
3 | 20:18.72 | 3:58.07 | 91422 | 109278
4 | 24:17.04 | 5:12.40 | 109279 | 132718
5 | 29:29.44 | 12:17.40 | 132719 | 188033


Track 1

Filename C:\01 - Concierto de Aranjuez.wav

Pre-gap length 0:00:02.00

Peak level 81.7 %
Extraction speed 2.5 X
Track quality 100.0 %
Test CRC B49E543B
Copy CRC B49E543B
Track not present in AccurateRip database
Copy OK

Track 2

Filename C:\02 - Will O' the Wisp (from ''El Amor Brujo'').wav

Pre-gap length 0:00:03.49

Peak level 78.4 %
Extraction speed 2.7 X
Track quality 100.0 %
Test CRC B4AF498C
Copy CRC B4AF498C
Track not present in AccurateRip database
Copy OK

Track 3

Filename C:\03 - The Pan Piper.wav

Pre-gap length 0:00:02.67

Peak level 76.1 %
Extraction speed 2.9 X
Track quality 100.0 %
Test CRC 51196CF4
Copy CRC 51196CF4
Track not present in AccurateRip database
Copy OK

Track 4

Filename C:\04 - Saeta.wav

Pre-gap length 0:00:03.21

Peak level 89.4 %
Extraction speed 3.2 X
Track quality 100.0 %
Test CRC 731CB05D
Copy CRC 731CB05D
Track not present in AccurateRip database
Copy OK

Track 5

Filename C:\05 - Solea.wav

Pre-gap length 0:00:04.03

Peak level 90.4 %
Extraction speed 3.7 X
Track quality 100.0 %
Test CRC DFA66C64
Copy CRC DFA66C64
Track not present in AccurateRip database
Copy OK


None of the tracks are present in the AccurateRip database

No errors occurred

End of status report

–– CUETools DB Plugin V2.1.3

[CTDB TOCID: AEAXpUxWi3cnG4.Etqjs3UCIMQo-] disk not present in database, Submit result: AEAXpUxWi3cnG4.Etqjs3UCIMQo- has been uploaded


==== Log checksum 682E24A7B9B3DFEBCA9FFB91A27BB09BD57C7BB3B758CD200A7BD57898B5DBD5 ====

Exact Audio Copy V1.0 beta 3 from 29. August 2011

EAC extraction logfile from 15. November 2013, 18:31

Miles Davis / Someday My Prince Will Come

Used drive : SAMSUNG DVDWBD SH-B083L Adapter: 2 ID: 1

Read mode : Secure
Utilize accurate stream : Yes
Defeat audio cache : Yes
Make use of C2 pointers : No

Read offset correction : 6
Overread into Lead-In and Lead-Out : No
Fill up missing offset samples with silence : Yes
Delete leading and trailing silent blocks : No
Null samples used in CRC calculations : Yes
Used interface : Native Win32 interface for Win NT & 2000
Gap handling : Appended to previous track

Used output format : User Defined Encoder
Selected bitrate : 256 kBit/s
Quality : High
Add ID3 tag : No
Command line compressor : C:\Program Files (x86)\Exact Audio Copy\Flac\flac.exe
Additional command line options : -8 -V -T "ARTIST=%artist%" -T "TITLE=%title%" -T "ALBUM=%albumtitle%" -T "DATE=%year%" -T "TRACKNUMBER=%tracknr%" -T "TOTALTRACKS=%numtracks%" -T "GENRE=%genre%" -T "ALBUMARTIST=%albumartist%" -T "ALBUM ARTIST=%albumartist%" -T "COMMENT=EAC Secure Mode, Test & Copy, AccurateRip, FLAC -8" %source%


TOC of the extracted CD

Track | Start | Length | Start sector | End sector
––––––––––––––––––––––––––––-
1 | 0:00.00 | 9:10.48 | 0 | 41297
2 | 9:10.48 | 5:21.62 | 41298 | 65434
3 | 14:32.35 | 8:38.39 | 65435 | 104323
4 | 23:10.74 | 4:35.07 | 104324 | 124955
5 | 27:46.06 | 9:40.23 | 124956 | 168478
6 | 37:26.29 | 4:55.68 | 168479 | 190671


Track 1

Filename C:\01 - Someday My Prince Will Come.wav

Pre-gap length 0:00:02.00

Peak level 72.9 %
Extraction speed 4.1 X
Track quality 100.0 %
Test CRC E38551FB
Copy CRC E38551FB
Track not present in AccurateRip database
Copy OK

Track 2

Filename C:\02 - Old Folks.wav

Pre-gap length 0:00:03.11

Peak level 58.2 %
Extraction speed 4.6 X
Track quality 100.0 %
Test CRC 138B8617
Copy CRC 138B8617
Track not present in AccurateRip database
Copy OK

Track 3

Filename C:\03 - Pfrancing.wav

Pre-gap length 0:00:03.53

Peak level 96.0 %
Extraction speed 5.3 X
Track quality 100.0 %
Test CRC BED30392
Copy CRC BED30392
Track not present in AccurateRip database
Copy OK

Track 4

Filename C:\04 - Drad-Dog.wav

Pre-gap length 0:00:03.34

Peak level 61.8 %
Extraction speed 5.5 X
Track quality 100.0 %
Test CRC 712ED07C
Copy CRC 712ED07C
Track not present in AccurateRip database
Copy OK

Track 5

Filename C:\05 - Teo.wav

Pre-gap length 0:00:03.27

Peak level 80.4 %
Extraction speed 5.7 X
Track quality 99.9 %
Test CRC 471EAA97
Copy CRC 471EAA97
Track not present in AccurateRip database
Copy OK

Track 6

Filename C:\06 - I Thought About You.wav

Pre-gap length 0:00:03.57

Peak level 70.9 %
Extraction speed 6.4 X
Track quality 100.0 %
Test CRC ADA85727
Copy CRC ADA85727
Track not present in AccurateRip database
Copy OK


None of the tracks are present in the AccurateRip database

No errors occurred

End of status report

–– CUETools DB Plugin V2.1.3

[CTDB TOCID: xTr3hJBH2_zFHqh8DJqJdVgZtEk-] disk not present in database, Submit result: xTr3hJBH2_zFHqh8DJqJdVgZtEk- has been uploaded


==== Log checksum 94B87DF3DAA051A42177289DD37384B20F03387C5C47670C7C78F53241D10714 ====

Exact Audio Copy V1.0 beta 3 from 29. August 2011

EAC extraction logfile from 16. November 2013, 21:39

Miles Davis and Thelonious Monk / Miles & Monk At Newport

Used drive : SAMSUNG DVDWBD SH-B083L Adapter: 2 ID: 1

Read mode : Secure
Utilize accurate stream : Yes
Defeat audio cache : Yes
Make use of C2 pointers : No

Read offset correction : 6
Overread into Lead-In and Lead-Out : No
Fill up missing offset samples with silence : Yes
Delete leading and trailing silent blocks : No
Null samples used in CRC calculations : Yes
Used interface : Native Win32 interface for Win NT & 2000
Gap handling : Appended to previous track

Used output format : User Defined Encoder
Selected bitrate : 1024 kBit/s
Quality : High
Add ID3 tag : No
Command line compressor : C:\Program Files (x86)\Exact Audio Copy\Flac\flac.exe
Additional command line options : -8 -V -T "ARTIST=%artist%" -T "TITLE=%title%" -T "ALBUM=%albumtitle%" -T "DATE=%year%" -T "TRACKNUMBER=%tracknr%" -T "TOTALTRACKS=%numtracks%" -T "GENRE=%genre%" -T "ALBUMARTIST=%albumartist%" -T "ALBUM ARTIST=%albumartist%" -T "COMMENT=EAC Secure Mode, Test & Copy, AccurateRip, FLAC -8" %source%


TOC of the extracted CD

Track | Start | Length | Start sector | End sector
––––––––––––––––––––––––––––-
1 | 0:00.00 | 5:54.08 | 0 | 26557
2 | 5:54.08 | 8:51.06 | 26558 | 66388
3 | 14:45.14 | 7:11.49 | 66389 | 98762
4 | 21:56.63 | 4:17.42 | 98763 | 118079
5 | 26:14.30 | 13:59.49 | 118080 | 181053
6 | 40:14.04 | 11:18.05 | 181054 | 231908


Track 1

Filename C:\01 - Miles Davis Sextet - Ah-Leu-Cha.wav

Pre-gap length 0:00:02.00

Peak level 82.9 %
Extraction speed 4.9 X
Track quality 100.0 %
Test CRC 73507304
Copy CRC 73507304
Track not present in AccurateRip database
Copy OK

Track 2

Filename C:\02 - Miles Davis Sextet - Straight, No Chaser.wav

Peak level 90.3 %
Extraction speed 5.9 X
Track quality 100.0 %
Test CRC 12880D04
Copy CRC 12880D04
Track not present in AccurateRip database
Copy OK

Track 3

Filename C:\03 - Miles Davis Sextet - Fran Dance.wav

Peak level 89.0 %
Extraction speed 6.7 X
Track quality 100.0 %
Test CRC 35C2357E
Copy CRC 35C2357E
Track not present in AccurateRip database
Copy OK

Track 4

Filename C:\04 - Miles Davis Sextet - Two Bass Hit.wav

Peak level 90.2 %
Extraction speed 6.9 X
Track quality 100.0 %
Test CRC AE25CF2E
Copy CRC AE25CF2E
Track not present in AccurateRip database
Copy OK

Track 5

Filename C:\05 - Thelonious Monk Quartet - Nutty.wav

Pre-gap length 0:00:01.69

Peak level 92.4 %
Extraction speed 5.9 X
Track quality 99.9 %
Test CRC C965EAF9
Copy CRC C965EAF9
Track not present in AccurateRip database
Copy OK

Track 6

Filename C:\06 - Thelonious Monk Quartet - Blue Monk.wav

Peak level 90.7 %
Extraction speed 2.7 X
Track quality 99.7 %
Test CRC B947469D
Copy CRC B947469D
Track not present in AccurateRip database
Copy OK


None of the tracks are present in the AccurateRip database

No errors occurred

End of status report

==== Log checksum 0BC8D43E0F2FF13F698F726962F68B6C21E674D84BE5CC6B94455161BA8A1DCD ====


Miles Davis - The Original Mono Recordings (2013) {9CD Box Set Columbia 88883756642 rec 1957-1964}

Miles Davis - The Original Mono Recordings (2013) {9CD Box Set Columbia 88883756642 rec 1957-1964}

Miles Davis - The Original Mono Recordings (2013) {9CD Box Set Columbia 88883756642 rec 1957-1964}



===