Subcategories

Miles Davis - Young Miles (2001) [4CD Boxset] {Proper Records} [re-up]

Posted By: ruskaval
Miles Davis - Young Miles (2001) [4CD Boxset] {Proper Records} [re-up]

Miles Davis - Young Miles (2001) [4CD Boxset] {Proper Records}
EAC rip (secure mode) | FLAC (tracks)+CUE+LOG -> 620 Mb | MP3 @320 -> 619 Mb
Full Artwork @ 300 dpi (png) -> 204 Mb | 5% repair rar
© 2001 Proper Records | Properbox 17
Jazz / Cool / Classic Jazz

This box set contains 82 tracks recorded by Miles Davis between 1945 and 1950. Miles' spark of genius was already apparent right from the start, and it's clear after listening to this set why Prestige gave him a lucrative recording contract which he would fulfill from 1951-1956 on his way to super-stardom. His distinctive sound on the trumpet is unmistakable here, even as a twenty year old…a sound that would delight the world for decades! This set is solid gold, filled with nuggets of beautiful jazz from start to finish. Many people may be content to limit their early Miles Davis collection to the Complete Birth Of The Cool CD, and that's fine, but you'll be missing out on lots of great music from one of the finest jazz artists of the 20th century!! The sound quality on this box set is great, save for a handful of recordings that are a little garbled but were included anyway because the playing is so beautiful.

Miles Davis - Young Miles (2001) [4CD Boxset] {Proper Records} [re-up]


82 early tracks including classic encounters with Charlie Parker, the immortal 'Birth of the Cool' sessions and work with Sarah Vaughan. Four standard jewelcases housed in a CD box. 2001 release.

Recorded between 1945 & 1950. Includes liner notes by Joop Visser.

Personnel includes: Miles Davis (trumpet); Gil Evans (arranger); Sarah Vaughan, Billy Eckstine (vocals); Charlie Parker, Lee Konitz (alto saxophone); Lucky Thompson, Coleman Hawkins, James Moody (tenor saxophone); Gerry Mulligan (baritone saxophone); Dizzy Gillespie (trumpet, piano); J.J. Johnson (trombone); Duke Jordan, Al Haig, John Lewis, Tadd Dameron (piano); Tommy Potter (bass); Max Roach, Kenny Clarke (drums).

Miles Davis - Young Miles (2001) [4CD Boxset] {Proper Records} [re-up]


tracklist
DISC 1: MILESTONES:

01. Billie's Bounce
02. Now's the Time
03. Thriving on a Riff
04. Yardbird Suite
05. Night in Tunisia
06. Oo Bop Sh'bam
07. For Europeans Only
08. Donna Lee
09. Chasin' the Bird
10. Cheryl
11. Way You Look Tonight, The
12. Milestones
13. Little Willie Leaps
14. Half Nelson
15. Sippin' at Bells
16. Bird of Paradise
17. My Old Flame
18. Out of Nowhere
19. Don't Blame Me
20. Crazeology
21. How Deep Is the Ocean
22. Another Hair Do
23. Klaunstance
24. Bird Gets the Worm

DISC 2: ENTER THE COOL:
01. Birth of the Cool Theme
02. Symphony Sid Announces the Band
03. Move
04. Why Do I Love You?
05. Godchild
06. Symphony Sid Introduction
07. S'il Vous Plait
08. Moon Dreams
09. Budo - (incomplete)
10. Darn That Dream
11. Move
12. Moon Dreams
13. Budo
14. Steeple Chase
15. Merry-Go-Round
16. 52nd Street Theme
17. Half Nelson
18. You Go to My Head
19. Chasin' the Bird
20. Overtime

DISC 3: BOPLICITY:
01. Victory Ball
02. Jeru
03. Move
04. Godchild
05. Budo
06. Good Bait
07. Focus
08. April in Paris
09. Webb's Delight
10. Milano
11. Casbah
12. Venus de Milo
13. Rouge
14. Boplicity
15. Israel
16. Rifftide
17. Good Bait
18. Wahoo
19. Don't Blame Me
20. Ladybird
21. Allen's Alley

DISC 4: CONCEPTION:
01. Embraceable You
02. Ornithology
03. All the Things You Are
04. Hot House
05. Ornithology - (incomplete)
06. Conception
07. Ray's Idea
08. Deception
09. Rocker
10. Moon Dreams
11. Darn That Dream
12. Ain't Misbehavin'
13. Goodnight My Love
14. It Might as Well Be Spring
15. Mean to Me
16. Nice Work If You Can Get It
17. Wee

EAC extraction logfile from 18. November 2007, 3:46 for CD
Miles Davis / Milestones

Used drive : HP DVD Writer 640v Adapter: 7 ID: 1
Read mode : Secure with NO C2, accurate stream, disable cache
Read offset correction : 618
Overread into Lead-In and Lead-Out : No

Used output format : Internal WAV Routines
44.100 Hz; 16 Bit; Stereo

Other options :
Fill up missing offset samples with silence : Yes
Delete leading and trailing silent blocks : No
Installed external ASPI interface


Track 1
Filename F:\uTORRENT\ups\Miles Davis - Young Miles (2001) [FLAC]\Disc 1 - Milestones\01 - Billie's Bounce.wav

Pre-gap length 0:00:02.00

Peak level 94.3 %
Track quality 100.0 %
Test CRC 3E79013F
Copy CRC 3E79013F
Copy OK

Track 2
Filename F:\uTORRENT\ups\Miles Davis - Young Miles (2001) [FLAC]\Disc 1 - Milestones\02 - Now's the time.wav

Pre-gap length 0:00:02.20

Peak level 91.2 %
Track quality 99.9 %
Test CRC ABF599F1
Copy CRC ABF599F1
Copy OK

Track 3
Filename F:\uTORRENT\ups\Miles Davis - Young Miles (2001) [FLAC]\Disc 1 - Milestones\03 - Thriving on a riff.wav

Pre-gap length 0:00:02.20

Peak level 80.7 %
Track quality 100.0 %
Test CRC 030A93B4
Copy CRC 030A93B4
Copy OK

Track 4
Filename F:\uTORRENT\ups\Miles Davis - Young Miles (2001) [FLAC]\Disc 1 - Milestones\04 - Yardbird suite.wav

Pre-gap length 0:00:02.20

Peak level 93.1 %
Track quality 100.0 %
Test CRC 38840853
Copy CRC 38840853
Copy OK

Track 5
Filename F:\uTORRENT\ups\Miles Davis - Young Miles (2001) [FLAC]\Disc 1 - Milestones\05 - Night in Tunisia.wav

Pre-gap length 0:00:02.20

Peak level 94.3 %
Track quality 100.0 %
Test CRC 0B4B44C9
Copy CRC 0B4B44C9
Copy OK

Track 6
Filename F:\uTORRENT\ups\Miles Davis - Young Miles (2001) [FLAC]\Disc 1 - Milestones\06 - Oo bop sh'bam.wav

Pre-gap length 0:00:02.20

Peak level 93.0 %
Track quality 100.0 %
Test CRC 853EB149
Copy CRC 853EB149
Copy OK

Track 7
Filename F:\uTORRENT\ups\Miles Davis - Young Miles (2001) [FLAC]\Disc 1 - Milestones\07 - For Europeans only.wav

Pre-gap length 0:00:02.20

Peak level 94.3 %
Track quality 99.9 %
Test CRC 29F20E38
Copy CRC 29F20E38
Copy OK

Track 8
Filename F:\uTORRENT\ups\Miles Davis - Young Miles (2001) [FLAC]\Disc 1 - Milestones\08 - Donna Lee.wav

Pre-gap length 0:00:02.20

Peak level 94.3 %
Track quality 99.9 %
Test CRC 7A211B21
Copy CRC 7A211B21
Copy OK

Track 9
Filename F:\uTORRENT\ups\Miles Davis - Young Miles (2001) [FLAC]\Disc 1 - Milestones\09 - Chasin' the bird.wav

Pre-gap length 0:00:02.20

Peak level 94.3 %
Track quality 100.0 %
Test CRC EDA3FDF3
Copy CRC EDA3FDF3
Copy OK

Track 10
Filename F:\uTORRENT\ups\Miles Davis - Young Miles (2001) [FLAC]\Disc 1 - Milestones\10 - Cheryl.wav

Pre-gap length 0:00:02.20

Peak level 94.3 %
Track quality 100.0 %
Test CRC 9C19D5CA
Copy CRC 9C19D5CA
Copy OK

Track 11
Filename F:\uTORRENT\ups\Miles Davis - Young Miles (2001) [FLAC]\Disc 1 - Milestones\11 - The way you look tonight.wav

Pre-gap length 0:00:02.20

Peak level 83.3 %
Track quality 99.9 %
Test CRC EC66DAEF
Copy CRC EC66DAEF
Copy OK

Track 12
Filename F:\uTORRENT\ups\Miles Davis - Young Miles (2001) [FLAC]\Disc 1 - Milestones\12 - Milestones.wav

Pre-gap length 0:00:02.20

Peak level 76.6 %
Track quality 100.0 %
Test CRC E423267B
Copy CRC E423267B
Copy OK

Track 13
Filename F:\uTORRENT\ups\Miles Davis - Young Miles (2001) [FLAC]\Disc 1 - Milestones\13 - Little Willie leaps.wav

Pre-gap length 0:00:02.20

Peak level 94.3 %
Track quality 100.0 %
Test CRC F4DAF4D2
Copy CRC F4DAF4D2
Copy OK

Track 14
Filename F:\uTORRENT\ups\Miles Davis - Young Miles (2001) [FLAC]\Disc 1 - Milestones\14 - Half Nelson.wav

Pre-gap length 0:00:02.20

Peak level 94.3 %
Track quality 99.9 %
Test CRC D77C405D
Copy CRC D77C405D
Copy OK

Track 15
Filename F:\uTORRENT\ups\Miles Davis - Young Miles (2001) [FLAC]\Disc 1 - Milestones\15 - Sippin' at Bells.wav

Pre-gap length 0:00:02.20

Peak level 92.9 %
Track quality 99.9 %
Test CRC 70F4D93F
Copy CRC 70F4D93F
Copy OK

Track 16
Filename F:\uTORRENT\ups\Miles Davis - Young Miles (2001) [FLAC]\Disc 1 - Milestones\16 - Bird of Paradise.wav

Pre-gap length 0:00:02.20

Peak level 86.6 %
Track quality 100.0 %
Test CRC 8395F6F8
Copy CRC 8395F6F8
Copy OK

Track 17
Filename F:\uTORRENT\ups\Miles Davis - Young Miles (2001) [FLAC]\Disc 1 - Milestones\17 - My old flame.wav

Pre-gap length 0:00:02.20

Peak level 94.2 %
Track quality 100.0 %
Test CRC 1F74D8B8
Copy CRC 1F74D8B8
Copy OK

Track 18
Filename F:\uTORRENT\ups\Miles Davis - Young Miles (2001) [FLAC]\Disc 1 - Milestones\18 - Out of nowhere.wav

Pre-gap length 0:00:02.20

Peak level 94.3 %
Track quality 100.0 %
Test CRC B332D255
Copy CRC B332D255
Copy OK

Track 19
Filename F:\uTORRENT\ups\Miles Davis - Young Miles (2001) [FLAC]\Disc 1 - Milestones\19 - Don't blame me.wav

Pre-gap length 0:00:02.20

Peak level 83.7 %
Track quality 100.0 %
Test CRC D5FDC85E
Copy CRC D5FDC85E
Copy OK

Track 20
Filename F:\uTORRENT\ups\Miles Davis - Young Miles (2001) [FLAC]\Disc 1 - Milestones\20 - Crazeology.wav

Pre-gap length 0:00:02.20

Peak level 94.3 %
Track quality 100.0 %
Test CRC 29FAD6B6
Copy CRC 29FAD6B6
Copy OK

Track 21
Filename F:\uTORRENT\ups\Miles Davis - Young Miles (2001) [FLAC]\Disc 1 - Milestones\21 - How deep is the ocean.wav

Pre-gap length 0:00:02.20

Peak level 86.3 %
Track quality 100.0 %
Test CRC 135A1D6B
Copy CRC 135A1D6B
Copy OK

Track 22
Filename F:\uTORRENT\ups\Miles Davis - Young Miles (2001) [FLAC]\Disc 1 - Milestones\22 - Another hair-do.wav

Pre-gap length 0:00:02.20

Peak level 93.3 %
Track quality 100.0 %
Test CRC 04654AA5
Copy CRC 04654AA5
Copy OK

Track 23
Filename F:\uTORRENT\ups\Miles Davis - Young Miles (2001) [FLAC]\Disc 1 - Milestones\23 - Klaunstance.wav

Pre-gap length 0:00:02.20

Peak level 82.9 %
Track quality 100.0 %
Test CRC C3C2292F
Copy CRC C3C2292F
Copy OK

Track 24
Filename F:\uTORRENT\ups\Miles Davis - Young Miles (2001) [FLAC]\Disc 1 - Milestones\24 - Bird gets the worm.wav

Pre-gap length 0:00:02.20

Peak level 94.3 %
Track quality 100.0 %
Test CRC 40F4FBAF
Copy CRC 40F4FBAF
Copy OK

No errors occured


End of status report

EAC extraction logfile from 18. November 2007, 2:28 for CD
Miles Davis / Enter the cool

Used drive : HP DVD Writer 640v Adapter: 7 ID: 1
Read mode : Secure with NO C2, accurate stream, disable cache
Read offset correction : 618
Overread into Lead-In and Lead-Out : No

Used output format : Internal WAV Routines
44.100 Hz; 16 Bit; Stereo

Other options :
Fill up missing offset samples with silence : Yes
Delete leading and trailing silent blocks : No
Installed external ASPI interface


Track 1
Filename F:\uTORRENT\ups\Miles Davis - Young Miles (2001) [FLAC]\Disc 2 - Enter the Cool\01 - Birth of the cool theme.wav

Pre-gap length 0:00:02.00

Peak level 87.8 %
Track quality 100.0 %
Test CRC AD06A8E0
Copy CRC AD06A8E0
Copy OK

Track 2
Filename F:\uTORRENT\ups\Miles Davis - Young Miles (2001) [FLAC]\Disc 2 - Enter the Cool\02 - Simphony Sid announces the band.wav

Peak level 80.0 %
Track quality 100.0 %
Test CRC 5290A0BC
Copy CRC 5290A0BC
Copy OK

Track 3
Filename F:\uTORRENT\ups\Miles Davis - Young Miles (2001) [FLAC]\Disc 2 - Enter the Cool\03 - Move.wav

Peak level 83.5 %
Track quality 100.0 %
Test CRC B2DB0F47
Copy CRC B2DB0F47
Copy OK

Track 4
Filename F:\uTORRENT\ups\Miles Davis - Young Miles (2001) [FLAC]\Disc 2 - Enter the Cool\04 - Why do I love you .wav

Pre-gap length 0:00:02.20

Peak level 81.6 %
Track quality 100.0 %
Test CRC 22D14EE1
Copy CRC 22D14EE1
Copy OK

Track 5
Filename F:\uTORRENT\ups\Miles Davis - Young Miles (2001) [FLAC]\Disc 2 - Enter the Cool\05 - Godchild.wav

Pre-gap length 0:00:02.20

Peak level 94.3 %
Track quality 100.0 %
Test CRC A8E89BFF
Copy CRC A8E89BFF
Copy OK

Track 6
Filename F:\uTORRENT\ups\Miles Davis - Young Miles (2001) [FLAC]\Disc 2 - Enter the Cool\06 - Simphony Sid introduction.wav

Pre-gap length 0:00:02.20

Peak level 42.7 %
Track quality 100.0 %
Test CRC 891DC477
Copy CRC 891DC477
Copy OK

Track 7
Filename F:\uTORRENT\ups\Miles Davis - Young Miles (2001) [FLAC]\Disc 2 - Enter the Cool\07 - S'il vous plait.wav

Peak level 94.3 %
Track quality 100.0 %
Test CRC A2839FF9
Copy CRC A2839FF9
Copy OK

Track 8
Filename F:\uTORRENT\ups\Miles Davis - Young Miles (2001) [FLAC]\Disc 2 - Enter the Cool\08 - Moon dreams.wav

Pre-gap length 0:00:02.20

Peak level 56.3 %
Track quality 100.0 %
Test CRC 02A5384A
Copy CRC 02A5384A
Copy OK

Track 9
Filename F:\uTORRENT\ups\Miles Davis - Young Miles (2001) [FLAC]\Disc 2 - Enter the Cool\09 - Budo.wav

Pre-gap length 0:00:02.20

Peak level 94.3 %
Track quality 99.9 %
Test CRC 380CBD4D
Copy CRC 380CBD4D
Copy OK

Track 10
Filename F:\uTORRENT\ups\Miles Davis - Young Miles (2001) [FLAC]\Disc 2 - Enter the Cool\10 - Darn that dream.wav

Pre-gap length 0:00:02.20

Peak level 88.6 %
Track quality 99.9 %
Test CRC 696294C4
Copy CRC 696294C4
Copy OK

Track 11
Filename F:\uTORRENT\ups\Miles Davis - Young Miles (2001) [FLAC]\Disc 2 - Enter the Cool\11 - Move.wav

Pre-gap length 0:00:02.20

Peak level 94.3 %
Track quality 100.0 %
Test CRC 430028B9
Copy CRC 430028B9
Copy OK

Track 12
Filename F:\uTORRENT\ups\Miles Davis - Young Miles (2001) [FLAC]\Disc 2 - Enter the Cool\12 - Moon dreams.wav

Pre-gap length 0:00:02.20

Peak level 65.8 %
Track quality 100.0 %
Test CRC C54D90D1
Copy CRC C54D90D1
Copy OK

Track 13
Filename F:\uTORRENT\ups\Miles Davis - Young Miles (2001) [FLAC]\Disc 2 - Enter the Cool\13 - Budo.wav

Pre-gap length 0:00:02.20

Peak level 94.3 %
Track quality 100.0 %
Test CRC D1698193
Copy CRC D1698193
Copy OK

Track 14
Filename F:\uTORRENT\ups\Miles Davis - Young Miles (2001) [FLAC]\Disc 2 - Enter the Cool\14 - Steeple chase.wav

Pre-gap length 0:00:02.20

Peak level 91.8 %
Track quality 100.0 %
Test CRC 5AE88250
Copy CRC 5AE88250
Copy OK

Track 15
Filename F:\uTORRENT\ups\Miles Davis - Young Miles (2001) [FLAC]\Disc 2 - Enter the Cool\15 - Merry - go - round.wav

Pre-gap length 0:00:02.20

Peak level 88.2 %
Track quality 100.0 %
Test CRC C450D664
Copy CRC C450D664
Copy OK

Track 16
Filename F:\uTORRENT\ups\Miles Davis - Young Miles (2001) [FLAC]\Disc 2 - Enter the Cool\16 - 52nd Street theme.wav

Pre-gap length 0:00:02.20

Peak level 90.5 %
Track quality 100.0 %
Test CRC 67A10B4C
Copy CRC 67A10B4C
Copy OK

Track 17
Filename F:\uTORRENT\ups\Miles Davis - Young Miles (2001) [FLAC]\Disc 2 - Enter the Cool\17 - Half Nelson.wav

Pre-gap length 0:00:02.20

Peak level 86.7 %
Track quality 100.0 %
Test CRC 769C988B
Copy CRC 769C988B
Copy OK

Track 18
Filename F:\uTORRENT\ups\Miles Davis - Young Miles (2001) [FLAC]\Disc 2 - Enter the Cool\18 - You go to my head.wav

Pre-gap length 0:00:02.20

Peak level 89.4 %
Track quality 100.0 %
Test CRC 825F0F28
Copy CRC 825F0F28
Copy OK

Track 19
Filename F:\uTORRENT\ups\Miles Davis - Young Miles (2001) [FLAC]\Disc 2 - Enter the Cool\19 - Chasin' the bird.wav

Pre-gap length 0:00:02.20

Peak level 94.3 %
Track quality 100.0 %
Test CRC A316DD52
Copy CRC A316DD52
Copy OK

Track 20
Filename F:\uTORRENT\ups\Miles Davis - Young Miles (2001) [FLAC]\Disc 2 - Enter the Cool\20 - Overtime.wav

Pre-gap length 0:00:02.20

Peak level 94.3 %
Track quality 100.0 %
Test CRC 2E23D4D0
Copy CRC 2E23D4D0
Copy OK

No errors occured


End of status report

EAC extraction logfile from 18. November 2007, 5:36 for CD
Miles Davis / Boplicity

Used drive : HP DVD Writer 640v Adapter: 7 ID: 1
Read mode : Secure with NO C2, accurate stream, disable cache
Read offset correction : 618
Overread into Lead-In and Lead-Out : No

Used output format : Internal WAV Routines
44.100 Hz; 16 Bit; Stereo

Other options :
Fill up missing offset samples with silence : Yes
Delete leading and trailing silent blocks : No
Installed external ASPI interface


Track 1
Filename F:\uTORRENT\ups\Miles Davis - Young Miles (2001) [FLAC]\Disc 3 - Boplicity\01 - Victory Ball.wav

Pre-gap length 0:00:02.00

Peak level 94.3 %
Track quality 100.0 %
Test CRC 9137041D
Copy CRC 9137041D
Copy OK

Track 2
Filename F:\uTORRENT\ups\Miles Davis - Young Miles (2001) [FLAC]\Disc 3 - Boplicity\02 - Jeru.wav

Pre-gap length 0:00:02.20

Peak level 94.3 %
Track quality 100.0 %
Test CRC 5B386122
Copy CRC 5B386122
Copy OK

Track 3
Filename F:\uTORRENT\ups\Miles Davis - Young Miles (2001) [FLAC]\Disc 3 - Boplicity\03 - Move.wav

Pre-gap length 0:00:02.20

Peak level 94.3 %
Track quality 100.0 %
Test CRC 3C1CCE94
Copy CRC 3C1CCE94
Copy OK

Track 4
Filename F:\uTORRENT\ups\Miles Davis - Young Miles (2001) [FLAC]\Disc 3 - Boplicity\04 - Godchild.wav

Pre-gap length 0:00:02.20

Peak level 94.3 %
Track quality 99.9 %
Test CRC 140E53A7
Copy CRC 140E53A7
Copy OK

Track 5
Filename F:\uTORRENT\ups\Miles Davis - Young Miles (2001) [FLAC]\Disc 3 - Boplicity\05 - Budo.wav

Pre-gap length 0:00:02.20

Peak level 94.3 %
Track quality 100.0 %
Test CRC 6FD4F065
Copy CRC 6FD4F065
Copy OK

Track 6
Filename F:\uTORRENT\ups\Miles Davis - Young Miles (2001) [FLAC]\Disc 3 - Boplicity\06 - Good bait.wav

Pre-gap length 0:00:02.20

Peak level 94.3 %
Track quality 100.0 %
Test CRC 2422EAEB
Copy CRC 2422EAEB
Copy OK

Track 7
Filename F:\uTORRENT\ups\Miles Davis - Young Miles (2001) [FLAC]\Disc 3 - Boplicity\07 - Focus.wav

Pre-gap length 0:00:02.20

Peak level 94.3 %
Track quality 99.9 %
Test CRC 468C147D
Copy CRC 468C147D
Copy OK

Track 8
Filename F:\uTORRENT\ups\Miles Davis - Young Miles (2001) [FLAC]\Disc 3 - Boplicity\08 - April in Paris.wav

Pre-gap length 0:00:02.20

Peak level 89.3 %
Track quality 100.0 %
Test CRC 72F53548
Copy CRC 72F53548
Copy OK

Track 9
Filename F:\uTORRENT\ups\Miles Davis - Young Miles (2001) [FLAC]\Disc 3 - Boplicity\09 - Webb's delight.wav

Pre-gap length 0:00:02.20

Peak level 94.3 %
Track quality 100.0 %
Test CRC 62CB73C2
Copy CRC 62CB73C2
Copy OK

Track 10
Filename F:\uTORRENT\ups\Miles Davis - Young Miles (2001) [FLAC]\Disc 3 - Boplicity\10 - Milano (Miles).wav

Pre-gap length 0:00:02.20

Peak level 94.3 %
Track quality 99.9 %
Test CRC D5CA02C5
Copy CRC D5CA02C5
Copy OK

Track 11
Filename F:\uTORRENT\ups\Miles Davis - Young Miles (2001) [FLAC]\Disc 3 - Boplicity\11 - Casbah.wav

Pre-gap length 0:00:02.20

Peak level 94.2 %
Track quality 100.0 %
Test CRC 3C011AB3
Copy CRC 3C011AB3
Copy OK

Track 12
Filename F:\uTORRENT\ups\Miles Davis - Young Miles (2001) [FLAC]\Disc 3 - Boplicity\12 - Venus de Milo.wav

Pre-gap length 0:00:02.20

Peak level 93.5 %
Track quality 100.0 %
Test CRC C61CD88A
Copy CRC C61CD88A
Copy OK

Track 13
Filename F:\uTORRENT\ups\Miles Davis - Young Miles (2001) [FLAC]\Disc 3 - Boplicity\13 - Rouge.wav

Pre-gap length 0:00:02.20

Peak level 94.3 %
Track quality 100.0 %
Test CRC 04D0462D
Copy CRC 04D0462D
Copy OK

Track 14
Filename F:\uTORRENT\ups\Miles Davis - Young Miles (2001) [FLAC]\Disc 3 - Boplicity\14 - Boplicity.wav

Pre-gap length 0:00:02.20

Peak level 94.3 %
Track quality 99.9 %
Test CRC DCD43F21
Copy CRC DCD43F21
Copy OK

Track 15
Filename F:\uTORRENT\ups\Miles Davis - Young Miles (2001) [FLAC]\Disc 3 - Boplicity\15 - Israel.wav

Pre-gap length 0:00:02.20

Peak level 94.3 %
Track quality 100.0 %
Test CRC D7A90FC6
Copy CRC D7A90FC6
Copy OK

Track 16
Filename F:\uTORRENT\ups\Miles Davis - Young Miles (2001) [FLAC]\Disc 3 - Boplicity\16 - Rifftide.wav

Pre-gap length 0:00:02.20

Peak level 94.3 %
Track quality 100.0 %
Test CRC 5D76E92F
Copy CRC 5D76E92F
Copy OK

Track 17
Filename F:\uTORRENT\ups\Miles Davis - Young Miles (2001) [FLAC]\Disc 3 - Boplicity\17 - Good bait.wav

Peak level 94.3 %
Track quality 100.0 %
Test CRC 63696291
Copy CRC 63696291
Copy OK

Track 18
Filename F:\uTORRENT\ups\Miles Davis - Young Miles (2001) [FLAC]\Disc 3 - Boplicity\18 - Wahoo.wav

Peak level 94.3 %
Track quality 99.9 %
Test CRC 9A91AA8C
Copy CRC 9A91AA8C
Copy OK

Track 19
Filename F:\uTORRENT\ups\Miles Davis - Young Miles (2001) [FLAC]\Disc 3 - Boplicity\19 - Don't blame me.wav

Peak level 75.1 %
Track quality 100.0 %
Test CRC D81498CA
Copy CRC D81498CA
Copy OK

Track 20
Filename F:\uTORRENT\ups\Miles Davis - Young Miles (2001) [FLAC]\Disc 3 - Boplicity\20 - Ladybird.wav

Peak level 94.1 %
Track quality 99.9 %
Test CRC 1A68F8EC
Copy CRC 1A68F8EC
Copy OK

Track 21
Filename F:\uTORRENT\ups\Miles Davis - Young Miles (2001) [FLAC]\Disc 3 - Boplicity\21 - Allen's Alley.wav

Peak level 80.2 %
Track quality 100.0 %
Test CRC 186FE51A
Copy CRC 186FE51A
Copy OK

No errors occured


End of status report

EAC extraction logfile from 18. November 2007, 7:35 for CD
Miles Davis / Conception

Used drive : HP DVD Writer 640v Adapter: 7 ID: 1
Read mode : Secure with NO C2, accurate stream, disable cache
Read offset correction : 618
Overread into Lead-In and Lead-Out : No

Used output format : Internal WAV Routines
44.100 Hz; 16 Bit; Stereo

Other options :
Fill up missing offset samples with silence : Yes
Delete leading and trailing silent blocks : No
Installed external ASPI interface


Track 1
Filename F:\uTORRENT\ups\Miles Davis - Young Miles (2001) [FLAC]\Disc 4 - Conception\01 - Embraceable you.wav

Pre-gap length 0:00:02.00

Peak level 87.3 %
Track quality 100.0 %
Test CRC CAB82D83
Copy CRC CAB82D83
Copy OK

Track 2
Filename F:\uTORRENT\ups\Miles Davis - Young Miles (2001) [FLAC]\Disc 4 - Conception\02 - Ornithology.wav

Peak level 94.3 %
Track quality 99.9 %
Test CRC A8772A07
Copy CRC A8772A07
Copy OK

Track 3
Filename F:\uTORRENT\ups\Miles Davis - Young Miles (2001) [FLAC]\Disc 4 - Conception\03 - All the things you are.wav

Peak level 94.3 %
Track quality 100.0 %
Test CRC 7272DC1C
Copy CRC 7272DC1C
Copy OK

Track 4
Filename F:\uTORRENT\ups\Miles Davis - Young Miles (2001) [FLAC]\Disc 4 - Conception\04 - Hot house.wav

Pre-gap length 0:00:02.20

Peak level 90.4 %
Track quality 100.0 %
Test CRC 1B23AF24
Copy CRC 1B23AF24
Copy OK

Track 5
Filename F:\uTORRENT\ups\Miles Davis - Young Miles (2001) [FLAC]\Disc 4 - Conception\05 - Ornithology (incomplete).wav

Peak level 67.3 %
Track quality 100.0 %
Test CRC D5C15ED2
Copy CRC D5C15ED2
Copy OK

Track 6
Filename F:\uTORRENT\ups\Miles Davis - Young Miles (2001) [FLAC]\Disc 4 - Conception\06 - Conception.wav

Pre-gap length 0:00:02.20

Peak level 94.3 %
Track quality 99.9 %
Test CRC 0334EAA7
Copy CRC 0334EAA7
Copy OK

Track 7
Filename F:\uTORRENT\ups\Miles Davis - Young Miles (2001) [FLAC]\Disc 4 - Conception\07 - Ray's idea.wav

Pre-gap length 0:00:02.20

Peak level 94.2 %
Track quality 100.0 %
Test CRC 4A776260
Copy CRC 4A776260
Copy OK

Track 8
Filename F:\uTORRENT\ups\Miles Davis - Young Miles (2001) [FLAC]\Disc 4 - Conception\08 - Deception.wav

Pre-gap length 0:00:02.20

Peak level 75.6 %
Track quality 100.0 %
Test CRC A846A79B
Copy CRC A846A79B
Copy OK

Track 9
Filename F:\uTORRENT\ups\Miles Davis - Young Miles (2001) [FLAC]\Disc 4 - Conception\09 - Rocker.wav

Pre-gap length 0:00:02.20

Peak level 75.8 %
Track quality 100.0 %
Test CRC 62DB7CA1
Copy CRC 62DB7CA1
Copy OK

Track 10
Filename F:\uTORRENT\ups\Miles Davis - Young Miles (2001) [FLAC]\Disc 4 - Conception\10 - Moon dreams.wav

Pre-gap length 0:00:02.20

Peak level 89.4 %
Track quality 100.0 %
Test CRC B04760EB
Copy CRC B04760EB
Copy OK

Track 11
Filename F:\uTORRENT\ups\Miles Davis - Young Miles (2001) [FLAC]\Disc 4 - Conception\11 - Darn that dream.wav

Pre-gap length 0:00:02.20

Peak level 91.0 %
Track quality 100.0 %
Test CRC A33641E7
Copy CRC A33641E7
Copy OK

Track 12
Filename F:\uTORRENT\ups\Miles Davis - Young Miles (2001) [FLAC]\Disc 4 - Conception\12 - Ain't misbehavin'.wav

Pre-gap length 0:00:02.20

Peak level 93.8 %
Track quality 100.0 %
Test CRC A9E3B5C3
Copy CRC A9E3B5C3
Copy OK

Track 13
Filename F:\uTORRENT\ups\Miles Davis - Young Miles (2001) [FLAC]\Disc 4 - Conception\13 - Good night my love.wav

Pre-gap length 0:00:02.20

Peak level 92.5 %
Track quality 100.0 %
Test CRC AD758AB6
Copy CRC AD758AB6
Copy OK

Track 14
Filename F:\uTORRENT\ups\Miles Davis - Young Miles (2001) [FLAC]\Disc 4 - Conception\14 - It might as well be Spring.wav

Pre-gap length 0:00:02.20

Peak level 84.0 %
Track quality 100.0 %
Test CRC D96A9CC6
Copy CRC D96A9CC6
Copy OK

Track 15
Filename F:\uTORRENT\ups\Miles Davis - Young Miles (2001) [FLAC]\Disc 4 - Conception\15 - Mean to me.wav

Pre-gap length 0:00:02.20

Peak level 84.0 %
Track quality 99.9 %
Test CRC 22A52045
Copy CRC 22A52045
Copy OK

Track 16
Filename F:\uTORRENT\ups\Miles Davis - Young Miles (2001) [FLAC]\Disc 4 - Conception\16 - Nice work if you can get it.wav

Pre-gap length 0:00:02.20

Peak level 84.4 %
Track quality 100.0 %
Test CRC EF2E27FA
Copy CRC EF2E27FA
Copy OK

Track 17
Filename F:\uTORRENT\ups\Miles Davis - Young Miles (2001) [FLAC]\Disc 4 - Conception\17 - Wee.wav

Pre-gap length 0:00:02.20

Peak level 94.2 %
Track quality 100.0 %
Test CRC CD8DB8E0
Copy CRC CD8DB8E0
Copy OK

No errors occured


End of status report


Miles Davis - Young Miles (2001) [4CD Boxset] {Proper Records} [re-up]

Miles Davis - Young Miles (2001) [4CD Boxset] {Proper Records} [re-up]


All thanks goes to the original releaser!