Subcategories

The Mission - London Shepherds Bush Empire (2008) {5CD Set, Eyes Wide Shut Recordings Limited Edition EWSR 002~006}

Posted By: ruskaval
The Mission - London Shepherds Bush Empire (2008) {5CD Set, Eyes Wide Shut Recordings Limited Edition EWSR 002~006}

The Mission - London Shepherds Bush Empire (2008) {5CD Set, Eyes Wide Shut Recordings Limited Edition EWSR 002~006}
EAC rip (secure mode) | FLAC (tracks)+CUE+LOG -> 2.45 Gb | MP3 @320 -> 865 Mb
Full Artwork @ 600 dpi (jpg) -> 287 Mb | 5% repair rar
© 2008 Eyes Wide Shut Recordings | EWSR 002~006
Rock / Alternative / Indie Rock / Neo-Psychedelia

The Mission are finally calling it quits and have been doing a "Farewell Tour" of Europe. The tour culminates at London's Shepherds Bush Empire end of february 2008 with four nights in succession, each night promising to deliver an entire performance of one the band's first four albums in turn. There was released 5 discs from this 4 days event, one is a bonus disc. The Mission where playing an exclusive four-show event at the Shepherds Bush Empire in London UK between 27th February and 1st March. Each show sees the band dedicate an entire album (covering the band's first four albums 'First Chapter', God's Own Medicine', 'Children' and 'Carved in Sand') plus favourite tracks from that era for that show.
These stunning recordings include guest performances from Simon Hinkler, Miles Hunt (The Wonderstuff), Erica Nockalls and very special guest Mr George Allen.CD’s will be available exclusively online from the Mission's official merch company Sweetest Plum from April 14th.

This version from Eyes Wide Shut Recordings released in 2008:
EWSR 002 - The First Chapter performed 27.02.08
EWSR 003 - Gods Own Medicine performed 28.02.08
EWSR 004 - Children performed 29.02.08
EWSR 005 - Caved in Sand performed 01.03.08
EWSR 006 - Bonus Disc performed 01.03.08

Notes: This was sold as one Ltd. CD-Set. And the bonus CD was included.

Personnel:
Guitar - Mark Gemini Thwaite
Guests - Simon Hinkler
Guitar, Vocals - Wayne Hussey
Bass - Richard Vernon
Drums - Steve Spring

tracklist:
CD1 - The First Chapter - 27th February

01. Tomorrow Never Knows (3:05)
02. Serpent's Kiss (3:57)
03. Over The Hills And Far Away (4:18)
04. Naked And Savage (5:10)
05. Garden Of Delight (4:52)
06. Afterglow (6:57)
07. Wishing Well (2:39)
08. Wake (RSV) (5:10)
09. The Crystal Ocean (6:23)
10. Like A Hurricane (4:28)
11. 1969 (2:18)
12. Dancing Barefoot (4:56)
13. Beyond The Pale (4:29)
14. Shelter From The Storm (6:24)

The Mission - London Shepherds Bush Empire (2008) {5CD Set, Eyes Wide Shut Recordings Limited Edition EWSR 002~006}

The Mission - London Shepherds Bush Empire (2008) {5CD Set, Eyes Wide Shut Recordings Limited Edition EWSR 002~006}


CD2 - Gods Own Medicine - 28th February
01. Wasteland 4:27
02. Bridges Burning 4:05
03. And The Dance Goes On 4:31
04. Grip Of Disease 3:55
05. Dance On Glass 5:24
06. Stay With Me 4:38
07. Island In A Stream 5:20
08. Love Me To Death 5:55
09. Severina 4:41
10. Let Sleeping Dogs Die 5:37
11. Blood Brother 4:51
12. Deliverance 6:14
13. Garden Of Delight 4:13
14. Evangeline 4:32
15. Sacrilege 4:48

The Mission - London Shepherds Bush Empire (2008) {5CD Set, Eyes Wide Shut Recordings Limited Edition EWSR 002~006}

The Mission - London Shepherds Bush Empire (2008) {5CD Set, Eyes Wide Shut Recordings Limited Edition EWSR 002~006}


CD3 - Children - 29th February
01. Beyond The Pale (6:50)
02. A Wing And A Prayer (3:33)
03. Fabienne (4:00)
04. Divided We Fall (3:47)
05. Heat (4:50)
06. Heaven On Earth (4:49)
07. Dream On (4:46)
08. Like A Child Again (3:25)
09. Child's Play (3:41)
10. Hymn (For America) (4:16)
11. Forevermore (5:53)
12. Black Mountain Mist (3:53)
13. Breathe (1:58)
14. Kingdom Come (6:53)
15. Tower Of Strength (9:54)

The Mission - London Shepherds Bush Empire (2008) {5CD Set, Eyes Wide Shut Recordings Limited Edition EWSR 002~006}

The Mission - London Shepherds Bush Empire (2008) {5CD Set, Eyes Wide Shut Recordings Limited Edition EWSR 002~006}


CD4 - Carved In Sand - 1st March
01. Amelia (2:49)
02. Hands Across The Ocean (3:26)
03. Into The Blue (4:38)
04. Paradise (Will Shine Like The Moon Tonight) (3:27)
05. Butterfly On A Wheel (5:54)
06. Sea Of Love (5:21)
07. Grapes Of Wrath / Lovely (4:23)
08. Bird Of Passage (5:42)
09. Belief (6:45)
10. Hungry As The Hunter (4:49)
11. Deliverance (8:18)
12. Like A Child Again (3:40)
13. Mr. Pleasant (3:07)
14. Serpent's Kiss (5:12)
15. Wasteland (6:45)

The Mission - London Shepherds Bush Empire (2008) {5CD Set, Eyes Wide Shut Recordings Limited Edition EWSR 002~006}

The Mission - London Shepherds Bush Empire (2008) {5CD Set, Eyes Wide Shut Recordings Limited Edition EWSR 002~006}


CD5 - Bonus Disc - 1st March
01. Like A Hurricane (4:34)
02. Over The Hills And Far Away (4:07)
03. Bridges Burning (4:00)
04. Dance On Glass (5:23)
05. Stay With Me (4:49)
06. Island In A Stream (5:15)
07. Love Me To Death (6:26)
08. Dream On (4:35)
09. Fabienne (3:19)
10. Severina (3:46)
11. Wake (RSV) (5:13)
12. Forevermore (6:06)
13. 1969 (1:56)
14. Shelter From The Storm (7:00)
15. Tower Of Strength (10:04)

The Mission - London Shepherds Bush Empire (2008) {5CD Set, Eyes Wide Shut Recordings Limited Edition EWSR 002~006}

The Mission - London Shepherds Bush Empire (2008) {5CD Set, Eyes Wide Shut Recordings Limited Edition EWSR 002~006}


Exact Audio Copy V1.0 beta 3 from 29. August 2011

EAC extraction logfile from 16. October 2012, 16:58

The Mission / The First Chapter, London Shepherds Bush Empire

Used drive : ATAPI iHBS112 2 Adapter: 1 ID: 1

Read mode : Secure
Utilize accurate stream : Yes
Defeat audio cache : Yes
Make use of C2 pointers : No

Read offset correction : 6
Overread into Lead-In and Lead-Out : No
Fill up missing offset samples with silence : Yes
Delete leading and trailing silent blocks : No
Null samples used in CRC calculations : Yes
Used interface : Native Win32 interface for Win NT & 2000
Gap handling : Appended to previous track

Used output format : User Defined Encoder
Selected bitrate : 128 kBit/s
Quality : High
Add ID3 tag : No
Command line compressor : C:\Program Files (x86)\Exact Audio Copy\Flac\flac.exe
Additional command line options : -8 -V -T "ARTIST=%artist%" -T "TITLE=%title%" -T "ALBUM=%albumtitle%" -T "DATE=%year%" -T "TRACKNUMBER=%tracknr%" -T "TOTALTRACKS=%numtracks%" -T "GENRE=%genre%" -T "ALBUMARTIST=%albumartist%" -T "ALBUM ARTIST=%albumartist%" -T "COMMENT=EAC Secure Mode, Test & Copy, AccurateRip, FLAC -8" %source%


TOC of the extracted CD

Track | Start | Length | Start sector | End sector
––––––––––––––––––––––––––––-
1 | 0:00.00 | 3:05.36 | 0 | 13910
2 | 3:05.36 | 3:57.60 | 13911 | 31745
3 | 7:03.21 | 4:18.31 | 31746 | 51126
4 | 11:21.52 | 5:10.50 | 51127 | 74426
5 | 16:32.27 | 4:52.68 | 74427 | 96394
6 | 21:25.20 | 6:57.51 | 96395 | 127720
7 | 28:22.71 | 2:39.57 | 127721 | 139702
8 | 31:02.53 | 5:10.14 | 139703 | 162966
9 | 36:12.67 | 6:23.21 | 162967 | 191712
10 | 42:36.13 | 4:28.39 | 191713 | 211851
11 | 47:04.52 | 2:18.29 | 211852 | 222230
12 | 49:23.06 | 4:56.20 | 222231 | 244450
13 | 54:19.26 | 4:29.70 | 244451 | 264695
14 | 58:49.21 | 6:24.07 | 264696 | 293502


Track 1

Filename C:\00_Music\Garden\01 - Tomorrow Never Knows.wav

Pre-gap length 0:00:02.00

Peak level 95.1 %
Extraction speed 4.9 X
Track quality 100.0 %
Test CRC C6DAFBC4
Copy CRC C6DAFBC4
Accurately ripped (confidence 3) [6CDB510D] (AR v1)
Copy OK

Track 2

Filename C:\00_Music\Garden\02 - Serpent's Kiss.wav

Peak level 96.5 %
Extraction speed 5.6 X
Track quality 100.0 %
Test CRC 1DB744CE
Copy CRC 1DB744CE
Accurately ripped (confidence 3) [CC69A6E0] (AR v1)
Copy OK

Track 3

Filename C:\00_Music\Garden\03 - Over The Hills And Far Away.wav

Peak level 97.7 %
Extraction speed 6.2 X
Track quality 100.0 %
Test CRC 5649009E
Copy CRC 5649009E
Accurately ripped (confidence 3) [926F8285] (AR v1)
Copy OK

Track 4

Filename C:\00_Music\Garden\04 - Naked And Savage.wav

Peak level 96.5 %
Extraction speed 6.9 X
Track quality 100.0 %
Test CRC 258D5C09
Copy CRC 258D5C09
Accurately ripped (confidence 3) [3836AD37] (AR v1)
Copy OK

Track 5

Filename C:\00_Music\Garden\05 - Garden Of Delight.wav

Peak level 96.1 %
Extraction speed 7.4 X
Track quality 100.0 %
Test CRC 1A9C55B9
Copy CRC 1A9C55B9
Accurately ripped (confidence 3) [DD9D3627] (AR v1)
Copy OK

Track 6

Filename C:\00_Music\Garden\06 - Afterglow.wav

Peak level 96.2 %
Extraction speed 7.4 X
Track quality 99.9 %
Test CRC B7349D49
Copy CRC B7349D49
Accurately ripped (confidence 3) [7A24D6E6] (AR v1)
Copy OK

Track 7

Filename C:\00_Music\Garden\07 - Wishing Well.wav

Peak level 95.2 %
Extraction speed 7.7 X
Track quality 100.0 %
Test CRC 1C99A199
Copy CRC 1C99A199
Accurately ripped (confidence 3) [02679402] (AR v1)
Copy OK

Track 8

Filename C:\00_Music\Garden\08 - Wake (RSV).wav

Peak level 95.6 %
Extraction speed 8.8 X
Track quality 100.0 %
Test CRC FAFED701
Copy CRC FAFED701
Accurately ripped (confidence 3) [462C1E3D] (AR v1)
Copy OK

Track 9

Filename C:\00_Music\Garden\09 - The Crystal Ocean.wav

Peak level 96.9 %
Extraction speed 9.5 X
Track quality 100.0 %
Test CRC 7F6DDD24
Copy CRC 7F6DDD24
Accurately ripped (confidence 3) [55ECDFC9] (AR v1)
Copy OK

Track 10

Filename C:\00_Music\Garden\10 - Like A Hurricane.wav

Peak level 95.7 %
Extraction speed 9.6 X
Track quality 100.0 %
Test CRC 1D49F7C9
Copy CRC 1D49F7C9
Accurately ripped (confidence 3) [5EB0F991] (AR v1)
Copy OK

Track 11

Filename C:\00_Music\Garden\11 - 1969.wav

Peak level 98.4 %
Extraction speed 8.8 X
Track quality 100.0 %
Test CRC 2AA0DCB5
Copy CRC 2AA0DCB5
Accurately ripped (confidence 3) [FBE217B8] (AR v1)
Copy OK

Track 12

Filename C:\00_Music\Garden\12 - Dancing Barefoot.wav

Peak level 92.8 %
Extraction speed 10.2 X
Track quality 100.0 %
Test CRC 44023A9A
Copy CRC 44023A9A
Accurately ripped (confidence 3) [DFBCAECB] (AR v1)
Copy OK

Track 13

Filename C:\00_Music\Garden\13 - Beyond The Pale.wav

Peak level 95.7 %
Extraction speed 8.7 X
Track quality 99.9 %
Test CRC B47448F2
Copy CRC B47448F2
Accurately ripped (confidence 3) [6DC1FA2F] (AR v1)
Copy OK

Track 14

Filename C:\00_Music\Garden\14 - Shelter From The Storm.wav

Peak level 95.2 %
Extraction speed 11.2 X
Track quality 100.0 %
Test CRC 23A685E2
Copy CRC 23A685E2
Accurately ripped (confidence 2) [C4E6E877] (AR v1)
Copy OK


All tracks accurately ripped

No errors occurred

End of status report

==== Log checksum 829B22722FF0A0D37F3944EE8AE2FA73E9649A263FA456C4DBF1A55E102A2380 ====

Exact Audio Copy V1.0 beta 3 from 29. August 2011

EAC extraction logfile from 21. August 2012, 7:08

The Mission / God's Own Medicine, London Shepherds Bush Empire

Used drive : ATAPI iHBS112 2 Adapter: 1 ID: 1

Read mode : Secure
Utilize accurate stream : Yes
Defeat audio cache : Yes
Make use of C2 pointers : No

Read offset correction : 6
Overread into Lead-In and Lead-Out : No
Fill up missing offset samples with silence : Yes
Delete leading and trailing silent blocks : No
Null samples used in CRC calculations : Yes
Used interface : Native Win32 interface for Win NT & 2000
Gap handling : Appended to previous track

Used output format : User Defined Encoder
Selected bitrate : 128 kBit/s
Quality : High
Add ID3 tag : No
Command line compressor : C:\Program Files (x86)\Exact Audio Copy\Flac\flac.exe
Additional command line options : -8 -V -T "ARTIST=%artist%" -T "TITLE=%title%" -T "ALBUM=%albumtitle%" -T "DATE=%year%" -T "TRACKNUMBER=%tracknr%" -T "TOTALTRACKS=%numtracks%" -T "GENRE=%genre%" -T "ALBUMARTIST=%albumartist%" -T "ALBUM ARTIST=%albumartist%" -T "COMMENT=EAC Secure Mode, Test & Copy, AccurateRip, FLAC -8" %source%


TOC of the extracted CD

Track | Start | Length | Start sector | End sector
––––––––––––––––––––––––––––-
1 | 0:00.00 | 4:27.45 | 0 | 20069
2 | 4:27.45 | 4:05.50 | 20070 | 38494
3 | 8:33.20 | 4:31.37 | 38495 | 58856
4 | 13:04.57 | 3:55.28 | 58857 | 76509
5 | 17:00.10 | 5:24.27 | 76510 | 100836
6 | 22:24.37 | 4:38.36 | 100837 | 121722
7 | 27:02.73 | 5:20.60 | 121723 | 145782
8 | 32:23.58 | 5:55.09 | 145783 | 172416
9 | 38:18.67 | 4:41.25 | 172417 | 193516
10 | 43:00.17 | 5:37.67 | 193517 | 218858
11 | 48:38.09 | 4:51.05 | 218859 | 240688
12 | 53:29.14 | 6:14.62 | 240689 | 268800
13 | 59:44.01 | 4:13.12 | 268801 | 287787
14 | 63:57.13 | 4:32.63 | 287788 | 308250
15 | 68:30.01 | 4:48.16 | 308251 | 329866


Track 1

Filename C:\00_Music\Garden\01 - Wasteland.wav

Pre-gap length 0:00:02.00

Peak level 94.9 %
Extraction speed 4.8 X
Track quality 99.9 %
Test CRC 71D56CD3
Copy CRC 71D56CD3
Accurately ripped (confidence 3) [DCBDF8FE] (AR v1)
Copy OK

Track 2

Filename C:\00_Music\Garden\02 - Bridges Burning.wav

Peak level 97.6 %
Extraction speed 5.1 X
Track quality 99.9 %
Test CRC 2A659283
Copy CRC 2A659283
Accurately ripped (confidence 3) [0BFFD31D] (AR v1)
Copy OK

Track 3

Filename C:\00_Music\Garden\03 - And The Dance Goes On.wav

Peak level 96.0 %
Extraction speed 6.7 X
Track quality 100.0 %
Test CRC 18F14BD2
Copy CRC 18F14BD2
Accurately ripped (confidence 3) [742EEF3C] (AR v1)
Copy OK

Track 4

Filename C:\00_Music\Garden\04 - The Grip Of Disease.wav

Peak level 100.0 %
Extraction speed 5.9 X
Track quality 99.9 %
Test CRC ACC84695
Copy CRC ACC84695
Accurately ripped (confidence 3) [3713F7C7] (AR v1)
Copy OK

Track 5

Filename C:\00_Music\Garden\05 - Dance On Glass.wav

Peak level 94.8 %
Extraction speed 6.8 X
Track quality 99.9 %
Test CRC 731EFDBD
Copy CRC 731EFDBD
Accurately ripped (confidence 3) [A81ADB92] (AR v1)
Copy OK

Track 6

Filename C:\00_Music\Garden\06 - Stay With Me.wav

Peak level 97.0 %
Extraction speed 8.2 X
Track quality 100.0 %
Test CRC D8468777
Copy CRC D8468777
Accurately ripped (confidence 3) [A7F82DE4] (AR v1)
Copy OK

Track 7

Filename C:\00_Music\Garden\07 - Island In A Stream.wav

Peak level 97.4 %
Extraction speed 8.8 X
Track quality 100.0 %
Test CRC 733091C9
Copy CRC 733091C9
Accurately ripped (confidence 3) [A44337CF] (AR v1)
Copy OK

Track 8

Filename C:\00_Music\Garden\08 - Love Me To Death.wav

Peak level 96.1 %
Extraction speed 9.4 X
Track quality 100.0 %
Test CRC E8FE358A
Copy CRC E8FE358A
Accurately ripped (confidence 3) [EB7DDE76] (AR v1)
Copy OK

Track 9

Filename C:\00_Music\Garden\09 - Severina.wav

Peak level 97.8 %
Extraction speed 9.5 X
Track quality 100.0 %
Test CRC CA67EF2A
Copy CRC CA67EF2A
Accurately ripped (confidence 3) [C7C4BF67] (AR v1)
Copy OK

Track 10

Filename C:\00_Music\Garden\10 - Let Sleeping Dogs Die.wav

Peak level 96.0 %
Extraction speed 10.2 X
Track quality 100.0 %
Test CRC 85712A8E
Copy CRC 85712A8E
Accurately ripped (confidence 3) [BC6AD269] (AR v1)
Copy OK

Track 11

Filename C:\00_Music\Garden\11 - Blood Brother.wav

Peak level 97.2 %
Extraction speed 10.4 X
Track quality 100.0 %
Test CRC 7BFB0218
Copy CRC 7BFB0218
Accurately ripped (confidence 3) [2593A01F] (AR v1)
Copy OK

Track 12

Filename C:\00_Music\Garden\12 - Deliverance.wav

Peak level 96.4 %
Extraction speed 9.6 X
Track quality 99.9 %
Test CRC 42DD0F3F
Copy CRC 42DD0F3F
Accurately ripped (confidence 3) [D2177C5D] (AR v1)
Copy OK

Track 13

Filename C:\00_Music\Garden\13 - Garden Of Delight.wav

Peak level 93.1 %
Extraction speed 10.8 X
Track quality 100.0 %
Test CRC 323C6BAF
Copy CRC 323C6BAF
Accurately ripped (confidence 3) [48F1D3BD] (AR v1)
Copy OK

Track 14

Filename C:\00_Music\Garden\14 - Evangeline.wav

Peak level 94.7 %
Extraction speed 11.3 X
Track quality 100.0 %
Test CRC 19BBDAD3
Copy CRC 19BBDAD3
Accurately ripped (confidence 3) [C1F8D56B] (AR v1)
Copy OK

Track 15

Filename C:\00_Music\Garden\15 - Sacrilege.wav

Peak level 95.4 %
Extraction speed 11.6 X
Track quality 100.0 %
Test CRC B79982D8
Copy CRC B79982D8
Accurately ripped (confidence 3) [67DAB01F] (AR v1)
Copy OK


All tracks accurately ripped

No errors occurred

End of status report

==== Log checksum 387883E73C8E7DFCB21512F83107CEE7D1DB31ABF20BBC562E30CC311CCEF179 ====

Exact Audio Copy V1.0 beta 3 from 29. August 2011

EAC extraction logfile from 20. August 2012, 20:54

The Mission / Children, London Shepherds Bush Empire

Used drive : ATAPI iHBS112 2 Adapter: 1 ID: 1

Read mode : Secure
Utilize accurate stream : Yes
Defeat audio cache : Yes
Make use of C2 pointers : No

Read offset correction : 6
Overread into Lead-In and Lead-Out : No
Fill up missing offset samples with silence : Yes
Delete leading and trailing silent blocks : No
Null samples used in CRC calculations : Yes
Used interface : Native Win32 interface for Win NT & 2000
Gap handling : Appended to previous track

Used output format : User Defined Encoder
Selected bitrate : 128 kBit/s
Quality : High
Add ID3 tag : No
Command line compressor : C:\Program Files (x86)\Exact Audio Copy\Flac\flac.exe
Additional command line options : -8 -V -T "ARTIST=%artist%" -T "TITLE=%title%" -T "ALBUM=%albumtitle%" -T "DATE=%year%" -T "TRACKNUMBER=%tracknr%" -T "TOTALTRACKS=%numtracks%" -T "GENRE=%genre%" -T "ALBUMARTIST=%albumartist%" -T "ALBUM ARTIST=%albumartist%" -T "COMMENT=EAC Secure Mode, Test & Copy, AccurateRip, FLAC -8" %source%


TOC of the extracted CD

Track | Start | Length | Start sector | End sector
––––––––––––––––––––––––––––-
1 | 0:00.00 | 6:50.52 | 0 | 30801
2 | 6:50.52 | 3:33.41 | 30802 | 46817
3 | 10:24.18 | 4:00.42 | 46818 | 64859
4 | 14:24.60 | 3:47.41 | 64860 | 81925
5 | 18:12.26 | 4:50.21 | 81926 | 103696
6 | 23:02.47 | 4:49.20 | 103697 | 125391
7 | 27:51.67 | 4:46.64 | 125392 | 146905
8 | 32:38.56 | 3:25.33 | 146906 | 162313
9 | 36:04.14 | 3:41.51 | 162314 | 178939
10 | 39:45.65 | 4:16.27 | 178940 | 198166
11 | 44:02.17 | 5:53.42 | 198167 | 224683
12 | 49:55.59 | 3:53.03 | 224684 | 242161
13 | 53:48.62 | 1:58.08 | 242162 | 251019
14 | 55:46.70 | 6:53.19 | 251020 | 282013
15 | 62:40.14 | 9:54.72 | 282014 | 326635


Track 1

Filename C:\00_Music\Garden\01 - Beyond The Pale.wav

Pre-gap length 0:00:02.00

Peak level 97.4 %
Extraction speed 5.3 X
Track quality 99.9 %
Test CRC 3DE50ED4
Copy CRC 3DE50ED4
Accurately ripped (confidence 3) [09BB2976] (AR v1)
Copy OK

Track 2

Filename C:\00_Music\Garden\02 - A Wing And A Prayer.wav

Peak level 95.3 %
Extraction speed 6.2 X
Track quality 100.0 %
Test CRC E12F8F93
Copy CRC E12F8F93
Accurately ripped (confidence 3) [72851310] (AR v1)
Copy OK

Track 3

Filename C:\00_Music\Garden\03 - Fabienne.wav

Peak level 97.2 %
Extraction speed 6.7 X
Track quality 100.0 %
Test CRC 9E67C20C
Copy CRC 9E67C20C
Accurately ripped (confidence 3) [B2CD99B6] (AR v1)
Copy OK

Track 4

Filename C:\00_Music\Garden\04 - Divided We Fall.wav

Peak level 95.4 %
Extraction speed 7.1 X
Track quality 100.0 %
Test CRC F2AB35E2
Copy CRC F2AB35E2
Accurately ripped (confidence 3) [83B62778] (AR v1)
Copy OK

Track 5

Filename C:\00_Music\Garden\05 - Heat.wav

Peak level 95.4 %
Extraction speed 7.8 X
Track quality 100.0 %
Test CRC 192C5A62
Copy CRC 192C5A62
Accurately ripped (confidence 3) [E9EE91E7] (AR v1)
Copy OK

Track 6

Filename C:\00_Music\Garden\06 - Heaven On Earth.wav

Peak level 99.5 %
Extraction speed 8.2 X
Track quality 100.0 %
Test CRC A0D044E7
Copy CRC A0D044E7
Accurately ripped (confidence 3) [6879C69A] (AR v1)
Copy OK

Track 7

Filename C:\00_Music\Garden\07 - Dream On.wav

Peak level 95.9 %
Extraction speed 7.3 X
Track quality 99.9 %
Test CRC 38C26CB3
Copy CRC 38C26CB3
Accurately ripped (confidence 3) [D7EE0B90] (AR v1)
Copy OK

Track 8

Filename C:\00_Music\Garden\08 - Like A Child Again.wav

Peak level 95.1 %
Extraction speed 8.6 X
Track quality 100.0 %
Test CRC 2F70BCEB
Copy CRC 2F70BCEB
Accurately ripped (confidence 3) [73C9C6CB] (AR v1)
Copy OK

Track 9

Filename C:\00_Music\Garden\09 - Child's Play.wav

Peak level 95.2 %
Extraction speed 8.9 X
Track quality 100.0 %
Test CRC 7C850319
Copy CRC 7C850319
Accurately ripped (confidence 3) [4CD7CBD7] (AR v1)
Copy OK

Track 10

Filename C:\00_Music\Garden\10 - Hymn (For America).wav

Peak level 98.0 %
Extraction speed 9.5 X
Track quality 100.0 %
Test CRC CEF8A8EF
Copy CRC CEF8A8EF
Accurately ripped (confidence 3) [2C91ECEC] (AR v1)
Copy OK

Track 11

Filename C:\00_Music\Garden\11 - Forevermore.wav

Peak level 95.4 %
Extraction speed 8.9 X
Track quality 99.9 %
Test CRC 20490845
Copy CRC 20490845
Accurately ripped (confidence 3) [A7C79106] (AR v1)
Copy OK

Track 12

Filename C:\00_Music\Garden\12 - Black Mountain Mist.wav

Peak level 92.7 %
Extraction speed 8.2 X
Track quality 99.9 %
Test CRC 7A6F6B75
Copy CRC 7A6F6B75
Accurately ripped (confidence 3) [732A4BF7] (AR v1)
Copy OK

Track 13

Filename C:\00_Music\Garden\13 - Breathe.wav

Peak level 93.4 %
Extraction speed 9.1 X
Track quality 100.0 %
Test CRC C2A070E7
Copy CRC C2A070E7
Accurately ripped (confidence 3) [ACAE9247] (AR v1)
Copy OK

Track 14

Filename C:\00_Music\Garden\14 - Kindom Come.wav

Peak level 95.3 %
Extraction speed 11.2 X
Track quality 100.0 %
Test CRC A956BFB7
Copy CRC A956BFB7
Accurately ripped (confidence 3) [47D90035] (AR v1)
Copy OK

Track 15

Filename C:\00_Music\Garden\15 - Tower Of Strength.wav

Peak level 96.5 %
Extraction speed 11.0 X
Track quality 99.9 %
Test CRC 71E46BED
Copy CRC 71E46BED
Accurately ripped (confidence 3) [E09977A5] (AR v1)
Copy OK


All tracks accurately ripped

No errors occurred

End of status report

==== Log checksum C920A6CD6FCA6D20B97D11B5F1C0C9C302FE6F47BD2354EBA4EED2A2B2DD16F9 ====

Exact Audio Copy V1.0 beta 3 from 29. August 2011

EAC extraction logfile from 20. August 2012, 21:37

The Mission / Carved In Sand, London Shepherds Bush Empire

Used drive : ATAPI iHBS112 2 Adapter: 1 ID: 1

Read mode : Secure
Utilize accurate stream : Yes
Defeat audio cache : Yes
Make use of C2 pointers : No

Read offset correction : 6
Overread into Lead-In and Lead-Out : No
Fill up missing offset samples with silence : Yes
Delete leading and trailing silent blocks : No
Null samples used in CRC calculations : Yes
Used interface : Native Win32 interface for Win NT & 2000
Gap handling : Appended to previous track

Used output format : User Defined Encoder
Selected bitrate : 128 kBit/s
Quality : High
Add ID3 tag : No
Command line compressor : C:\Program Files (x86)\Exact Audio Copy\Flac\flac.exe
Additional command line options : -8 -V -T "ARTIST=%artist%" -T "TITLE=%title%" -T "ALBUM=%albumtitle%" -T "DATE=%year%" -T "TRACKNUMBER=%tracknr%" -T "TOTALTRACKS=%numtracks%" -T "GENRE=%genre%" -T "ALBUMARTIST=%albumartist%" -T "ALBUM ARTIST=%albumartist%" -T "COMMENT=EAC Secure Mode, Test & Copy, AccurateRip, FLAC -8" %source%


TOC of the extracted CD

Track | Start | Length | Start sector | End sector
––––––––––––––––––––––––––––-
1 | 0:00.00 | 2:49.38 | 0 | 12712
2 | 2:49.38 | 3:26.29 | 12713 | 28191
3 | 6:15.67 | 4:38.01 | 28192 | 49042
4 | 10:53.68 | 3:27.70 | 49043 | 64637
5 | 14:21.63 | 5:54.74 | 64638 | 91261
6 | 20:16.62 | 5:21.71 | 91262 | 115407
7 | 25:38.58 | 4:23.26 | 115408 | 135158
8 | 30:02.09 | 5:42.24 | 135159 | 160832
9 | 35:44.33 | 6:45.66 | 160833 | 191273
10 | 42:30.24 | 4:49.34 | 191274 | 212982
11 | 47:19.58 | 8:18.42 | 212983 | 250374
12 | 55:38.25 | 3:40.60 | 250375 | 266934
13 | 59:19.10 | 3:07.27 | 266935 | 280986
14 | 62:26.37 | 5:12.58 | 280987 | 304444
15 | 67:39.20 | 6:45.35 | 304445 | 334854


Track 1

Filename C:\00_Music\Garden\01 - Amelia.wav

Pre-gap length 0:00:02.00

Peak level 96.1 %
Extraction speed 3.5 X
Track quality 100.0 %
Test CRC 95BC89CE
Copy CRC 95BC89CE
Accurately ripped (confidence 3) [E0F8FF8D] (AR v1)
Copy OK

Track 2

Filename C:\00_Music\Garden\02 - Hands Across The Ocean.wav

Peak level 95.8 %
Extraction speed 3.9 X
Track quality 100.0 %
Test CRC A9F704E3
Copy CRC A9F704E3
Accurately ripped (confidence 3) [A590A35D] (AR v1)
Copy OK

Track 3

Filename C:\00_Music\Garden\03 - Into The Blue.wav

Peak level 94.7 %
Extraction speed 4.4 X
Track quality 100.0 %
Test CRC FF279B52
Copy CRC FF279B52
Accurately ripped (confidence 3) [BAA79AEF] (AR v1)
Copy OK

Track 4

Filename C:\00_Music\Garden\04 - Paradise (Will Shine Like The Moon Tonight).wav

Peak level 95.3 %
Extraction speed 4.6 X
Track quality 100.0 %
Test CRC F11FE666
Copy CRC F11FE666
Accurately ripped (confidence 3) [DE4ED287] (AR v1)
Copy OK

Track 5

Filename C:\00_Music\Garden\05 - Butterfly On A Wheel.wav

Peak level 98.0 %
Extraction speed 5.2 X
Track quality 100.0 %
Test CRC CB6E5E07
Copy CRC CB6E5E07
Accurately ripped (confidence 3) [801BE783] (AR v1)
Copy OK

Track 6

Filename C:\00_Music\Garden\06 - Sea Of Love.wav

Peak level 94.7 %
Extraction speed 5.6 X
Track quality 100.0 %
Test CRC 95941D13
Copy CRC 95941D13
Accurately ripped (confidence 3) [3725C8DD] (AR v1)
Copy OK

Track 7

Filename C:\00_Music\Garden\07 - Grapes Of Wrath Lovely.wav

Peak level 92.0 %
Extraction speed 5.8 X
Track quality 100.0 %
Test CRC CE111C1A
Copy CRC CE111C1A
Accurately ripped (confidence 3) [5B8AA56A] (AR v1)
Copy OK

Track 8

Filename C:\00_Music\Garden\08 - Bird Of Passage.wav

Peak level 94.8 %
Extraction speed 6.2 X
Track quality 100.0 %
Test CRC 6C51FA9F
Copy CRC 6C51FA9F
Accurately ripped (confidence 3) [ADFF57BA] (AR v1)
Copy OK

Track 9

Filename C:\00_Music\Garden\09 - Belief.wav

Peak level 95.2 %
Extraction speed 6.7 X
Track quality 100.0 %
Test CRC 2BB37625
Copy CRC 2BB37625
Accurately ripped (confidence 3) [AC0A0D46] (AR v1)
Copy OK

Track 10

Filename C:\00_Music\Garden\10 - Hungry As The Hunter.wav

Peak level 96.3 %
Extraction speed 6.8 X
Track quality 100.0 %
Test CRC AC3EE0DB
Copy CRC AC3EE0DB
Accurately ripped (confidence 3) [D1D45562] (AR v1)
Copy OK

Track 11

Filename C:\00_Music\Garden\11 - Deliverance.wav

Peak level 95.8 %
Extraction speed 7.5 X
Track quality 100.0 %
Test CRC 8B6A6879
Copy CRC 8B6A6879
Accurately ripped (confidence 3) [6EB3F3BA] (AR v1)
Copy OK

Track 12

Filename C:\00_Music\Garden\12 - Like A Child Again.wav

Peak level 99.9 %
Extraction speed 7.1 X
Track quality 100.0 %
Test CRC F6222C29
Copy CRC F6222C29
Accurately ripped (confidence 3) [7D5FA041] (AR v1)
Copy OK

Track 13

Filename C:\00_Music\Garden\13 - Mr Pleasant.wav

Peak level 99.6 %
Extraction speed 7.1 X
Track quality 100.0 %
Test CRC 5A14F290
Copy CRC 5A14F290
Accurately ripped (confidence 3) [CFD41563] (AR v1)
Copy OK

Track 14

Filename C:\00_Music\Garden\14 - Serpent's Kiss.wav

Peak level 96.7 %
Extraction speed 7.8 X
Track quality 100.0 %
Test CRC 17E6F123
Copy CRC 17E6F123
Accurately ripped (confidence 3) [B8BB5663] (AR v1)
Copy OK

Track 15

Filename C:\00_Music\Garden\15 - Wasteland.wav

Peak level 95.4 %
Extraction speed 8.3 X
Track quality 100.0 %
Test CRC 5C986FA6
Copy CRC 5C986FA6
Accurately ripped (confidence 3) [B2F20104] (AR v1)
Copy OK


All tracks accurately ripped

No errors occurred

End of status report

==== Log checksum F314B7F2B7CA1A31B621F6D2C138FF278C43A2CA6DF112FD113E4EDA5D31908C ====

Exact Audio Copy V1.0 beta 3 from 29. August 2011

EAC extraction logfile from 16. October 2012, 17:45

The Mission / Bonus CD, London Shepherds Bush Empire

Used drive : ATAPI iHBS112 2 Adapter: 1 ID: 1

Read mode : Secure
Utilize accurate stream : Yes
Defeat audio cache : Yes
Make use of C2 pointers : No

Read offset correction : 6
Overread into Lead-In and Lead-Out : No
Fill up missing offset samples with silence : Yes
Delete leading and trailing silent blocks : No
Null samples used in CRC calculations : Yes
Used interface : Native Win32 interface for Win NT & 2000
Gap handling : Appended to previous track

Used output format : User Defined Encoder
Selected bitrate : 128 kBit/s
Quality : High
Add ID3 tag : No
Command line compressor : C:\Program Files (x86)\Exact Audio Copy\Flac\flac.exe
Additional command line options : -8 -V -T "ARTIST=%artist%" -T "TITLE=%title%" -T "ALBUM=%albumtitle%" -T "DATE=%year%" -T "TRACKNUMBER=%tracknr%" -T "TOTALTRACKS=%numtracks%" -T "GENRE=%genre%" -T "ALBUMARTIST=%albumartist%" -T "ALBUM ARTIST=%albumartist%" -T "COMMENT=EAC Secure Mode, Test & Copy, AccurateRip, FLAC -8" %source%


TOC of the extracted CD

Track | Start | Length | Start sector | End sector
––––––––––––––––––––––––––––-
1 | 0:00.00 | 4:34.33 | 0 | 20582
2 | 4:34.33 | 4:07.09 | 20583 | 39116
3 | 8:41.42 | 4:00.36 | 39117 | 57152
4 | 12:42.03 | 5:23.74 | 57153 | 81451
5 | 18:06.02 | 4:49.31 | 81452 | 103157
6 | 22:55.33 | 5:15.05 | 103158 | 126787
7 | 28:10.38 | 6:26.04 | 126788 | 155741
8 | 34:36.42 | 4:35.24 | 155742 | 176390
9 | 39:11.66 | 3:19.71 | 176391 | 191386
10 | 42:31.62 | 3:46.51 | 191387 | 208387
11 | 46:18.38 | 5:13.15 | 208388 | 231877
12 | 51:31.53 | 6:06.22 | 231878 | 259349
13 | 57:38.00 | 1:56.72 | 259350 | 268121
14 | 59:34.72 | 7:00.53 | 268122 | 299674
15 | 66:35.50 | 10:04.14 | 299675 | 344988


Track 1

Filename C:\00_Music\Garden\01 - Like A Hurricane.wav

Pre-gap length 0:00:02.00

Peak level 96.3 %
Extraction speed 5.9 X
Track quality 100.0 %
Test CRC D8D502F8
Copy CRC D8D502F8
Accurately ripped (confidence 2) [B4D43F4E] (AR v1)
Copy OK

Track 2

Filename C:\00_Music\Garden\02 - Over The Hills And Far Away.wav

Peak level 97.0 %
Extraction speed 6.4 X
Track quality 100.0 %
Test CRC F613C04D
Copy CRC F613C04D
Accurately ripped (confidence 2) [5A673931] (AR v1)
Copy OK

Track 3

Filename C:\00_Music\Garden\03 - Bridges Burning.wav

Peak level 95.4 %
Extraction speed 6.8 X
Track quality 100.0 %
Test CRC 1FA18C4E
Copy CRC 1FA18C4E
Accurately ripped (confidence 2) [4CE61A5B] (AR v1)
Copy OK

Track 4

Filename C:\00_Music\Garden\04 - Dance On Glass.wav

Peak level 96.1 %
Extraction speed 7.6 X
Track quality 100.0 %
Test CRC 222920CD
Copy CRC 222920CD
Accurately ripped (confidence 2) [63D570DA] (AR v1)
Copy OK

Track 5

Filename C:\00_Music\Garden\05 - Stay With Me.wav

Peak level 96.5 %
Extraction speed 8.1 X
Track quality 100.0 %
Test CRC 02B5EF33
Copy CRC 02B5EF33
Accurately ripped (confidence 2) [C4F335C5] (AR v1)
Copy OK

Track 6

Filename C:\00_Music\Garden\06 - Island In A Stream.wav

Peak level 98.1 %
Extraction speed 7.4 X
Track quality 99.9 %
Test CRC 9C0AE43A
Copy CRC 9C0AE43A
Accurately ripped (confidence 2) [5A1A3D1C] (AR v1)
Copy OK

Track 7

Filename C:\00_Music\Garden\07 - Love Me To Death.wav

Peak level 100.0 %
Extraction speed 9.3 X
Track quality 100.0 %
Test CRC 4E14265B
Copy CRC 4E14265B
Accurately ripped (confidence 2) [E37CCC62] (AR v1)
Copy OK

Track 8

Filename C:\00_Music\Garden\08 - Dream On.wav

Peak level 95.3 %
Extraction speed 9.5 X
Track quality 100.0 %
Test CRC D0C79EAE
Copy CRC D0C79EAE
Accurately ripped (confidence 2) [BFAD408E] (AR v1)
Copy OK

Track 9

Filename C:\00_Music\Garden\09 - Fabienne.wav

Peak level 96.8 %
Extraction speed 9.3 X
Track quality 100.0 %
Test CRC 8FC576B6
Copy CRC 8FC576B6
Accurately ripped (confidence 2) [A97EE3C0] (AR v1)
Copy OK

Track 10

Filename C:\00_Music\Garden\10 - Severina.wav

Peak level 95.5 %
Extraction speed 9.8 X
Track quality 100.0 %
Test CRC ABF1ACBD
Copy CRC ABF1ACBD
Accurately ripped (confidence 2) [232807EC] (AR v1)
Copy OK

Track 11

Filename C:\00_Music\Garden\11 - Wake (RSV).wav

Peak level 96.7 %
Extraction speed 10.5 X
Track quality 100.0 %
Test CRC 933848F2
Copy CRC 933848F2
Accurately ripped (confidence 2) [4CA53DF3] (AR v1)
Copy OK

Track 12

Filename C:\00_Music\Garden\12 - Forevermore.wav

Peak level 95.2 %
Extraction speed 11.1 X
Track quality 100.0 %
Test CRC 303AF93D
Copy CRC 303AF93D
Accurately ripped (confidence 2) [63EB8688] (AR v1)
Copy OK

Track 13

Filename C:\00_Music\Garden\13 - 1969.wav

Peak level 97.1 %
Extraction speed 9.5 X
Track quality 100.0 %
Test CRC B7CC4FE6
Copy CRC B7CC4FE6
Accurately ripped (confidence 2) [DC530751] (AR v1)
Copy OK

Track 14

Filename C:\00_Music\Garden\14 - Shelter From The Storm.wav

Peak level 94.8 %
Extraction speed 11.9 X
Track quality 100.0 %
Test CRC BD7633FC
Copy CRC BD7633FC
Accurately ripped (confidence 3) [BE546FB5] (AR v1)
Copy OK

Track 15

Filename C:\00_Music\Garden\15 - Tower Of Strength.wav

Peak level 98.6 %
Extraction speed 12.7 X
Track quality 100.0 %
Test CRC 2FFB79CD
Copy CRC 2FFB79CD
Accurately ripped (confidence 3) [8A780079] (AR v1)
Copy OK


All tracks accurately ripped

No errors occurred

End of status report

==== Log checksum DCD9E91010249CAA6A4A904F9BAE1D78AFD63C2248613E0F93C7ABE713AFE974 ====


The Mission - London Shepherds Bush Empire (2008) {5CD Set, Eyes Wide Shut Recordings Limited Edition EWSR 002~006}



===