Subcategories

Molly Hatchet - The Deed Is Done (1984)

Posted By: Domestos
Molly Hatchet - The Deed Is Done (1984)

Molly Hatchet - The Deed Is Done (1984)
EAC Rip | FLAC (tracks+.cue, log) ~ 267.39 Mb | 40:54 | Cover
Hard Rock, Southern Rock | Country: USA | Label: Epic - 471965 2

The Deed Is Done is the sixth studio album by American southern rock band Molly Hatchet, released in 1984. This is the first Molly Hatchet album with only two guitarists, after Steve Holland had been replaced by ex-Danny Joe Brown Band keyboard player John Galvin and the return of drummer Bruce Crump. The sound of the album is quite different from the southern rock of the band's earlier offerings, completing the transition towards more commercial and FM-friendly hard rock. This album was reissued in 2013 under the German label SPV/SteamHammer.

Track List:
01. Satisfied Man
02. Backstabber
03. She Does She Does
04. Intro Piece
05. Stone In Your Heart
06. Man On The Run
07. Good Smoke And Whiskey
08. Heartbreak Radio
09. I Ain't Got You
10. Straight Shooter
11. Song For The Children

Exact Audio Copy V1.3 from 2. September 2016

EAC extraction logfile from 11. December 2017, 17:34

Molly Hatchet / The Deed Is Done

Used drive : HL-DT-STDVDRAM GH22NS40 Adapter: 1 ID: 0

Read mode : Secure
Utilize accurate stream : Yes
Defeat audio cache : Yes
Make use of C2 pointers : No

Read offset correction : 667
Overread into Lead-In and Lead-Out : No
Fill up missing offset samples with silence : Yes
Delete leading and trailing silent blocks : No
Null samples used in CRC calculations : Yes
Used interface : Native Win32 interface for Win NT & 2000
Gap handling : Appended to previous track

Used output format : User Defined Encoder
Selected bitrate : 896 kBit/s
Quality : High
Add ID3 tag : No
Command line compressor : C:\Program Files\Exact Audio Copy\Flac\flac.exe
Additional command line options : -8 -V -T "ARTIST=%artist%" -T "TITLE=%title%" -T "ALBUM=%albumtitle%" -T "DATE=%year%" -T "TRACKNUMBER=%tracknr%" -T "TOTALTRACKS=%numtracks%" -T "GENRE=%genre%" -T "COMMENT=EAC Secure Mode, Test & Copy, AccurateRip, FLAC -8" %source%

TOC of the extracted CD

Track | Start | Length | Start sector | End sector
––––––––––––––––––––––––––––-
1 | 0:00.00 | 5:01.22 | 0 | 22596
2 | 5:01.22 | 4:17.63 | 22597 | 41934
3 | 9:19.10 | 6:14.70 | 41935 | 70054
4 | 15:34.05 | 1:15.70 | 70055 | 75749
5 | 16:50.00 | 4:18.00 | 75750 | 95099
6 | 21:08.00 | 4:14.27 | 95100 | 114176
7 | 25:22.27 | 3:37.33 | 114177 | 130484
8 | 28:59.60 | 3:31.65 | 130485 | 146374
9 | 32:31.50 | 2:32.62 | 146375 | 157836
10 | 35:04.37 | 3:54.58 | 157837 | 175444
11 | 38:59.20 | 2:32.45 | 175445 | 186889

Track 1

Filename I:\Rips\Molly Hatchet - The Deed Is Done (1984) [FLAC]\01 - Satisfied Man.wav

Pre-gap length 0:00:02.00

Peak level 99.9 %
Extraction speed 3.6 X
Track quality 100.0 %
Test CRC 0084A2A1
Copy CRC 0084A2A1
Accurately ripped (confidence 6) [2CA3C962] (AR v2)
Copy OK

Track 2

Filename I:\Rips\Molly Hatchet - The Deed Is Done (1984) [FLAC]\02 - Backstabber.wav

Pre-gap length 0:00:01.67

Peak level 93.3 %
Extraction speed 4.0 X
Track quality 100.0 %
Test CRC 677A28DB
Copy CRC 677A28DB
Accurately ripped (confidence 6) [2922C0D7] (AR v2)
Copy OK

Track 3

Filename I:\Rips\Molly Hatchet - The Deed Is Done (1984) [FLAC]\03 - She Does She Does.wav

Pre-gap length 0:00:04.50

Peak level 98.0 %
Extraction speed 4.7 X
Track quality 100.0 %
Test CRC 708A93AA
Copy CRC 708A93AA
Accurately ripped (confidence 6) [D1A1F390] (AR v2)
Copy OK

Track 4

Filename I:\Rips\Molly Hatchet - The Deed Is Done (1984) [FLAC]\04 - Intro Piece.wav

Pre-gap length 0:00:06.73

Peak level 41.1 %
Extraction speed 3.4 X
Track quality 100.0 %
Test CRC 6B6EE239
Copy CRC 6B6EE239
Accurately ripped (confidence 6) [AAE4172F] (AR v2)
Copy OK

Track 5

Filename I:\Rips\Molly Hatchet - The Deed Is Done (1984) [FLAC]\05 - Stone In Your Heart.wav

Peak level 97.6 %
Extraction speed 4.9 X
Track quality 100.0 %
Test CRC DF0E91FB
Copy CRC DF0E91FB
Accurately ripped (confidence 6) [5623129A] (AR v2)
Copy OK

Track 6

Filename I:\Rips\Molly Hatchet - The Deed Is Done (1984) [FLAC]\06 - Man On The Run.wav

Pre-gap length 0:00:03.15

Peak level 100.0 %
Extraction speed 5.2 X
Track quality 100.0 %
Test CRC 98696466
Copy CRC 98696466
Accurately ripped (confidence 6) [33B27711] (AR v2)
Copy OK

Track 7

Filename I:\Rips\Molly Hatchet - The Deed Is Done (1984) [FLAC]\07 - Good Smoke And Whiskey.wav

Pre-gap length 0:00:03.05

Peak level 90.1 %
Extraction speed 4.2 X
Track quality 99.9 %
Test CRC 544D08E4
Copy CRC 544D08E4
Accurately ripped (confidence 6) [ED0717D2] (AR v2)
Copy OK

Track 8

Filename I:\Rips\Molly Hatchet - The Deed Is Done (1984) [FLAC]\08 - Heartbreak Radio.wav

Pre-gap length 0:00:02.73

Peak level 95.5 %
Extraction speed 5.5 X
Track quality 100.0 %
Test CRC 0BA74A73
Copy CRC 0BA74A73
Accurately ripped (confidence 6) [8EDA7CA3] (AR v2)
Copy OK

Track 9

Filename I:\Rips\Molly Hatchet - The Deed Is Done (1984) [FLAC]\09 - I Ain't Got You.wav

Pre-gap length 0:00:04.18

Peak level 95.5 %
Extraction speed 5.4 X
Track quality 100.0 %
Test CRC 18D17B96
Copy CRC 18D17B96
Accurately ripped (confidence 6) [9FAF3FED] (AR v2)
Copy OK

Track 10

Filename I:\Rips\Molly Hatchet - The Deed Is Done (1984) [FLAC]\10 - Straight Shooter.wav

Pre-gap length 0:00:02.25

Peak level 93.6 %
Extraction speed 5.9 X
Track quality 100.0 %
Test CRC 45D32F5D
Copy CRC 45D32F5D
Accurately ripped (confidence 6) [6155182E] (AR v2)
Copy OK

Track 11

Filename I:\Rips\Molly Hatchet - The Deed Is Done (1984) [FLAC]\11 - Song For The Children.wav

Pre-gap length 0:00:08.25

Peak level 31.5 %
Extraction speed 5.7 X
Track quality 100.0 %
Test CRC 092AFD73
Copy CRC 092AFD73
Accurately ripped (confidence 6) [BB86D7A1] (AR v2)
Copy OK

All tracks accurately ripped

No errors occurred

End of status report

–– CUETools DB Plugin V2.1.6

[CTDB TOCID: Et_NVp7FbvQmJEC0mZHHY5p4vRM-] found
Submit result: already submitted
Track | CTDB Status
1 | (20/20) Accurately ripped
2 | (20/20) Accurately ripped
3 | (20/20) Accurately ripped
4 | (20/20) Accurately ripped
5 | (20/20) Accurately ripped
6 | (20/20) Accurately ripped
7 | (19/20) Accurately ripped
8 | (20/20) Accurately ripped
9 | (20/20) Accurately ripped
10 | (20/20) Accurately ripped
11 | (20/20) Accurately ripped

==== Log checksum 2C9442AEB34863217A76643DAF36E20B75AF3D86F676AD4D389C472929836FA9 ====

All thanks go to the powermet

More Music in My Blog
Follow My RSS Channel