Subcategories

VA - Monster Booty: Platinum BADONKADONK Edition (2CD) (2007) {Razor & Tie} **[RE-UP]**

Posted By: TestTickles
VA - Monster Booty: Platinum BADONKADONK Edition (2CD) (2007) {Razor & Tie} **[RE-UP]**

VA - Monster Booty: Platinum BADONKADONK Edition (2CD) (2007) {Razor & Tie}
EAC Rip | FLAC with CUE and log | scans | 914 mb
MP3 @ 320kbps | RAR | 308 mb
Genre: rap, hip-hop, R&B, dance

This is a collection of songs referring to the female rear-end, created with songs from the rap, hip-hop, R&B, and dance genres of the 1990's. If you like to wiggle it, jiggle it, finger it, or just admire from afar, this is for you. Both discs, which were sold individually, are downloadable as one file with the FLAC file in two parts. While the cover and songs are sexual in tone, all of the songs are "radio friendly"/clean mixes.

VA - Monster Booty: Platinum BADONKADONK Edition (2CD) (2007) {Razor & Tie} **[RE-UP]**

Monster Booty: Platinum BADONKADONK Edition (Disc 1)

VA - Monster Booty: Platinum BADONKADONK Edition (2CD) (2007) {Razor & Tie} **[RE-UP]**

01. Sir Mix-A-Lot - Baby Got Back
02. Wreckx-N-Effect - Rump Shaker
03. Tag Team - Whoomp! There It Is
04. Dulce - Dazzey Duks
05. Mystikal - Shake It Fast
06. 69 Boyz - Tootsee Roll
07. 2 Live Crew - Me So Horny
08. Digital Underground - The Humpty Dance
09. Khia - My Neck. My Back (Lick It)
10. Salt-N-Pepa - Shake Your Thang
11. Sisqo - Thong Song
12. Freak Nasty - Da' Dip
13. Hammer - Pumps And A Bump
14. Adina Howard - Freak Like Me
15. Tone Loc - Wild Thing
16. BLACKstreet - Booti Call
17. 2 In A Room - Wiggle It
18. E.U. - Da' Butt

VA - Monster Booty: Platinum BADONKADONK Edition (2CD) (2007) {Razor & Tie} **[RE-UP]**


=====

VA - Monster Booty: Platinum BADONKADONK Edition (2CD) (2007) {Razor & Tie} **[RE-UP]**

Monster Booty: Platinum BADONKADONK Edition (Disc 2)

VA - Monster Booty: Platinum BADONKADONK Edition (2CD) (2007) {Razor & Tie} **[RE-UP]**

01. Mad Cobra - Flex
02. A Tribe Called Quest - Da Booty
03. Patra - Pull Up To The Bumper
04. Kevin Lyttle - Turn Me On
05. Shaggy - Boombastic
06. Bell Biv DeVoe - Do Me!
07. Naughty By Nature - O.P.P.
08. Trina featuring Trick Daddy - Pull Over
09. Kyper - Tic Tac To
10. Silk - Freak Me
11. Candyman - Knockin' Boots
12. K7 - Come Baby Come
13. Luke - I Wanna Rock
14. Quad City DJ's - C'mon N' Ride It (The Train)

VA - Monster Booty: Platinum BADONKADONK Edition (2CD) (2007) {Razor & Tie} **[RE-UP]**


Exact Audio Copy V1.1 from 23. June 2015

EAC extraction logfile from 8. February 2016, 6:26

Unknown Artist / Monster Booty: Platinum Badonkadonk Edition (Disc 1)

Used drive : TEAC DVD-ROM DV-28SW Adapter: 1 ID: 0

Read mode : Secure
Utilize accurate stream : Yes
Defeat audio cache : Yes
Make use of C2 pointers : No

Read offset correction : 6
Overread into Lead-In and Lead-Out : No
Fill up missing offset samples with silence : Yes
Delete leading and trailing silent blocks : No
Null samples used in CRC calculations : Yes
Used interface : Native Win32 interface for Win NT & 2000
Gap handling : Left out

Used output format : Internal WAV Routines
Sample format : 44.100 Hz; 16 Bit; Stereo


TOC of the extracted CD

Track | Start | Length | Start sector | End sector
––––––––––––––––––––––––––––-
1 | 0:00.00 | 4:21.67 | 0 | 19641
2 | 4:21.67 | 4:59.65 | 19642 | 42131
3 | 9:21.57 | 3:56.20 | 42132 | 59851
4 | 13:18.02 | 4:00.13 | 59852 | 77864
5 | 17:18.15 | 4:15.00 | 77865 | 96989
6 | 21:33.15 | 4:20.15 | 96990 | 116504
7 | 25:53.30 | 4:26.45 | 116505 | 136499
8 | 30:20.00 | 4:40.10 | 136500 | 157509
9 | 35:00.10 | 3:43.67 | 157510 | 174301
10 | 38:44.02 | 4:01.25 | 174302 | 192401
11 | 42:45.27 | 4:11.08 | 192402 | 211234
12 | 46:56.35 | 3:41.70 | 211235 | 227879
13 | 50:38.30 | 4:21.10 | 227880 | 247464
14 | 54:59.40 | 4:11.47 | 247465 | 266336
15 | 59:11.12 | 4:24.45 | 266337 | 286181
16 | 63:35.57 | 4:27.45 | 286182 | 306251
17 | 68:03.27 | 4:05.10 | 306252 | 324636
18 | 72:08.37 | 3:54.30 | 324637 | 342216


Track 1

Filename C:\My Documents\My FLAC\VA - Monster Booty (Platinum Badonkadonk Edition) (2CD) (2007) [FLAC] {Razor & Tie}\Disc 1\01 - Sir Mix-A-Lot - Baby Got Back.wav

Pre-gap length 0:00:02.00

Peak level 98.8 %
Extraction speed 2.8 X
Track quality 100.0 %
Test CRC 52488666
Copy CRC 52488666
Accurately ripped (confidence 1) [E568414A] (AR v1)
Copy OK

Track 2

Filename C:\My Documents\My FLAC\VA - Monster Booty (Platinum Badonkadonk Edition) (2CD) (2007) [FLAC] {Razor & Tie}\Disc 1\02 - Wreckx-N-Effect - Rump Shaker.wav

Peak level 98.8 %
Extraction speed 3.2 X
Track quality 100.0 %
Test CRC 998D2730
Copy CRC 998D2730
Accurately ripped (confidence 1) [3586B7F3] (AR v1)
Copy OK

Track 3

Filename C:\My Documents\My FLAC\VA - Monster Booty (Platinum Badonkadonk Edition) (2CD) (2007) [FLAC] {Razor & Tie}\Disc 1\03 - Tag Team - Whoomp! There It Is.wav

Peak level 98.8 %
Extraction speed 3.4 X
Track quality 100.0 %
Test CRC B9B9B6F4
Copy CRC B9B9B6F4
Accurately ripped (confidence 1) [36FF93FF] (AR v1)
Copy OK

Track 4

Filename C:\My Documents\My FLAC\VA - Monster Booty (Platinum Badonkadonk Edition) (2CD) (2007) [FLAC] {Razor & Tie}\Disc 1\04 - Duice - Dazzey Duks.wav

Peak level 98.8 %
Extraction speed 3.6 X
Track quality 100.0 %
Test CRC EF1776D5
Copy CRC EF1776D5
Accurately ripped (confidence 1) [89EDDE19] (AR v1)
Copy OK

Track 5

Filename C:\My Documents\My FLAC\VA - Monster Booty (Platinum Badonkadonk Edition) (2CD) (2007) [FLAC] {Razor & Tie}\Disc 1\05 - Mystikal - Shake It Fast.wav

Peak level 97.7 %
Extraction speed 3.8 X
Track quality 100.0 %
Test CRC D06117CF
Copy CRC D06117CF
Accurately ripped (confidence 1) [DE8C8503] (AR v1)
Copy OK

Track 6

Filename C:\My Documents\My FLAC\VA - Monster Booty (Platinum Badonkadonk Edition) (2CD) (2007) [FLAC] {Razor & Tie}\Disc 1\06 - 69 Boyz - Tootsee Roll.wav

Peak level 98.8 %
Extraction speed 4.0 X
Track quality 100.0 %
Test CRC 90A0C198
Copy CRC 90A0C198
Accurately ripped (confidence 1) [C7983363] (AR v1)
Copy OK

Track 7

Filename C:\My Documents\My FLAC\VA - Monster Booty (Platinum Badonkadonk Edition) (2CD) (2007) [FLAC] {Razor & Tie}\Disc 1\07 - 2 Live Crew - Me So Horny.wav

Peak level 96.6 %
Extraction speed 3.6 X
Track quality 99.9 %
Test CRC B9F0D8C5
Copy CRC B9F0D8C5
Accurately ripped (confidence 1) [FE3A1966] (AR v1)
Copy OK

Track 8

Filename C:\My Documents\My FLAC\VA - Monster Booty (Platinum Badonkadonk Edition) (2CD) (2007) [FLAC] {Razor & Tie}\Disc 1\08 - Digital Underground - The Humpty Dance.wav

Peak level 98.8 %
Extraction speed 4.4 X
Track quality 100.0 %
Test CRC BC50664F
Copy CRC BC50664F
Accurately ripped (confidence 1) [84785F43] (AR v1)
Copy OK

Track 9

Filename C:\My Documents\My FLAC\VA - Monster Booty (Platinum Badonkadonk Edition) (2CD) (2007) [FLAC] {Razor & Tie}\Disc 1\09 - Khia - My Neck, My Back (Lick It).wav

Peak level 73.2 %
Extraction speed 4.5 X
Track quality 100.0 %
Test CRC 3E86E9E9
Copy CRC 3E86E9E9
Accurately ripped (confidence 1) [23B0EEE4] (AR v1)
Copy OK

Track 10

Filename C:\My Documents\My FLAC\VA - Monster Booty (Platinum Badonkadonk Edition) (2CD) (2007) [FLAC] {Razor & Tie}\Disc 1\10 - Salt-N-Pepa - Shake Your Thang.wav

Peak level 98.8 %
Extraction speed 3.9 X
Track quality 99.9 %
Test CRC 8BA8EFEC
Copy CRC 8BA8EFEC
Accurately ripped (confidence 1) [AC5A80CC] (AR v1)
Copy OK

Track 11

Filename C:\My Documents\My FLAC\VA - Monster Booty (Platinum Badonkadonk Edition) (2CD) (2007) [FLAC] {Razor & Tie}\Disc 1\11 - Sisqo - Thong Song.wav

Peak level 98.8 %
Extraction speed 4.8 X
Track quality 100.0 %
Test CRC 4D24C8CF
Copy CRC 4D24C8CF
Accurately ripped (confidence 1) [426D6262] (AR v1)
Copy OK

Track 12

Filename C:\My Documents\My FLAC\VA - Monster Booty (Platinum Badonkadonk Edition) (2CD) (2007) [FLAC] {Razor & Tie}\Disc 1\12 - Freak Nasty - Da' Dip.wav

Peak level 98.8 %
Extraction speed 4.9 X
Track quality 100.0 %
Test CRC 94396B52
Copy CRC 94396B52
Accurately ripped (confidence 1) [4E0532ED] (AR v1)
Copy OK

Track 13

Filename C:\My Documents\My FLAC\VA - Monster Booty (Platinum Badonkadonk Edition) (2CD) (2007) [FLAC] {Razor & Tie}\Disc 1\13 - Hammer - Pumps And A Bump.wav

Peak level 98.8 %
Extraction speed 5.1 X
Track quality 100.0 %
Test CRC B610A886
Copy CRC B610A886
Accurately ripped (confidence 1) [5D100BFF] (AR v1)
Copy OK

Track 14

Filename C:\My Documents\My FLAC\VA - Monster Booty (Platinum Badonkadonk Edition) (2CD) (2007) [FLAC] {Razor & Tie}\Disc 1\14 - Adina Howard - Freak Like Me.wav

Peak level 98.8 %
Extraction speed 4.5 X
Track quality 99.9 %
Test CRC 165A4AFE
Copy CRC 165A4AFE
Accurately ripped (confidence 1) [4BBF2E12] (AR v1)
Copy OK

Track 15

Filename C:\My Documents\My FLAC\VA - Monster Booty (Platinum Badonkadonk Edition) (2CD) (2007) [FLAC] {Razor & Tie}\Disc 1\15 - Tone Loc - Wild Thing.wav

Peak level 93.9 %
Extraction speed 4.6 X
Track quality 99.9 %
Test CRC 2F7B91FD
Copy CRC 2F7B91FD
Accurately ripped (confidence 1) [6BA9B43D] (AR v1)
Copy OK

Track 16

Filename C:\My Documents\My FLAC\VA - Monster Booty (Platinum Badonkadonk Edition) (2CD) (2007) [FLAC] {Razor & Tie}\Disc 1\16 - BLACKstreet - Booti Call.wav

Suspicious position 0:04:26

Peak level 98.8 %
Extraction speed 1.5 X
Track quality 99.7 %
Test CRC EC5F7D35
Copy CRC 236A2421
Cannot be verified as accurate (confidence 1) [D1C86A46], AccurateRip returned [46AEBF6C] (AR v2)
Copy finished

Track 17

Filename C:\My Documents\My FLAC\VA - Monster Booty (Platinum Badonkadonk Edition) (2CD) (2007) [FLAC] {Razor & Tie}\Disc 1\17 - 2 In A Room - Wiggle It.wav

Peak level 98.8 %
Extraction speed 5.6 X
Track quality 100.0 %
Test CRC 8D52E741
Copy CRC 8D52E741
Accurately ripped (confidence 1) [B0A38A70] (AR v1)
Copy OK

Track 18

Filename C:\My Documents\My FLAC\VA - Monster Booty (Platinum Badonkadonk Edition) (2CD) (2007) [FLAC] {Razor & Tie}\Disc 1\18 - E.U. - Da' Butt.wav

Peak level 98.8 %
Extraction speed 4.7 X
Track quality 99.9 %
Test CRC 493F502C
Copy CRC 493F502C
Accurately ripped (confidence 1) [F2E41FAF] (AR v1)
Copy OK


17 track(s) accurately ripped
1 track(s) could not be verified as accurate

Some tracks could not be verified as accurate

There were errors

End of status report

–– CUETools DB Plugin V2.1.6

[CTDB TOCID: Irz.FX7Bri4N3xX0PBWJgWdjQFo-] disk not present in database
Submit result: insufficient quality


==== Log checksum BC6202F4E8326CC7C8F03C9439605A02B57577F15663ED5BE06D766AE0CC24F3 ====










Exact Audio Copy V1.1 from 23. June 2015

EAC extraction logfile from 8. February 2016, 7:48

Unknown Artist / Monster Booty: Platinum Badonkadonk Edition (Disc 2)

Used drive : TEAC DVD-ROM DV-28SW Adapter: 1 ID: 0

Read mode : Secure
Utilize accurate stream : Yes
Defeat audio cache : Yes
Make use of C2 pointers : No

Read offset correction : 6
Overread into Lead-In and Lead-Out : No
Fill up missing offset samples with silence : Yes
Delete leading and trailing silent blocks : No
Null samples used in CRC calculations : Yes
Used interface : Native Win32 interface for Win NT & 2000
Gap handling : Left out

Used output format : Internal WAV Routines
Sample format : 44.100 Hz; 16 Bit; Stereo


TOC of the extracted CD

Track | Start | Length | Start sector | End sector
––––––––––––––––––––––––––––-
1 | 0:00.00 | 3:53.47 | 0 | 17521
2 | 3:53.47 | 3:22.58 | 17522 | 32729
3 | 7:16.30 | 4:50.45 | 32730 | 54524
4 | 12:07.00 | 3:13.10 | 54525 | 69009
5 | 15:20.10 | 4:07.37 | 69010 | 87571
6 | 19:27.47 | 4:33.53 | 87572 | 108099
7 | 24:01.25 | 4:30.07 | 108100 | 128356
8 | 28:31.32 | 3:04.00 | 128357 | 142156
9 | 31:35.32 | 4:57.70 | 142157 | 164501
10 | 36:33.27 | 4:34.68 | 164502 | 185119
11 | 41:08.20 | 3:53.60 | 185120 | 202654
12 | 45:02.05 | 3:57.20 | 202655 | 220449
13 | 48:59.25 | 4:39.65 | 220450 | 241439
14 | 53:39.15 | 4:05.70 | 241440 | 259884


Track 1

Filename C:\My Documents\My FLAC\VA - Monster Booty (Platinum Badonkadonk Edition) (2CD) (2007) [FLAC] {Razor & Tie}\Disc 2\01 - Mad Cobra - Flex.wav

Pre-gap length 0:00:02.00

Peak level 98.8 %
Extraction speed 1.2 X
Track quality 100.0 %
Test CRC 1C85FFA6
Copy CRC 1C85FFA6
Track not present in AccurateRip database
Copy OK

Track 2

Filename C:\My Documents\My FLAC\VA - Monster Booty (Platinum Badonkadonk Edition) (2CD) (2007) [FLAC] {Razor & Tie}\Disc 2\02 - A Tribe Called Quest - Da Booty.wav

Peak level 98.8 %
Extraction speed 1.3 X
Track quality 100.0 %
Test CRC EFA2701D
Copy CRC EFA2701D
Track not present in AccurateRip database
Copy OK

Track 3

Filename C:\My Documents\My FLAC\VA - Monster Booty (Platinum Badonkadonk Edition) (2CD) (2007) [FLAC] {Razor & Tie}\Disc 2\03 - Patra - Pull Up To The Bumper.wav

Peak level 98.8 %
Extraction speed 1.5 X
Track quality 100.0 %
Test CRC 1E7F4F60
Copy CRC 1E7F4F60
Track not present in AccurateRip database
Copy OK

Track 4

Filename C:\My Documents\My FLAC\VA - Monster Booty (Platinum Badonkadonk Edition) (2CD) (2007) [FLAC] {Razor & Tie}\Disc 2\04 - Kevin Lyttle - Turn Me On.wav

Peak level 98.7 %
Extraction speed 1.5 X
Track quality 100.0 %
Test CRC 05B141AC
Copy CRC 05B141AC
Track not present in AccurateRip database
Copy OK

Track 5

Filename C:\My Documents\My FLAC\VA - Monster Booty (Platinum Badonkadonk Edition) (2CD) (2007) [FLAC] {Razor & Tie}\Disc 2\05 - Shaggy - Boombastic.wav

Peak level 98.8 %
Extraction speed 1.7 X
Track quality 100.0 %
Test CRC B7599923
Copy CRC B7599923
Track not present in AccurateRip database
Copy OK

Track 6

Filename C:\My Documents\My FLAC\VA - Monster Booty (Platinum Badonkadonk Edition) (2CD) (2007) [FLAC] {Razor & Tie}\Disc 2\06 - Bell Biv DeVoe - Do Me!.wav

Peak level 90.1 %
Extraction speed 0.6 X
Track quality 100.0 %
Test CRC 83C3910D
Copy CRC 83C3910D
Track not present in AccurateRip database
Copy OK

Track 7

Filename C:\My Documents\My FLAC\VA - Monster Booty (Platinum Badonkadonk Edition) (2CD) (2007) [FLAC] {Razor & Tie}\Disc 2\07 - Naughty By Nature - O.P.P..wav

Peak level 98.8 %
Extraction speed 1.9 X
Track quality 100.0 %
Test CRC BB8FCC73
Copy CRC BB8FCC73
Track not present in AccurateRip database
Copy OK

Track 8

Filename C:\My Documents\My FLAC\VA - Monster Booty (Platinum Badonkadonk Edition) (2CD) (2007) [FLAC] {Razor & Tie}\Disc 2\08 - Trina featuring Trick Daddy - Pull Over.wav

Peak level 98.8 %
Extraction speed 1.9 X
Track quality 100.0 %
Test CRC A692C340
Copy CRC A692C340
Track not present in AccurateRip database
Copy OK

Track 9

Filename C:\My Documents\My FLAC\VA - Monster Booty (Platinum Badonkadonk Edition) (2CD) (2007) [FLAC] {Razor & Tie}\Disc 2\09 - Kyper - Tic Tac To.wav

Peak level 98.8 %
Extraction speed 2.1 X
Track quality 100.0 %
Test CRC 838177BC
Copy CRC 838177BC
Track not present in AccurateRip database
Copy OK

Track 10

Filename C:\My Documents\My FLAC\VA - Monster Booty (Platinum Badonkadonk Edition) (2CD) (2007) [FLAC] {Razor & Tie}\Disc 2\10 - Silk - Freak Me.wav

Peak level 98.8 %
Extraction speed 1.9 X
Track quality 99.9 %
Test CRC F93ACCE3
Copy CRC F93ACCE3
Track not present in AccurateRip database
Copy OK

Track 11

Filename C:\My Documents\My FLAC\VA - Monster Booty (Platinum Badonkadonk Edition) (2CD) (2007) [FLAC] {Razor & Tie}\Disc 2\11 - Candyman - Knockin' Boots.wav

Peak level 98.8 %
Extraction speed 2.2 X
Track quality 100.0 %
Test CRC 6335436E
Copy CRC 6335436E
Track not present in AccurateRip database
Copy OK

Track 12

Filename C:\My Documents\My FLAC\VA - Monster Booty (Platinum Badonkadonk Edition) (2CD) (2007) [FLAC] {Razor & Tie}\Disc 2\12 - K7 - Come Baby Come.wav

Peak level 98.8 %
Extraction speed 2.2 X
Track quality 100.0 %
Test CRC 847D4B61
Copy CRC 847D4B61
Track not present in AccurateRip database
Copy OK

Track 13

Filename C:\My Documents\My FLAC\VA - Monster Booty (Platinum Badonkadonk Edition) (2CD) (2007) [FLAC] {Razor & Tie}\Disc 2\13 - Luke - I Wanna Rock.wav

Peak level 98.8 %
Extraction speed 2.1 X
Track quality 99.9 %
Test CRC 5EB3A8B9
Copy CRC 5EB3A8B9
Track not present in AccurateRip database
Copy OK

Track 14

Filename C:\My Documents\My FLAC\VA - Monster Booty (Platinum Badonkadonk Edition) (2CD) (2007) [FLAC] {Razor & Tie}\Disc 2\14 - Quad City DJ's - C'mon N' Ride It (The Train).wav

Peak level 98.8 %
Extraction speed 2.4 X
Track quality 100.0 %
Test CRC 05A13F39
Copy CRC 05A13F39
Track not present in AccurateRip database
Copy OK


None of the tracks are present in the AccurateRip database

No errors occurred

End of status report

–– CUETools DB Plugin V2.1.6

[CTDB TOCID: 7iypyWrUSckF.fYXwlKXMPk0a4Q-] disk not present in database
Submit result: 7iypyWrUSckF.fYXwlKXMPk0a4Q- has been uploaded


==== Log checksum 0B6A7552494539B9B6EEBA21387F88AFBB97CC72BEEB30D09060F47620B53C1F ====