Monsieur Camembert - Famous Blue Cheese: The Leonard Cohen Show (2CD) (2007)

Posted By: Domestos
Monsieur Camembert - Famous Blue Cheese: The Leonard Cohen Show (2CD) (2007)

Monsieur Camembert - Famous Blue Cheese: The Leonard Cohen Show (2CD) (2007)
EAC Rip | FLAC (image+.cue, log) ~ 344.96 Mb (CD1) + 414.34 Mb (CD2) | 02:01:08 | Cover
Jazz, Gypsy, Klezmer | Country: Australia | Label: Not On Label (Monsieur Camembert Self-Released)

Monsieur Camembert's interpretations traverse styles rarely if ever associated with Cohen, including Hot Swing, free-jazz, tango, latin, klezmer etc etc. So what prompted Camembert to do Cohen? Yaron Hallis, leader of the group, explains for years our most requested song has been Cohens Dance Me To The End Of Love, and many fans have suggested we do a whole night of Cohen. Its quite thrilling to finally take on this body of material, and be joined by guest singers I so greatly admire, who on the most cerebral and instinctive level, connect with and interpret his songs with such raw beauty there are lots of Australian singers I was tempted to approach for the show, but very few had the quality in their voice that I felt was especially suited to interpret his music. With Cohen, absolutely every word counts, and for the material to really work, there has to be vulnerability, sensuality and complete emotional truth.

The album was recorded live at The Vanguard, Sydney, on the 12th, 13th & 14th April 2007.

Musicians:
Yaron Hallis (Lead vocals, rhythm guitar)
Edouard Bronson (Saxes, bass clarinet, button accordion)
Marcello Maio (Piano, piano accordion)
Mark Harris (Double bass, backing vocals)
Jim "Santiago# Pennell (Lead and rhythm guitar)
Julian Curwin (Banjo, guitar)
Giosofatto Ciampa (Percussion, backing vocals)
Anatoli Torjinski (Cello)
Daniel Weltlinger (Violin)

Guest vocalists:
Carla Werner
Elana Stone
Abby Dobson
Ngaiire

Track List CD1:
1.I'm your man
2. Gypsy wife
3. Field Commander Cohen
4. Chelsea Hotel
5. Manhattan
6. The guests
7. A singer must die
8. Famous blue raincoat
9. Light as the breeze
10. The future

Track List CD2:
1. Take this waltz
2. 1958 Manifesto
3. Seems so long ago, Nancy
4. Intro to Jazz Police
5. Jazz Police
6. Suzanne
7. Who by fire
8. Bird on a wire
9. Memories
10. Halleluyah
11. Everybody knows
12. Closing time
13. The dove
14. Dance me to the end of love

Monsieur Camembert - Famous Blue Cheese: The Leonard Cohen Show (2CD) (2007)

Exact Audio Copy V0.99 prebeta 5 from 4. May 2009

EAC extraction logfile from 26. November 2009, 18:16

Monsieur Camembert / Famous Blue Cheese

Used drive : HL-DT-STDVDRAM GH20NS15 Adapter: 2 ID: 0

Read mode : Secure
Utilize accurate stream : Yes
Defeat audio cache : Yes
Make use of C2 pointers : No

Read offset correction : 667
Overread into Lead-In and Lead-Out : No
Fill up missing offset samples with silence : Yes
Delete leading and trailing silent blocks : No
Null samples used in CRC calculations : Yes
Used interface : Native Win32 interface for Win NT & 2000

Used output format : Internal WAV Routines
Sample format : 44.100 Hz; 16 Bit; Stereo

TOC of the extracted CD

Track | Start | Length | Start sector | End sector
––––––––––––––––––––––––––––-
1 | 0:00.00 | 4:34.39 | 0 | 20588
2 | 4:34.39 | 5:23.07 | 20589 | 44820
3 | 9:57.46 | 4:15.12 | 44821 | 63957
4 | 14:12.58 | 4:23.12 | 63958 | 83694
5 | 18:35.70 | 5:16.72 | 83695 | 107466
6 | 23:52.67 | 6:22.69 | 107467 | 136185
7 | 30:15.61 | 5:17.42 | 136186 | 160002
8 | 35:33.28 | 7:16.43 | 160003 | 192745
9 | 42:49.71 | 5:59.39 | 192746 | 219709
10 | 48:49.35 | 6:34.64 | 219710 | 249323

Range status and errors

Selected range

Filename C:\musjk\Monsieur Camembert - Famous Blue Cheese.wav

Peak level 97.7 %
Range quality 99.9 %
Test CRC 40127A13
Copy CRC 40127A13
Copy OK

No errors occurred

AccurateRip summary

Track 1 not present in database
Track 2 not present in database
Track 3 not present in database
Track 4 not present in database
Track 5 not present in database
Track 6 not present in database
Track 7 not present in database
Track 8 not present in database
Track 9 not present in database
Track 10 not present in database

None of the tracks are present in the AccurateRip database

End of status report

Exact Audio Copy V0.99 prebeta 5 from 4. May 2009

EAC extraction logfile from 26. November 2009, 19:42

Monsieur Camembert / Famous Blue Cheese CD2

Used drive : HL-DT-STDVDRAM GH20NS15 Adapter: 2 ID: 0

Read mode : Secure
Utilize accurate stream : Yes
Defeat audio cache : Yes
Make use of C2 pointers : No

Read offset correction : 667
Overread into Lead-In and Lead-Out : No
Fill up missing offset samples with silence : Yes
Delete leading and trailing silent blocks : No
Null samples used in CRC calculations : Yes
Used interface : Native Win32 interface for Win NT & 2000

Used output format : Internal WAV Routines
Sample format : 44.100 Hz; 16 Bit; Stereo

TOC of the extracted CD

Track | Start | Length | Start sector | End sector
––––––––––––––––––––––––––––-
1 | 0:00.00 | 4:42.73 | 0 | 21222
2 | 4:42.73 | 1:01.71 | 21223 | 25868
3 | 5:44.69 | 4:25.56 | 25869 | 45799
4 | 10:10.50 | 0:55.27 | 45800 | 49951
5 | 11:06.02 | 4:17.29 | 49952 | 69255
6 | 15:23.31 | 4:41.18 | 69256 | 90348
7 | 20:04.49 | 4:43.66 | 90349 | 111639
8 | 24:48.40 | 5:42.71 | 111640 | 137360
9 | 30:31.36 | 4:09.11 | 137361 | 156046
10 | 34:40.47 | 6:49.58 | 156047 | 186779
11 | 41:30.30 | 10:24.49 | 186780 | 233628
12 | 51:55.04 | 3:24.20 | 233629 | 248948
13 | 55:19.24 | 2:08.32 | 248949 | 258580
14 | 57:27.56 | 8:16.37 | 258581 | 295817

Range status and errors

Selected range

Filename C:\musjk\Monsieur Camembert - Famous Blue Cheese CD2.wav

Peak level 97.7 %
Range quality 100.0 %
Test CRC 6A3AA9BC
Copy CRC 6A3AA9BC
Copy OK

No errors occurred

AccurateRip summary

Track 1 not present in database
Track 2 not present in database
Track 3 not present in database
Track 4 not present in database
Track 5 not present in database
Track 6 not present in database
Track 7 not present in database
Track 8 not present in database
Track 9 not present in database
Track 10 not present in database
Track 11 not present in database
Track 12 not present in database
Track 13 not present in database
Track 14 not present in database

None of the tracks are present in the AccurateRip database

End of status report

All thanks go to the zuck1976

More Music in My Blog
Follow My RSS Channel