Subcategories

Moses Sumney - Aromanticism (Japanese Edition) (2017)

Posted By: delpotro
Moses Sumney - Aromanticism (Japanese Edition) (2017)

Moses Sumney - Aromanticism (Japanese Edition) (2017)
EAC Rip | FLAC (tracks+log+.cue) - 210 Mb | MP3 CBR 320 kbps - 89 Mb | 00:38:59
Indie Pop, Soul | Label: Jagjaguwar, Hostess Entertainment

"Aromanticism is a concept album about lovelessness as a sonic dreamscape," Moses Sumney stated in a blog post. "It seeks to interrogate the idea that romance is normative and necessary." It’s also a debut album that establishes its author as a very special voice. The exquisite “Quarrel”—all foreboding bass, levitating harp, and trippy soul—is spine-chilling, “Make Out in My Car” glides by suggestively with a chemtrail of flutes, and on the acoustic “Indulge Me,” Sumney is sincere, vulnerable, and quietly devastating.

Both seems plausible from the sounds of Aromanticism. The majority of the album is ethereal and angelic-the soft guitar playing, muted electronic beats, and occasional interjections from strings and a flute make sure of this. On "Plastic," Sumney asks, "can I tell you a secret?" and the question hovers for a moment before it hops on the back of a passing breeze and goes quickly out of sight. At other times, Sumney's wings have been clipped and he drops to his knees and prays in blood stained dirt. Both "Lonely World" and "Doomed" are desolate tracks where Sumney aches for companionship and clarity in the face of darkness. On "Make Out In My Car," Sumney summons someone but doesn't ask for much, just for the fleeting pleasure that kissing in a car can bring.

In whatever space Sumney occupies though, he commands your attention: "Trust me, I am the sun and the sea," he orders on "Don't Bother Calling." His rich falsetto trembles but is strong like a flower that blooms in a sidewalk crack. As if to say: here I am, in spite of everything. Throughout, Sumney's gifted voice is a constant source of fascination and pushes the beauty of Aromanticism to triumphant heights.
Tracklist:
1. Man on the Moon (Reprise) (00:36)
2. Don't Bother Calling (03:59)
3. Plastic (03:08)
4. Quarrel (06:45)
5. Stoicism (01:02)
6. Lonely World (04:48)
7. Make Out in My Car (02:35)
8. The Cocoon-Eyed Baby (01:09)
9. Doomed (04:27)
10. Indulge Me (03:16)
11. Self-Help Tape (03:01)
12. Latchkey Kid (03:57)

Exact Audio Copy V1.3 from 2. September 2016

EAC extraction logfile from 11. May 2019, 18:05

Moses Sumney / Aromanticism

Used drive : PLEXTOR PX-891SAF Adapter: 1 ID: 1

Read mode : Secure
Utilize accurate stream : Yes
Defeat audio cache : Yes
Make use of C2 pointers : No

Read offset correction : 6
Overread into Lead-In and Lead-Out : No
Fill up missing offset samples with silence : Yes
Delete leading and trailing silent blocks : No
Null samples used in CRC calculations : Yes
Used interface : Native Win32 interface for Win NT & 2000
Gap handling : Appended to previous track

Used output format : User Defined Encoder
Selected bitrate : 1024 kBit/s
Quality : High
Add ID3 tag : No
Command line compressor : D:\PORTABLE PROGRAMS\flac.exe
Additional command line options : -8 -V -T "ARTIST=%artist%" -T "TITLE=%title%" -T "ALBUM=%albumtitle%" -T "DATE=%year%" -T "TRACKNUMBER=%tracknr%" -T "GENRE=%genre%" -T "PERFORMER=%albuminterpret%" -T "COMPOSER=%composer%" %haslyrics%–tag-from-file=LYRICS="%lyricsfile%"%haslyrics% -T "ALBUMARTIST=%albumartist%" -T "DISCNUMBER=%cdnumber%" -T "TOTALDISCS=%totalcds%" -T "TOTALTRACKS=%numtracks%" -T "COMMENT=%comment%" %source% -o %dest%


TOC of the extracted CD

Track | Start | Length | Start sector | End sector
––––––––––––––––––––––––––––-
1 | 0:00.00 | 0:36.66 | 0 | 2765
2 | 0:36.66 | 3:59.53 | 2766 | 20743
3 | 4:36.44 | 3:08.42 | 20744 | 34885
4 | 7:45.11 | 6:45.46 | 34886 | 65306
5 | 14:30.57 | 1:02.28 | 65307 | 69984
6 | 15:33.10 | 4:48.73 | 69985 | 91657
7 | 20:22.08 | 2:35.62 | 91658 | 103344
8 | 22:57.70 | 1:09.12 | 103345 | 108531
9 | 24:07.07 | 4:27.49 | 108532 | 128605
10 | 28:34.56 | 3:16.01 | 128606 | 143306
11 | 31:50.57 | 3:11.18 | 143307 | 157649
12 | 35:02.00 | 3:57.62 | 157650 | 175486


Track 1

Filename D:\FLAC LOG 100\Moses Sumney - 2017 - Aromanticism {HSE-6484} [FLAC]\01 - Man On The Moon (Reprise).wav

Pre-gap length 0:00:02.00

Peak level 96.7 %
Extraction speed 1.0 X
Track quality 100.0 %
Test CRC 6A9BE573
Copy CRC 6A9BE573
Accurately ripped (confidence 1) [0111D5F0] (AR v2)
Copy OK

Track 2

Filename D:\FLAC LOG 100\Moses Sumney - 2017 - Aromanticism {HSE-6484} [FLAC]\02 - Don't Bother Calling.wav

Peak level 96.3 %
Extraction speed 1.5 X
Track quality 99.9 %
Test CRC CEEA5A84
Copy CRC CEEA5A84
Accurately ripped (confidence 1) [EF01FDFB] (AR v2)
Copy OK

Track 3

Filename D:\FLAC LOG 100\Moses Sumney - 2017 - Aromanticism {HSE-6484} [FLAC]\03 - Plastic.wav

Peak level 97.2 %
Extraction speed 1.5 X
Track quality 99.9 %
Test CRC 2CC02D91
Copy CRC 2CC02D91
Accurately ripped (confidence 1) [D73D3EB1] (AR v2)
Copy OK

Track 4

Filename D:\FLAC LOG 100\Moses Sumney - 2017 - Aromanticism {HSE-6484} [FLAC]\04 - Quarrel.wav

Peak level 100.0 %
Extraction speed 2.6 X
Track quality 100.0 %
Test CRC F3E96EAC
Copy CRC F3E96EAC
Accurately ripped (confidence 1) [8D5BB80A] (AR v2)
Copy OK

Track 5

Filename D:\FLAC LOG 100\Moses Sumney - 2017 - Aromanticism {HSE-6484} [FLAC]\05 - Stoicism.wav

Peak level 48.6 %
Extraction speed 0.9 X
Track quality 99.8 %
Test CRC C4986398
Copy CRC C4986398
Accurately ripped (confidence 1) [E6047094] (AR v2)
Copy OK

Track 6

Filename D:\FLAC LOG 100\Moses Sumney - 2017 - Aromanticism {HSE-6484} [FLAC]\06 - Lonely World.wav

Peak level 100.0 %
Extraction speed 2.8 X
Track quality 100.0 %
Test CRC C50F43D1
Copy CRC C50F43D1
Accurately ripped (confidence 1) [FD719C61] (AR v2)
Copy OK

Track 7

Filename D:\FLAC LOG 100\Moses Sumney - 2017 - Aromanticism {HSE-6484} [FLAC]\07 - Make Out In My Car.wav

Peak level 100.0 %
Extraction speed 2.7 X
Track quality 100.0 %
Test CRC 78237861
Copy CRC 78237861
Accurately ripped (confidence 1) [7C174F80] (AR v2)
Copy OK

Track 8

Filename D:\FLAC LOG 100\Moses Sumney - 2017 - Aromanticism {HSE-6484} [FLAC]\08 - The Cocoon-Eyed Baby.wav

Peak level 96.7 %
Extraction speed 2.2 X
Track quality 100.0 %
Test CRC 7DBC0027
Copy CRC 7DBC0027
Accurately ripped (confidence 1) [2D55FEEF] (AR v2)
Copy OK

Track 9

Filename D:\FLAC LOG 100\Moses Sumney - 2017 - Aromanticism {HSE-6484} [FLAC]\09 - Doomed.wav

Peak level 97.1 %
Extraction speed 3.1 X
Track quality 100.0 %
Test CRC CCE3CFD9
Copy CRC CCE3CFD9
Accurately ripped (confidence 1) [F02F559A] (AR v2)
Copy OK

Track 10

Filename D:\FLAC LOG 100\Moses Sumney - 2017 - Aromanticism {HSE-6484} [FLAC]\10 - Indulge Me.wav

Peak level 98.8 %
Extraction speed 3.1 X
Track quality 100.0 %
Test CRC 365B8601
Copy CRC 365B8601
Accurately ripped (confidence 1) [9D1C3DFB] (AR v2)
Copy OK

Track 11

Filename D:\FLAC LOG 100\Moses Sumney - 2017 - Aromanticism {HSE-6484} [FLAC]\11 - Self-Help Tape.wav

Peak level 97.5 %
Extraction speed 2.2 X
Track quality 99.9 %
Test CRC 19E3CFC7
Copy CRC 19E3CFC7
Accurately ripped (confidence 1) [15FEAAFB] (AR v2)
Copy OK

Track 12

Filename D:\FLAC LOG 100\Moses Sumney - 2017 - Aromanticism {HSE-6484} [FLAC]\12 - Latchkey Kid.wav

Pre-gap length 0:00:10.02

Peak level 95.2 %
Extraction speed 3.4 X
Track quality 100.0 %
Test CRC E0870BD3
Copy CRC E0870BD3
Accurately ripped (confidence 1) [998175FD] (AR v2)
Copy OK


All tracks accurately ripped

No errors occurred

End of status report

–– CUETools DB Plugin V2.1.6

[CTDB TOCID: 3CN.a0wB8Ab6K8XH4mCt6c9IiKw-] found
Submit result: 3CN.a0wB8Ab6K8XH4mCt6c9IiKw- has been confirmed
Track | CTDB Status
1 | (5/5) Accurately ripped
2 | (5/5) Accurately ripped
3 | (5/5) Accurately ripped
4 | (5/5) Accurately ripped
5 | (5/5) Accurately ripped
6 | (5/5) Accurately ripped
7 | (5/5) Accurately ripped
8 | (5/5) Accurately ripped
9 | (5/5) Accurately ripped
10 | (5/5) Accurately ripped
11 | (5/5) Accurately ripped
12 | (5/5) Accurately ripped


==== Log checksum BC0790CC67BB2DC589D37C19C6AB0601489788A89C37A0791EDCA6BE873619DB ====

Thanks to the Original ripper !