Subcategories

Muriel Winston - A Fresh Viewpoint (Japan Edition) (1974/2014)

Posted By: Domestos
Muriel Winston - A Fresh Viewpoint (Japan Edition) (1974/2014)

Muriel Winston - A Fresh Viewpoint (Japan Edition) (1974/2014)
EAC Rip | FLAC (tracks+.cue, log) ~ 238.18 Mb | 42:26 | Cover
Vocal Jazz, Soul Jazz, Spiritual Jazz | Country: USA | Label: SHOUT! Productions (SHOUT-273)

One of the most unusual albums on the legendary Strata East label – an unusual mix of jazz and soul vocal material, put together by singer Muriel Winston with arrangements from the great Bill Lee! There's a relaxed, easygoing feel to the record – one that's upfront and personal on the tunes that feature Muriel in the lead on ballads, but gets a bit more righteous on some of the spoken passages, then feels really collaborative on some of the numbers that feature a chorus of younger singers (including Spike Lee's sister, Joy).

The material is an unusual mix of styles – some straighter jazz vocals, some more spiritual – and the album's divided into two sides "The Universal Side" and "The Personal Side" – the latter of which features a number of lesser-known Tadd Dameron compositions. Lee handles the music direction and arrangements, and plays bass in a small combo that also features Clifford Jordan on flute, Stanley Cowell on piano, and Billy Higgins on drums. Winston's a vocalist with a slightly spiritual kind of sound, and some of the tracks on the record are nice light little ditties with piano by Stanley Cowell, drums by Billy Higgins, flute by Clifford Jordan, and bass by Lee.

Muriel Winston - vocals, piano
Stanley Cowell - piano
Bill Lee - bass
Billy Higgins - drums, percussion
Clifford Jordan - flute
Children's Chorus: Becky Childs, Shirley Childs, LaVerne Gilliam, Joy Lee, Natalie Roche, Theresa Roche

Recorded at Minot Sound, White Plains, NY on October 21-31, 1974.

Track List:
01. Children's Trilogy: Play School (Lee)/Draw a Bucket of Water (Trad.)/Take Me Back (Hopkins) - 4:50
02. We'll Remember Those Years (Moorehead) - 3:41
03. A Song for My Daddy (Winston-Lee) - 2:44
04. Sing Chillun Sing (Lee) - 1:57
05. The Lord Will Make a Way Somehow (Dorsey) - 5:41
06. A Song to Everyone in the World (Winston) - 2:15
07. Never Been in Love (Dameron) - 3:43
08. Weekend (Dameron) - 2:57
09. Soul Trane (Dameron) - 3:58
10. I'm Never Happy Anymore (Dameron) - 3:10
11. Love Took the 7:10 Tonight (Dameron) - 3:09
12. The Happy Heart (Dameron) - 4:21

Exact Audio Copy V1.0 beta 6 from 9. April 2015

EAC extraction logfile from 1. August 2016, 10:23

Muriel Winston / A Fresh Viewpoint

Used drive : MATSHITADVD+-RW UJ8FB Adapter: 1 ID: 0

Read mode : Secure
Utilize accurate stream : Yes
Defeat audio cache : Yes
Make use of C2 pointers : No

Read offset correction : 6
Overread into Lead-In and Lead-Out : No
Fill up missing offset samples with silence : Yes
Delete leading and trailing silent blocks : No
Null samples used in CRC calculations : Yes
Used interface : Native Win32 interface for Win NT & 2000
Gap handling : Appended to previous track

Used output format : User Defined Encoder
Selected bitrate : 1024 kBit/s
Quality : High
Add ID3 tag : No
Command line compressor : C:\Program Files\Flac\flac.exe
Additional command line options : -8 -V -T "ARTIST=%artist%" -T "TITLE=%title%" -T "ALBUM=%albumtitle%" -T "DATE=%year%" -T "TRACKNUMBER=%tracknr%" -T "GENRE=%genre%" -T "PERFORMER=%albuminterpret%" -T "COMPOSER=%composer%" %haslyrics%–tag-from-file=LYRICS="%lyricsfile%"%haslyrics% -T "ALBUMARTIST=%albumartist%" -T "DISCNUMBER=%cdnumber%" -T "TOTALDISCS=%totalcds%" -T "TOTALTRACKS=%numtracks%" -T "COMMENT=%comment%" %source% -o %dest%

TOC of the extracted CD

Track | Start | Length | Start sector | End sector
––––––––––––––––––––––––––––-
1 | 0:00.00 | 4:50.23 | 0 | 21772
2 | 4:50.23 | 3:41.36 | 21773 | 38383
3 | 8:31.59 | 2:44.35 | 38384 | 50718
4 | 11:16.19 | 1:56.47 | 50719 | 59465
5 | 13:12.66 | 5:41.12 | 59466 | 85052
6 | 18:54.03 | 2:14.56 | 85053 | 95158
7 | 21:08.59 | 3:43.19 | 95159 | 111902
8 | 24:52.03 | 2:57.13 | 111903 | 125190
9 | 27:49.16 | 3:57.65 | 125191 | 143030
10 | 31:47.06 | 3:10.01 | 143031 | 157281
11 | 34:57.07 | 3:09.27 | 157282 | 171483
12 | 38:06.34 | 4:20.74 | 171484 | 191057

Track 1

Filename C:\EAC Rips\Muriel Winston - A Fresh Viewpoint (1975)\01 - Children's Trilogy.wav

Pre-gap length 0:00:02.00

Peak level 99.3 %
Extraction speed 2.8 X
Track quality 100.0 %
Test CRC D599EA57
Copy CRC D599EA57
Accurately ripped (confidence 1) [20D44FEB] (AR v2)
Copy OK

Track 2

Filename C:\EAC Rips\Muriel Winston - A Fresh Viewpoint (1975)\02 - We'll Remember Those Years.wav

Peak level 97.7 %
Extraction speed 3.0 X
Track quality 100.0 %
Test CRC 09B9E520
Copy CRC 09B9E520
Cannot be verified as accurate (confidence 1) [52D4915F], AccurateRip returned [C74A915F] (AR v2)
Copy OK

Track 3

Filename C:\EAC Rips\Muriel Winston - A Fresh Viewpoint (1975)\03 - A Song For My Daddy.wav

Peak level 96.3 %
Extraction speed 3.1 X
Track quality 100.0 %
Test CRC BB5A20AA
Copy CRC BB5A20AA
Accurately ripped (confidence 1) [D8173157] (AR v2)
Copy OK

Track 4

Filename C:\EAC Rips\Muriel Winston - A Fresh Viewpoint (1975)\04 - Sing Chillun Sing.wav

Peak level 99.5 %
Extraction speed 2.9 X
Track quality 100.0 %
Test CRC A89BEE5D
Copy CRC A89BEE5D
Accurately ripped (confidence 1) [36F7FA43] (AR v2)
Copy OK

Track 5

Filename C:\EAC Rips\Muriel Winston - A Fresh Viewpoint (1975)\05 - The Lord Will Make A Way Somehow.wav

Peak level 94.4 %
Extraction speed 3.7 X
Track quality 100.0 %
Test CRC 36BA2F7A
Copy CRC 36BA2F7A
Accurately ripped (confidence 1) [4DADDD45] (AR v2)
Copy OK

Track 6

Filename C:\EAC Rips\Muriel Winston - A Fresh Viewpoint (1975)\06 - A Song To Everyone In The World.wav

Peak level 93.2 %
Extraction speed 2.6 X
Track quality 99.9 %
Test CRC 2E706C95
Copy CRC 2E706C95
Accurately ripped (confidence 1) [B2477265] (AR v2)
Copy OK

Track 7

Filename C:\EAC Rips\Muriel Winston - A Fresh Viewpoint (1975)\07 - Never Been In Love.wav

Peak level 90.3 %
Extraction speed 3.9 X
Track quality 100.0 %
Test CRC 1CE46B11
Copy CRC 1CE46B11
Accurately ripped (confidence 1) [D2770AA4] (AR v2)
Copy OK

Track 8

Filename C:\EAC Rips\Muriel Winston - A Fresh Viewpoint (1975)\08 - Weekend.wav

Peak level 88.4 %
Extraction speed 3.9 X
Track quality 100.0 %
Test CRC 7BFFCF2F
Copy CRC 7BFFCF2F
Accurately ripped (confidence 1) [0C8FCCE6] (AR v2)
Copy OK

Track 9

Filename C:\EAC Rips\Muriel Winston - A Fresh Viewpoint (1975)\09 - Soul Trane.wav

Peak level 88.9 %
Extraction speed 4.3 X
Track quality 100.0 %
Test CRC 597D702C
Copy CRC 597D702C
Accurately ripped (confidence 1) [25B0D3FF] (AR v2)
Copy OK

Track 10

Filename C:\EAC Rips\Muriel Winston - A Fresh Viewpoint (1975)\10 - I'm Never Happy Anymore.wav

Peak level 90.5 %
Extraction speed 4.3 X
Track quality 100.0 %
Test CRC F9918CB6
Copy CRC F9918CB6
Accurately ripped (confidence 1) [ACACE42B] (AR v2)
Copy OK

Track 11

Filename C:\EAC Rips\Muriel Winston - A Fresh Viewpoint (1975)\11 - Love Took The 7-10 Tonight.wav

Peak level 89.5 %
Extraction speed 4.4 X
Track quality 100.0 %
Test CRC 9110805A
Copy CRC 9110805A
Accurately ripped (confidence 1) [B56204F1] (AR v2)
Copy OK

Track 12

Filename C:\EAC Rips\Muriel Winston - A Fresh Viewpoint (1975)\12 - The Happy Heart.wav

Peak level 88.3 %
Extraction speed 4.8 X
Track quality 100.0 %
Test CRC DD14FD14
Copy CRC DD14FD14
Accurately ripped (confidence 1) [792563C5] (AR v2)
Copy OK

11 track(s) accurately ripped
1 track(s) could not be verified as accurate

Some tracks could not be verified as accurate

No errors occurred

End of status report

–– CUETools DB Plugin V2.1.6

[CTDB TOCID: 3.QJBLcvUBCZuVzizPldOnfdwaM-] disk not present in database
Submit result: 3.QJBLcvUBCZuVzizPldOnfdwaM- has been uploaded

==== Log checksum 151D9861D26E4D6A1552F8BC5670F13FCBA8DD7F45853D35283A7E81EF9A88D2 ====

All thanks go to the What.CD

More Music in My Blog
Follow My RSS Channel