Subcategories

Mutiny - Mutiny On The Mamaship / Funk Plus The One (Deluxe Edition) (2015)

Posted By: delpotro
Mutiny - Mutiny On The Mamaship / Funk Plus The One (Deluxe Edition) (2015)

Mutiny - Mutiny On The Mamaship / Funk Plus The One (Deluxe Edition) (2015)
EAC Rip | FLAC (tracks+log+.cue) | 01:52:28 | 751 Mb
Funk, Disco | Label: Funky Town Grooves

Mutiny Mutiny On The Mamaship/Funk Plus The One will be Expanded for the First Time Ever. Includes 8 Bonus Tracks in a Deluxe 2 CD Edition. Both albums produced by Jerome Brailey. Re-Mastered from the Original Master Tapes by Sean Brennan, at Battery Studio s, New York. Mutiny On The Mamaship is the debut album by former Parliament-Funkadelic drummer Jerome Brailey and his band Mutiny. The album was released by Columbia Records in 1979. The album was released a year after Brailey left P-Funk due to a financial dispute.

The original album featured a lyric sheet as well as artwork that depicts P-Funk leader George Clinton in a negative light. Funk Plus The One became the second album by Mutiny and was released by Columbia Records in 1980. A year after leaving Parliament/Funkadelic, drummer Jerome Big Foot Brailey dropped this infectious funk bomb, Mutiny On The Mamaship with some P-Funk mojo, some funky synths, sing-song choruses, wickedly frenetic guitar lines and hard-driving beats which are both convincing and infectious. The album s groovin excursions like What More Can I Say are always enjoyable P-Funk blueprints, while the soulful Everytime You Come Around points to a broader soul footprint, with layered harmonies that summon the ghosts of late 60 s R&B vocal groups. Mutiny s 1980 follow-up, Funk Plus The One, continues the concept, but with some intoxicating results. The funky session cooked up this quality little record that's right up there but the set's got that percolated groove that P-Funk virtually invented a nice sense of syncopation that brings in a good roller skating feel to some of the cuts. Titles include the killer "Semi-First Class Seat" plus "Reality", "One On One", "Will It Be Tomorrow", and "Don't Bust the Groove".
Tracklist:
Mutiny On The Mamaship
1-1 Go Away From Here 4:11
1-2 What More Can I Say 4:35
1-3 Lump 4:36
1-4 Funk 'N' Bop 4:19
1-5 Burning Up 4:08
1-6 Voyage To The Bottom Of The "P" 4:02
1-7 Everytime You Come Around 3:57
1-8 Romeo (Hope You're Feeling Better) 5:08
Bonus Tracks
1-9 Funk ‘N’ Bop (7” Version) 3:53
1-10 How’s Your Loose Booty 5:40
1-11 Electric Hot Dog (Red Hot) 4:31
1-12 Funk Rock 4:28
1-13 #7 4:51
1-14 #8 5:44

Funk Plus The One
2-1 Will It Be Tomorrow? 3:23
2-2 Anti-Disco 4:35
2-3 Don’t Bust The Groove 4:09
2-4 Romeo Take 2 1:16
2-5 Reality 4:03
2-6 Semi-First Class Seat 6:29
2-7 One On One 4:38
2-8 The Ballard Of Capt. Hymbad 4:03
2-9 Will It Be Tomorrow? (Reprise) 1:30
Bonus Tracks
2-10 Semi-First Class Seat (7” Version) 4:08
2-11 The Rock 4:05
2-12 Sssh 5:25

Exact Audio Copy V1.0 beta 3 from 29. August 2011

EAC extraction logfile from 17. April 2015, 19:13

Mutiny / Mutiny On The Mamaship / Funk Plus The One

Used drive : ATAPI DVD A DH16A1S Adapter: 2 ID: 1

Read mode : Secure
Utilize accurate stream : Yes
Defeat audio cache : Yes
Make use of C2 pointers : No

Read offset correction : 6
Overread into Lead-In and Lead-Out : No
Fill up missing offset samples with silence : Yes
Delete leading and trailing silent blocks : No
Null samples used in CRC calculations : Yes
Used interface : Native Win32 interface for Win NT & 2000
Gap handling : Appended to previous track

Used output format : User Defined Encoder
Selected bitrate : 1024 kBit/s
Quality : High
Add ID3 tag : No
Command line compressor : H:\Programs\Flac\flac.exe
Additional command line options : -8 -V -T "ARTIST=%artist%" -T "TITLE=%title%" -T "ALBUM=%albumtitle%" -T "DATE=%year%" -T "TRACKNUMBER=%tracknr%" -T "GENRE=%genre%" -T "PERFORMER=%albuminterpret%" -T "COMPOSER=%composer%" %haslyrics%–tag-from-file=LYRICS="%lyricsfile%"%haslyrics% -T "ALBUMARTIST=%albumartist%" -T "DISCNUMBER=%cdnumber%" -T "TOTALDISCS=%totalcds%" -T "TOTALTRACKS=%numtracks%" -T "COMMENT=%comment%" %source% -o %dest%


TOC of the extracted CD

Track | Start | Length | Start sector | End sector
––––––––––––––––––––––––––––-
1 | 0:00.00 | 3:25.12 | 0 | 15386
2 | 3:25.12 | 4:36.64 | 15387 | 36150
3 | 8:02.01 | 4:11.23 | 36151 | 54998
4 | 12:13.24 | 1:18.22 | 54999 | 60870
5 | 13:31.46 | 4:03.64 | 60871 | 79159
6 | 17:35.35 | 6:30.02 | 79160 | 108411
7 | 24:05.37 | 4:40.32 | 108412 | 129443
8 | 28:45.69 | 4:03.73 | 129444 | 147741
9 | 32:49.67 | 1:30.40 | 147742 | 154531
10 | 34:20.32 | 4:10.05 | 154532 | 173286
11 | 38:30.37 | 4:07.19 | 173287 | 191830
12 | 42:37.56 | 5:26.27 | 191831 | 216307


Track 1

Filename H:\EAC Rips\Mutiny - Mutiny On The Mamaship, Funk Plus The One (2015) [FLAC]\2\01 - Will It Be Tomorrow.wav

Pre-gap length 0:00:02.00

Peak level 100.0 %
Extraction speed 1.7 X
Track quality 99.9 %
Test CRC 79779529
Copy CRC 79779529
Track not present in AccurateRip database
Copy OK

Track 2

Filename H:\EAC Rips\Mutiny - Mutiny On The Mamaship, Funk Plus The One (2015) [FLAC]\2\02 - Anti-Disco.wav

Pre-gap length 0:00:01.42

Peak level 98.2 %
Extraction speed 2.0 X
Track quality 99.9 %
Test CRC 8F178EC3
Copy CRC 8F178EC3
Track not present in AccurateRip database
Copy OK

Track 3

Filename H:\EAC Rips\Mutiny - Mutiny On The Mamaship, Funk Plus The One (2015) [FLAC]\2\03 - Don’t Bust the Groove.wav

Pre-gap length 0:00:01.42

Peak level 99.1 %
Extraction speed 2.1 X
Track quality 99.9 %
Test CRC A6D8A0F6
Copy CRC A6D8A0F6
Track not present in AccurateRip database
Copy OK

Track 4

Filename H:\EAC Rips\Mutiny - Mutiny On The Mamaship, Funk Plus The One (2015) [FLAC]\2\04 - Romeo, Take 2.wav

Pre-gap length 0:00:01.42

Peak level 97.5 %
Extraction speed 2.0 X
Track quality 100.0 %
Test CRC 24F5799F
Copy CRC 24F5799F
Track not present in AccurateRip database
Copy OK

Track 5

Filename H:\EAC Rips\Mutiny - Mutiny On The Mamaship, Funk Plus The One (2015) [FLAC]\2\05 - Reality.wav

Pre-gap length 0:00:01.42

Peak level 100.0 %
Extraction speed 2.6 X
Track quality 100.0 %
Test CRC E7939922
Copy CRC E7939922
Track not present in AccurateRip database
Copy OK

Track 6

Filename H:\EAC Rips\Mutiny - Mutiny On The Mamaship, Funk Plus The One (2015) [FLAC]\2\06 - Semi-First Class Seat.wav

Pre-gap length 0:00:01.42

Peak level 99.6 %
Extraction speed 3.0 X
Track quality 100.0 %
Test CRC 386A0591
Copy CRC 386A0591
Track not present in AccurateRip database
Copy OK

Track 7

Filename H:\EAC Rips\Mutiny - Mutiny On The Mamaship, Funk Plus The One (2015) [FLAC]\2\07 - One On One.wav

Pre-gap length 0:00:01.42

Peak level 100.0 %
Extraction speed 3.1 X
Track quality 100.0 %
Test CRC 946669ED
Copy CRC 946669ED
Track not present in AccurateRip database
Copy OK

Track 8

Filename H:\EAC Rips\Mutiny - Mutiny On The Mamaship, Funk Plus The One (2015) [FLAC]\2\08 - The Ballard Of Capt. Hymbad.wav

Pre-gap length 0:00:01.42

Peak level 98.6 %
Extraction speed 3.1 X
Track quality 100.0 %
Test CRC 2137D3B4
Copy CRC 2137D3B4
Track not present in AccurateRip database
Copy OK

Track 9

Filename H:\EAC Rips\Mutiny - Mutiny On The Mamaship, Funk Plus The One (2015) [FLAC]\2\09 - Will It Be Tomorrow (Reprise).wav

Pre-gap length 0:00:01.42

Peak level 94.9 %
Extraction speed 2.7 X
Track quality 100.0 %
Test CRC 87054994
Copy CRC 87054994
Track not present in AccurateRip database
Copy OK

Track 10

Filename H:\EAC Rips\Mutiny - Mutiny On The Mamaship, Funk Plus The One (2015) [FLAC]\2\10 - Semi-First Class Seat (7” Version).wav

Pre-gap length 0:00:01.42

Peak level 99.6 %
Extraction speed 3.3 X
Track quality 100.0 %
Test CRC 59CF5186
Copy CRC 59CF5186
Track not present in AccurateRip database
Copy OK

Track 11

Filename H:\EAC Rips\Mutiny - Mutiny On The Mamaship, Funk Plus The One (2015) [FLAC]\2\11 - The Rock.wav

Pre-gap length 0:00:01.38

Peak level 100.0 %
Extraction speed 3.4 X
Track quality 100.0 %
Test CRC C10C9D74
Copy CRC C10C9D74
Track not present in AccurateRip database
Copy OK

Track 12

Filename H:\EAC Rips\Mutiny - Mutiny On The Mamaship, Funk Plus The One (2015) [FLAC]\2\12 - SSSH.wav

Pre-gap length 0:00:01.42

Peak level 100.0 %
Extraction speed 2.9 X
Track quality 99.9 %
Test CRC 47917B5E
Copy CRC 47917B5E
Track not present in AccurateRip database
Copy OK


None of the tracks are present in the AccurateRip database

No errors occurred

End of status report

–– CUETools DB Plugin V2.1.3

[CTDB TOCID: _3dkRQN6BMd6BTS_Jm2L.aInfXw-] disk not present in database, Submit result: _3dkRQN6BMd6BTS_Jm2L.aInfXw- has been uploaded


==== Log checksum 3F6DF3E6987365A74952C3F31150157023CB271202F74ED17B7A538EBD25CDD0 ====

Exact Audio Copy V1.0 beta 3 from 29. August 2011

EAC extraction logfile from 17. April 2015, 17:05

Mutiny / Mutiny On The Mamaship / Funk Plus The One

Used drive : ATAPI DVD A DH16A1S Adapter: 2 ID: 1

Read mode : Secure
Utilize accurate stream : Yes
Defeat audio cache : Yes
Make use of C2 pointers : No

Read offset correction : 6
Overread into Lead-In and Lead-Out : No
Fill up missing offset samples with silence : Yes
Delete leading and trailing silent blocks : No
Null samples used in CRC calculations : Yes
Used interface : Native Win32 interface for Win NT & 2000
Gap handling : Appended to previous track

Used output format : User Defined Encoder
Selected bitrate : 1024 kBit/s
Quality : High
Add ID3 tag : No
Command line compressor : H:\Programs\Flac\flac.exe
Additional command line options : -8 -V -T "ARTIST=%artist%" -T "TITLE=%title%" -T "ALBUM=%albumtitle%" -T "DATE=%year%" -T "TRACKNUMBER=%tracknr%" -T "GENRE=%genre%" -T "PERFORMER=%albuminterpret%" -T "COMPOSER=%composer%" %haslyrics%–tag-from-file=LYRICS="%lyricsfile%"%haslyrics% -T "ALBUMARTIST=%albumartist%" -T "DISCNUMBER=%cdnumber%" -T "TOTALDISCS=%totalcds%" -T "TOTALTRACKS=%numtracks%" -T "COMMENT=%comment%" %source% -o %dest%


TOC of the extracted CD

Track | Start | Length | Start sector | End sector
––––––––––––––––––––––––––––-
1 | 0:00.00 | 4:14.08 | 0 | 19057
2 | 4:14.08 | 4:34.73 | 19058 | 39680
3 | 8:49.06 | 4:37.22 | 39681 | 60477
4 | 13:26.28 | 4:19.09 | 60478 | 79911
5 | 17:45.37 | 4:09.74 | 79912 | 98660
6 | 21:55.36 | 4:04.08 | 98661 | 116968
7 | 25:59.44 | 4:00.19 | 116969 | 134987
8 | 29:59.63 | 5:07.44 | 134988 | 158056
9 | 35:07.32 | 3:53.37 | 158057 | 175568
10 | 39:00.69 | 5:42.28 | 175569 | 201246
11 | 44:43.22 | 4:33.41 | 201247 | 221762
12 | 49:16.63 | 4:30.61 | 221763 | 242073
13 | 53:47.49 | 4:52.56 | 242074 | 264029
14 | 58:40.30 | 5:43.59 | 264030 | 289813


Track 1

Filename H:\EAC Rips\Mutiny - Mutiny On The Mamaship, Funk Plus The One (2015) [FLAC]\1\01 - Go Away from Here.wav

Pre-gap length 0:00:02.00

Peak level 98.6 %
Extraction speed 2.0 X
Track quality 100.0 %
Test CRC A4A8CFEA
Copy CRC A4A8CFEA
Track not present in AccurateRip database
Copy OK

Track 2

Filename H:\EAC Rips\Mutiny - Mutiny On The Mamaship, Funk Plus The One (2015) [FLAC]\1\02 - What More Can I Say.wav

Pre-gap length 0:00:01.42

Peak level 98.2 %
Extraction speed 2.3 X
Track quality 100.0 %
Test CRC F16F35AE
Copy CRC F16F35AE
Track not present in AccurateRip database
Copy OK

Track 3

Filename H:\EAC Rips\Mutiny - Mutiny On The Mamaship, Funk Plus The One (2015) [FLAC]\1\03 - Lump.wav

Pre-gap length 0:00:01.42

Peak level 98.3 %
Extraction speed 2.5 X
Track quality 100.0 %
Test CRC 19AED148
Copy CRC 19AED148
Track not present in AccurateRip database
Copy OK

Track 4

Filename H:\EAC Rips\Mutiny - Mutiny On The Mamaship, Funk Plus The One (2015) [FLAC]\1\04 - Funk 'N' Bop.wav

Pre-gap length 0:00:01.42

Peak level 99.5 %
Extraction speed 2.6 X
Track quality 100.0 %
Test CRC 5029383C
Copy CRC 5029383C
Track not present in AccurateRip database
Copy OK

Track 5

Filename H:\EAC Rips\Mutiny - Mutiny On The Mamaship, Funk Plus The One (2015) [FLAC]\1\05 - Burning Up.wav

Pre-gap length 0:00:01.42

Peak level 99.2 %
Extraction speed 2.3 X
Track quality 99.9 %
Test CRC 29D2387D
Copy CRC 29D2387D
Track not present in AccurateRip database
Copy OK

Track 6

Filename H:\EAC Rips\Mutiny - Mutiny On The Mamaship, Funk Plus The One (2015) [FLAC]\1\06 - Voyage to the Bottom of the ''P''.wav

Pre-gap length 0:00:01.42

Peak level 99.1 %
Extraction speed 2.9 X
Track quality 100.0 %
Test CRC 0C64F519
Copy CRC 0C64F519
Track not present in AccurateRip database
Copy OK

Track 7

Filename H:\EAC Rips\Mutiny - Mutiny On The Mamaship, Funk Plus The One (2015) [FLAC]\1\07 - Everytime You Come Around.wav

Pre-gap length 0:00:01.42

Peak level 97.8 %
Extraction speed 3.0 X
Track quality 100.0 %
Test CRC FDA8B97A
Copy CRC FDA8B97A
Track not present in AccurateRip database
Copy OK

Track 8

Filename H:\EAC Rips\Mutiny - Mutiny On The Mamaship, Funk Plus The One (2015) [FLAC]\1\08 - Romeo (Hope You're Feeling Better).wav

Pre-gap length 0:00:01.42

Peak level 98.4 %
Extraction speed 3.3 X
Track quality 100.0 %
Test CRC DA7FDA3D
Copy CRC DA7FDA3D
Track not present in AccurateRip database
Copy OK

Track 9

Filename H:\EAC Rips\Mutiny - Mutiny On The Mamaship, Funk Plus The One (2015) [FLAC]\1\09 - Funk 'N' Bop.wav

Pre-gap length 0:00:01.42

Peak level 98.5 %
Extraction speed 3.3 X
Track quality 100.0 %
Test CRC 3BA724FE
Copy CRC 3BA724FE
Track not present in AccurateRip database
Copy OK

Track 10

Filename H:\EAC Rips\Mutiny - Mutiny On The Mamaship, Funk Plus The One (2015) [FLAC]\1\10 - How's Your Loose Booty.wav

Pre-gap length 0:00:01.42

Peak level 99.0 %
Extraction speed 3.6 X
Track quality 100.0 %
Test CRC 96DBDEC4
Copy CRC 96DBDEC4
Track not present in AccurateRip database
Copy OK

Track 11

Filename H:\EAC Rips\Mutiny - Mutiny On The Mamaship, Funk Plus The One (2015) [FLAC]\1\11 - Electric Hot Dog (Red Hot).wav

Pre-gap length 0:00:01.42

Peak level 99.2 %
Extraction speed 2.8 X
Track quality 99.9 %
Test CRC A2547E5E
Copy CRC A2547E5E
Track not present in AccurateRip database
Copy OK

Track 12

Filename H:\EAC Rips\Mutiny - Mutiny On The Mamaship, Funk Plus The One (2015) [FLAC]\1\12 - Funk Rock.wav

Pre-gap length 0:00:01.42

Peak level 100.0 %
Extraction speed 3.8 X
Track quality 100.0 %
Test CRC 8795A5FC
Copy CRC 8795A5FC
Track not present in AccurateRip database
Copy OK

Track 13

Filename H:\EAC Rips\Mutiny - Mutiny On The Mamaship, Funk Plus The One (2015) [FLAC]\1\13 - #7.wav

Pre-gap length 0:00:01.42

Peak level 97.6 %
Extraction speed 3.9 X
Track quality 100.0 %
Test CRC 257C7E82
Copy CRC 257C7E82
Track not present in AccurateRip database
Copy OK

Track 14

Filename H:\EAC Rips\Mutiny - Mutiny On The Mamaship, Funk Plus The One (2015) [FLAC]\1\14 - #8.wav

Pre-gap length 0:00:01.42

Peak level 100.0 %
Extraction speed 4.2 X
Track quality 100.0 %
Test CRC 81EB1684
Copy CRC 81EB1684
Track not present in AccurateRip database
Copy OK


None of the tracks are present in the AccurateRip database

No errors occurred

End of status report

–– CUETools DB Plugin V2.1.3

[CTDB TOCID: Yy68RzPqwDY3oJRWu2ZLooJGs5M-] disk not present in database, Submit result: Yy68RzPqwDY3oJRWu2ZLooJGs5M- has been uploaded


==== Log checksum 8F5172E1020D5292BC7DCCA4843C45709C27DA6665989DAA0EE7E1F2FCE7B1A9 ====

Thanks to the Original ripper funkyman !