Subcategories

Neneh Cherry - Broken Politics (2018)

Posted By: delpotro
Neneh Cherry - Broken Politics (2018)

Neneh Cherry - Broken Politics (2018)
EAC Rip | FLAC (tracks+log+.cue) - 274 Mb | MP3 CBR 320 kbps - 106 Mb | Artwork included | 00:46:07
Pop, Electronic, Female Vocal | Label: Smalltown Supersound, AWAL Recordings

Following the release of her first earth-quaking single in 4 years at the beginning of August, counter-culture pop icon Neneh Cherry announces her fifth solo album Broken Politics, produced in its entirety by Four Tet.

Continuing her blurring and conflation of the personal and the political, the second single Shot Gun Shack tackles the link between violence and deprivation using poetic logic. The track deals with the ever-present and always-global issue of gun violence in society. The track's name was the result of inspiration that sprung from a half-remembered conversation Cherry had at the funeral of late jazz great Ornette Coleman.

Broken Politics pointedly asks the question; how do we conduct ourselves in extraordinary times? In an era where the signal-to-noise ratio is more uneven than ever, what are the measures we must take to retain and remember our own personhood? It searches for answers, patiently and with great care, and with a fearlessness to acknowledge that sometimes the answers don't even exist. It’s a record that’s equal parts angry, thoughtful, melancholy, and emboldening, as Cherry and her collaborators continue to expand her ever-widening sonic palette to craft truly singular and potent music.
Tracklist:
1. Fallen Leaves (03:19)
2. Kong (04:24)
3. Poem Daddy (00:48)
4. Synchronised Devotion (04:07)
5. Deep Vein Thrombosis (04:31)
6. Faster Than the Truth (03:47)
7. Natural Skin Deep (04:41)
8. Shot Gun Shack (03:57)
9. Black Monday (04:42)
10. Cheap Breakfast Special (01:09)
11. Slow Release (05:42)
12. Soldier (04:54)

Exact Audio Copy V1.3 from 2. September 2016

EAC extraction logfile from 5. June 2019, 18:50

Neneh Cherry / Broken Politics

Used drive : ASUS BW-16D1HT Adapter: 1 ID: 0

Read mode : Secure
Utilize accurate stream : Yes
Defeat audio cache : Yes
Make use of C2 pointers : No

Read offset correction : 6
Overread into Lead-In and Lead-Out : No
Fill up missing offset samples with silence : Yes
Delete leading and trailing silent blocks : No
Null samples used in CRC calculations : Yes
Used interface : Native Win32 interface for Win NT & 2000
Gap handling : Appended to previous track

Used output format : User Defined Encoder
Selected bitrate : 1024 kBit/s
Quality : High
Add ID3 tag : No
Command line compressor : C:\Program Files (x86)\Exact Audio Copy\Flac\flac.exe
Additional command line options : -8 -e -V -T "ARTIST=%artist%" -T "TITLE=%title%" -T "ALBUM=%albumtitle%" -T "DATE=%year%" -T "TRACKNUMBER=%tracknr%" -T "GENRE=%genre%" -T "PERFORMER=%albuminterpret%" -T "COMPOSER=%composer%" %haslyrics%–tag-from-file=LYRICS="%lyricsfile%"%haslyrics% -T "ALBUMARTIST=%albumartist%" -T "DISCNUMBER=%cdnumber%" -T "TOTALDISCS=%totalcds%" -T "TOTALTRACKS=%numtracks%" -T "COMMENT=%comment%" %source% -o %dest%


TOC of the extracted CD

Track | Start | Length | Start sector | End sector
––––––––––––––––––––––––––––-
1 | 0:00.00 | 3:19.61 | 0 | 14985
2 | 3:19.61 | 4:24.60 | 14986 | 34845
3 | 7:44.46 | 0:48.71 | 34846 | 38516
4 | 8:33.42 | 4:07.44 | 38517 | 57085
5 | 12:41.11 | 4:31.46 | 57086 | 77456
6 | 17:12.57 | 3:47.36 | 77457 | 94517
7 | 21:00.18 | 4:41.20 | 94518 | 115612
8 | 25:41.38 | 3:57.72 | 115613 | 133459
9 | 29:39.35 | 4:42.01 | 133460 | 154610
10 | 34:21.36 | 1:09.15 | 154611 | 159800
11 | 35:30.51 | 5:42.23 | 159801 | 185473
12 | 41:12.74 | 4:54.68 | 185474 | 207591


Track 1

Filename K:\Musique\Broken Politics\01 - Fallen Leaves.wav

Pre-gap length 0:00:02.00

Peak level 100.0 %
Extraction speed 1.3 X
Track quality 99.9 %
Test CRC 19F6C052
Copy CRC 19F6C052
Accurately ripped (confidence 40) [483A8B28] (AR v2)
Copy OK

Track 2

Filename K:\Musique\Broken Politics\02 - Kong.wav

Peak level 100.0 %
Extraction speed 2.2 X
Track quality 100.0 %
Test CRC 72FCB183
Copy CRC 72FCB183
Accurately ripped (confidence 40) [320371EB] (AR v2)
Copy OK

Track 3

Filename K:\Musique\Broken Politics\03 - Poem Daddy.wav

Peak level 51.2 %
Extraction speed 1.5 X
Track quality 100.0 %
Test CRC 3B863950
Copy CRC 3B863950
Accurately ripped (confidence 39) [6B93B301] (AR v2)
Copy OK

Track 4

Filename K:\Musique\Broken Politics\04 - Synchronised Devotion.wav

Peak level 100.0 %
Extraction speed 2.4 X
Track quality 100.0 %
Test CRC 0B320556
Copy CRC 0B320556
Accurately ripped (confidence 39) [3481F587] (AR v2)
Copy OK

Track 5

Filename K:\Musique\Broken Politics\05 - Deep Vein Thrombosis.wav

Peak level 100.0 %
Extraction speed 2.6 X
Track quality 100.0 %
Test CRC 5DD85FBF
Copy CRC 5DD85FBF
Accurately ripped (confidence 39) [6FE506CB] (AR v2)
Copy OK

Track 6

Filename K:\Musique\Broken Politics\06 - Faster Than the Truth.wav

Peak level 100.0 %
Extraction speed 2.7 X
Track quality 100.0 %
Test CRC 3C3B5B96
Copy CRC 3C3B5B96
Accurately ripped (confidence 39) [341436D6] (AR v2)
Copy OK

Track 7

Filename K:\Musique\Broken Politics\07 - Natural Skin Deep.wav

Peak level 100.0 %
Extraction speed 3.0 X
Track quality 100.0 %
Test CRC 8B43350F
Copy CRC 8B43350F
Accurately ripped (confidence 40) [883CF4A9] (AR v2)
Copy OK

Track 8

Filename K:\Musique\Broken Politics\08 - Shot Gun Shack.wav

Peak level 100.0 %
Extraction speed 2.9 X
Track quality 100.0 %
Test CRC 38663680
Copy CRC 38663680
Accurately ripped (confidence 39) [D6F673A9] (AR v2)
Copy OK

Track 9

Filename K:\Musique\Broken Politics\09 - Black Monday.wav

Peak level 100.0 %
Extraction speed 3.3 X
Track quality 100.0 %
Test CRC 17032902
Copy CRC 17032902
Accurately ripped (confidence 39) [E002B096] (AR v2)
Copy OK

Track 10

Filename K:\Musique\Broken Politics\10 - Cheap Breakfast Special.wav

Peak level 45.2 %
Extraction speed 2.5 X
Track quality 100.0 %
Test CRC CD13EBEC
Copy CRC CD13EBEC
Accurately ripped (confidence 39) [04FB098C] (AR v2)
Copy OK

Track 11

Filename K:\Musique\Broken Politics\11 - Slow Release.wav

Peak level 100.0 %
Extraction speed 2.8 X
Track quality 99.9 %
Test CRC FADCE35D
Copy CRC FADCE35D
Accurately ripped (confidence 39) [49E739D7] (AR v2)
Copy OK

Track 12

Filename K:\Musique\Broken Politics\12 - Soldier.wav

Peak level 100.0 %
Extraction speed 3.7 X
Track quality 100.0 %
Test CRC 51BAF904
Copy CRC 51BAF904
Accurately ripped (confidence 39) [EFB431A3] (AR v2)
Copy OK


All tracks accurately ripped

No errors occurred

End of status report

–– CUETools DB Plugin V2.1.6

[CTDB TOCID: Fw2IouKg1eElbWlJTeDJht9aP6Q-] found
Submit result: Fw2IouKg1eElbWlJTeDJht9aP6Q- has been confirmed
Track | CTDB Status
1 | (150/151) Accurately ripped
2 | (149/151) Accurately ripped
3 | (150/151) Accurately ripped
4 | (150/151) Accurately ripped
5 | (150/151) Accurately ripped
6 | (150/151) Accurately ripped
7 | (150/151) Accurately ripped
8 | (150/151) Accurately ripped
9 | (149/151) Accurately ripped
10 | (150/151) Accurately ripped
11 | (150/151) Accurately ripped
12 | (149/151) Accurately ripped


==== Log checksum BF64A2BD79C660AB51AFA461EF0F9376E06C04784AE44CD9CEDBD7C8BF40CFD2 ====

Thanks to the Original ripper !