Subcategories

Nick Mazzarella & Tomeka Reid - Signaling (2017)

Posted By: Domestos
Nick Mazzarella & Tomeka Reid - Signaling (2017)

Nick Mazzarella & Tomeka Reid - Signaling (2017)
EAC Rip | FLAC (tracks+.cue, log) ~ 172.99 Mb | 39:01 | Covers
Free Improvisation, Avant-Garde Jazz | Label: Nessa Records - ncd-39

On this captivating, fully-improvised duo recording by alto saxophonist Nick Mazzarella and cellist Tomeka Reid, we find a superlative example of two leading-edge musicians who continue to draw vital inspiration from their forbears. Reid, a contributing member of the hugely influential Association for the Advancement of Creative Musicians (AACM), has previously paid tribute to some of the titans of that organization—figures such as Muhal Richard Abrams, Leroy Jenkins, Roscoe Mitchell, and Fred Anderson—with Artifacts, her superb 2015 trio release with Nicole Mitchell and Mike Reed.

Mazzarella, whose work has included stints with Ken Vandermark's Chicago Reed Quartet and Audio One projects, has similarly acknowledged his debt to pivotal altoists such as Eric Dolphy, Ornette Coleman, and Julius Hemphill. Indeed, from the opening track of Signaling, "Blues for Julius and Abdul," their dedicatory homage to Hemphill and his long-standing musical partner, cellist Abdul Wadud, it's clear that Mazzarella and Reid have immersed themselves in the waters of 1970s and 1980s avant-garde jazz. The results are invigorating and inspiring.
Both players have impeccable technique: Reid is equally proficient at stirring arco phrases and dynamic pizzicato attacks, while Mazzarella can deliver frenzied upper-register passages at astonishing speed. But on this release it's the melodic contours of their playing that really stand out. Listening to Mazzarella's yearning phrases on "Blues for Julius and Abdul," one is reminded of Hemphill's own steadfast dedication to melody and groove—an enduring feature of even his most outward-bound playing. Even when pushing himself to the limit, as on the impassioned, rapid-fire dialogue on "Interstices," or his strenuous overblowing on "Rediscovery of an Age," Mazzarella's strong musical core is never far from the surface.
Reid brings the same sensibility to her playing throughout the record. With exceptional command over her instrument, her generosity enables her to sustain the rapport that characterizes the most transcendent tracks on the record, like the mysterious, pulsing "Like So Many Drops of Water," or "Invoking a Spirit," the ethereal closer. Just listen to the spare accompaniment she provides on the hypnotic "The Ancestors Speak": as Mazzarella teases out agonizingly slow, languorous notes, Reid's understated yet insistent pizzicato offers the perfect support, helping to build a gradual intensity until the piece reaches its culmination and Mazzarella's alto finally diminishes and subsides.
It is a delight to hear the spirit of the some of the most formative years of avant-garde jazz advanced with such skill and reverence by these two outstanding improvisers. Both do justice to their musical forerunners' legacy with music that is both beautiful and expertly played. ~ Review by Troy Dostert

Nick Mazzarella - alto saxophone
Tomeka Reid - cello

Recorded Fox Hall Studio, Chicago, IL on April 17, 2015.

Track List:
01. Blues for Julius and Abdul (5:01)
02. Signaling (3:51)
03. Like So Many Drops of Water (4:01)
04. Interstices (2:10)
05. The Ancestors Speak (4:22)
06. Topographies (7:30)
07. Rediscovery of an Age (4:34)
08. Let It Be Known (5:18)
09. Invoking a Spirit (2:14)

Nick Mazzarella & Tomeka Reid - Signaling (2017)

Exact Audio Copy V1.3 from 2. September 2016

EAC extraction logfile from 23. October 2017, 14:06

Nick Mazzarella & Tomeka Reid / Signaling

Used drive : HL-DT-STBD-RE BH10LS30 Adapter: 1 ID: 0

Read mode : Secure
Utilize accurate stream : Yes
Defeat audio cache : Yes
Make use of C2 pointers : No

Read offset correction : 667
Overread into Lead-In and Lead-Out : No
Fill up missing offset samples with silence : Yes
Delete leading and trailing silent blocks : No
Null samples used in CRC calculations : Yes
Used interface : Native Win32 interface for Win NT & 2000
Gap handling : Appended to previous track

Used output format : User Defined Encoder
Selected bitrate : 1024 kBit/s
Quality : High
Add ID3 tag : No
Command line compressor : C:\Program Files (x86)\Exact Audio Copy\FLAC\FLAC.EXE
Additional command line options : -8 -e -p -V -T "ARTIST=%artist%" -T "TITLE=%title%" -T "ALBUM=%albumtitle%" -T "DATE=%year%" -T "TRACKNUMBER=%tracknr%" -T "GENRE=%genre%" -T "PERFORMER=%albuminterpret%" -T "COMPOSER=%composer%" %haslyrics%–tag-from-file=LYRICS="%lyricsfile%"%haslyrics% -T "ALBUMARTIST=%albumartist%" -T "DISCNUMBER=%cdnumber%" -T "TOTALDISCS=%totalcds%" -T "TOTALTRACKS=%numtracks%" -T "COMMENT=%comment%" %source% -o %dest%

TOC of the extracted CD

Track | Start | Length | Start sector | End sector
––––––––––––––––––––––––––––-
1 | 0:00.00 | 5:01.15 | 0 | 22589
2 | 5:01.15 | 3:50.54 | 22590 | 39893
3 | 8:51.69 | 4:00.68 | 39894 | 57961
4 | 12:52.62 | 2:10.04 | 57962 | 67715
5 | 15:02.66 | 4:22.28 | 67716 | 87393
6 | 19:25.19 | 7:30.19 | 87394 | 121162
7 | 26:55.38 | 4:34.20 | 121163 | 141732
8 | 31:29.58 | 5:17.53 | 141733 | 165560
9 | 36:47.36 | 2:13.56 | 165561 | 175591

Track 1

Filename C:\rips\Nick Mazzarella & Tomeka Reid - 2017 - Signaling\01 Blues for Julius and Abdul.wav

Pre-gap length 0:00:02.00

Peak level 88.8 %
Extraction speed 5.0 X
Track quality 100.0 %
Test CRC D4F99F5B
Copy CRC D4F99F5B
Track not present in AccurateRip database
Copy OK

Track 2

Filename C:\rips\Nick Mazzarella & Tomeka Reid - 2017 - Signaling\02 Signaling.wav

Pre-gap length 0:00:04.00

Peak level 89.2 %
Extraction speed 4.5 X
Track quality 99.9 %
Test CRC F4F5495B
Copy CRC F4F5495B
Track not present in AccurateRip database
Copy OK

Track 3

Filename C:\rips\Nick Mazzarella & Tomeka Reid - 2017 - Signaling\03 Like So Many Drops of Water.wav

Peak level 89.0 %
Extraction speed 5.9 X
Track quality 100.0 %
Test CRC E3BD198F
Copy CRC E3BD198F
Track not present in AccurateRip database
Copy OK

Track 4

Filename C:\rips\Nick Mazzarella & Tomeka Reid - 2017 - Signaling\04 Interstices.wav

Pre-gap length 0:00:04.00

Peak level 89.2 %
Extraction speed 5.5 X
Track quality 100.0 %
Test CRC 8C5CC1F2
Copy CRC 8C5CC1F2
Track not present in AccurateRip database
Copy OK

Track 5

Filename C:\rips\Nick Mazzarella & Tomeka Reid - 2017 - Signaling\05 The Ancestors Speak.wav

Pre-gap length 0:00:04.00

Peak level 89.0 %
Extraction speed 6.6 X
Track quality 100.0 %
Test CRC C239847C
Copy CRC C239847C
Track not present in AccurateRip database
Copy OK

Track 6

Filename C:\rips\Nick Mazzarella & Tomeka Reid - 2017 - Signaling\06 Topographies.wav

Pre-gap length 0:00:04.00

Peak level 89.1 %
Extraction speed 7.5 X
Track quality 100.0 %
Test CRC B8C12D15
Copy CRC B8C12D15
Track not present in AccurateRip database
Copy OK

Track 7

Filename C:\rips\Nick Mazzarella & Tomeka Reid - 2017 - Signaling\07 Rediscovery of an Age.wav

Pre-gap length 0:00:04.00

Peak level 89.1 %
Extraction speed 7.6 X
Track quality 100.0 %
Test CRC EBBF6891
Copy CRC EBBF6891
Track not present in AccurateRip database
Copy OK

Track 8

Filename C:\rips\Nick Mazzarella & Tomeka Reid - 2017 - Signaling\08 Let It Be Known.wav

Pre-gap length 0:00:04.00

Peak level 89.2 %
Extraction speed 7.1 X
Track quality 99.9 %
Test CRC 4AB6DE78
Copy CRC 4AB6DE78
Track not present in AccurateRip database
Copy OK

Track 9

Filename C:\rips\Nick Mazzarella & Tomeka Reid - 2017 - Signaling\09 Invoking a Spirit.wav

Pre-gap length 0:00:04.00

Peak level 88.4 %
Extraction speed 7.2 X
Track quality 100.0 %
Test CRC E1C6B436
Copy CRC E1C6B436
Track not present in AccurateRip database
Copy OK

None of the tracks are present in the AccurateRip database

No errors occurred

End of status report

==== Log checksum AB037F217129FC1687DBEF25CB643EC4BF7B03C45101A5B38A56D40C14A979FF ====

All thanks go to the shiftingstill

More Music in My Blog
Follow My RSS Channel