Subcategories

Nina Hagen - Bee Happy (1996) {RCA-Ariola}

Posted By: ruskaval
Nina Hagen - Bee Happy (1996) {RCA-Ariola}

Nina Hagen - Bee Happy (1996) {RCA-Ariola}
EAC rip (secure mode) | FLAC (tracks)+CUE+LOG -> 301 Mb | MP3 @320 -> 97 Mb
Full Artwork @ 600 dpi (png) -> 190 Mb | 5% repair rar
© 1996 RCA / BMG Ariola | 74321 36936 2
Rock / Post Punk / Alternative / Indie

Nina is VERY eclectic. At all of the concerts that I have attended, she has sung punk, opera, rock 'n' roll, blues, krishna chants, big band, and other styles. If you enjoy music as music, no matter what the style, then this CD captures that character of Nina– minus the opera. The first version of this CD, the German, Freud Euch, has two opera-style songs on it that aren't on this CD. There are a couple of other songs on this CD and not on Freud Euch: "Born To Die In Berlin" and "Shiva." This CD also sounds more like how the music sounds in concert, having less overdubs and production tweaks than Freud Euch. It sounds like it was produced for the American audience to give them an idea of what to expect from a live performance by her.
Nina Hagen - Bee Happy (1996) {RCA-Ariola}


tracklist:
01 - Runaway
02 - Giant Step
03 - Born To Die In Berlin
04 - Sunday Morning
05 - Shiva
06 - Barbed Wire
07 - Ska Thing
08 - The Art
09 - Zero Zero U.F.O.
10 - Freedom Fighter
11 - I Am Nina (Junkie)
12 - Star Girl
13 - Leave Me Alone
14 - Tiere

Exact Audio Copy V1.1 from 23. June 2015

EAC extraction logfile from 16. December 2016, 0:15

Nina Hagen / Bee Happy

Used drive : HL-DT-STDVDRAM GP50NW41 Adapter: 1 ID: 0

Read mode : Secure
Utilize accurate stream : Yes
Defeat audio cache : Yes
Make use of C2 pointers : No

Read offset correction : 6
Overread into Lead-In and Lead-Out : No
Fill up missing offset samples with silence : Yes
Delete leading and trailing silent blocks : No
Null samples used in CRC calculations : Yes
Used interface : Native Win32 interface for Win NT & 2000
Gap handling : Appended to previous track

Used output format : User Defined Encoder
Selected bitrate : 1024 kBit/s
Quality : High
Add ID3 tag : No
Command line compressor : C:\Program Files (x86)\FLAC Frontend\tools\flac.exe
Additional command line options : -8 -V -T "ARTIST=%artist%" -T "TITLE=%title%" -T "ALBUM=%albumtitle%" -T "DATE=%year%" -T "TRACKNUMBER=%tracknr%" -T "TOTALTRACKS=%numtracks%" -T "GENRE=%genre%" -T "ALBUMARTIST=%albumartist%" -T "ALBUM ARTIST=%albumartist%" -T "COMMENT=EAC Secure Mode, Test & Copy, AccurateRip, FLAC -8" %source%


TOC of the extracted CD

Track | Start | Length | Start sector | End sector
––––––––––––––––––––––––––––-
1 | 0:00.00 | 3:45.70 | 0 | 16944
2 | 3:45.70 | 3:05.55 | 16945 | 30874
3 | 6:51.50 | 3:20.02 | 30875 | 45876
4 | 10:11.52 | 2:55.08 | 45877 | 59009
5 | 13:06.60 | 4:16.52 | 59010 | 78261
6 | 17:23.37 | 3:31.48 | 78262 | 94134
7 | 20:55.10 | 2:03.12 | 94135 | 103371
8 | 22:58.22 | 3:05.25 | 103372 | 117271
9 | 26:03.47 | 2:36.40 | 117272 | 129011
10 | 28:40.12 | 3:16.13 | 129012 | 143724
11 | 31:56.25 | 1:21.27 | 143725 | 149826
12 | 33:17.52 | 2:50.33 | 149827 | 162609
13 | 36:08.10 | 1:52.50 | 162610 | 171059
14 | 38:00.60 | 3:27.57 | 171060 | 186641


Track 1

Filename D:\_EAC\Nina Hagen - Bee Happy (1996) [FLAC]\01 - Runaway.wav

Pre-gap length 0:00:02.00

Peak level 99.8 %
Extraction speed 2.6 X
Track quality 100.0 %
Test CRC 908AB30F
Copy CRC 908AB30F
Accurately ripped (confidence 4) [3F2E43A0] (AR v2)
Copy OK

Track 2

Filename D:\_EAC\Nina Hagen - Bee Happy (1996) [FLAC]\02 - Giant Step.wav

Pre-gap length 0:00:00.55

Peak level 99.9 %
Extraction speed 2.8 X
Track quality 100.0 %
Test CRC 65A2896F
Copy CRC 65A2896F
Accurately ripped (confidence 4) [277FBDEF] (AR v2)
Copy OK

Track 3

Filename D:\_EAC\Nina Hagen - Bee Happy (1996) [FLAC]\03 - Born To Die In Berlin.wav

Pre-gap length 0:00:02.15

Peak level 99.8 %
Extraction speed 3.0 X
Track quality 100.0 %
Test CRC EA81ADE4
Copy CRC EA81ADE4
Accurately ripped (confidence 4) [F8F7052B] (AR v2)
Copy OK

Track 4

Filename D:\_EAC\Nina Hagen - Bee Happy (1996) [FLAC]\04 - Sunday Morning.wav

Pre-gap length 0:00:02.15

Peak level 99.9 %
Extraction speed 3.2 X
Track quality 100.0 %
Test CRC 91B2D5C6
Copy CRC 91B2D5C6
Accurately ripped (confidence 4) [96CFF23D] (AR v2)
Copy OK

Track 5

Filename D:\_EAC\Nina Hagen - Bee Happy (1996) [FLAC]\05 - Shiva.wav

Pre-gap length 0:00:01.10

Peak level 99.9 %
Extraction speed 3.6 X
Track quality 100.0 %
Test CRC 14C3BD92
Copy CRC 14C3BD92
Accurately ripped (confidence 4) [C3D16FE5] (AR v2)
Copy OK

Track 6

Filename D:\_EAC\Nina Hagen - Bee Happy (1996) [FLAC]\06 - Barbed Wire.wav

Pre-gap length 0:00:01.50

Peak level 99.9 %
Extraction speed 3.8 X
Track quality 100.0 %
Test CRC 14D02F2A
Copy CRC 14D02F2A
Accurately ripped (confidence 4) [C84F0822] (AR v2)
Copy OK

Track 7

Filename D:\_EAC\Nina Hagen - Bee Happy (1996) [FLAC]\07 - Ska Thing.wav

Pre-gap length 0:00:01.18

Peak level 99.9 %
Extraction speed 2.5 X
Track quality 99.9 %
Test CRC 00879C70
Copy CRC 00879C70
Accurately ripped (confidence 4) [2EF4C41C] (AR v2)
Copy OK

Track 8

Filename D:\_EAC\Nina Hagen - Bee Happy (1996) [FLAC]\08 - The Art.wav

Pre-gap length 0:00:01.55

Peak level 99.8 %
Extraction speed 3.9 X
Track quality 100.0 %
Test CRC 2909654B
Copy CRC 2909654B
Accurately ripped (confidence 4) [C9C41268] (AR v2)
Copy OK

Track 9

Filename D:\_EAC\Nina Hagen - Bee Happy (1996) [FLAC]\09 - Zero Zero U.F.O..wav

Pre-gap length 0:00:00.70

Peak level 99.8 %
Extraction speed 3.9 X
Track quality 100.0 %
Test CRC C5E6B324
Copy CRC C5E6B324
Accurately ripped (confidence 4) [CD463972] (AR v2)
Copy OK

Track 10

Filename D:\_EAC\Nina Hagen - Bee Happy (1996) [FLAC]\10 - Freedom Fighter.wav

Pre-gap length 0:00:01.27

Peak level 99.9 %
Extraction speed 3.2 X
Track quality 99.9 %
Test CRC 7E8CAB43
Copy CRC 7E8CAB43
Accurately ripped (confidence 4) [66FE7DDA] (AR v2)
Copy OK

Track 11

Filename D:\_EAC\Nina Hagen - Bee Happy (1996) [FLAC]\11 - I Am Nina (Junkie).wav

Pre-gap length 0:00:02.58

Peak level 99.8 %
Extraction speed 3.5 X
Track quality 100.0 %
Test CRC 468DADC7
Copy CRC 468DADC7
Accurately ripped (confidence 4) [5F7393C0] (AR v2)
Copy OK

Track 12

Filename D:\_EAC\Nina Hagen - Bee Happy (1996) [FLAC]\12 - Star Girl.wav

Pre-gap length 0:00:02.10

Peak level 99.9 %
Extraction speed 4.3 X
Track quality 100.0 %
Test CRC 11EABDE7
Copy CRC 11EABDE7
Accurately ripped (confidence 4) [EE0DD48B] (AR v2)
Copy OK

Track 13

Filename D:\_EAC\Nina Hagen - Bee Happy (1996) [FLAC]\13 - Leave Me Alone.wav

Pre-gap length 0:00:02.00

Peak level 99.9 %
Extraction speed 4.1 X
Track quality 100.0 %
Test CRC C6FD8F96
Copy CRC C6FD8F96
Accurately ripped (confidence 4) [37987209] (AR v2)
Copy OK

Track 14

Filename D:\_EAC\Nina Hagen - Bee Happy (1996) [FLAC]\14 - Tiere.wav

Pre-gap length 0:00:02.00

Peak level 99.7 %
Extraction speed 4.6 X
Track quality 100.0 %
Test CRC AF098F0F
Copy CRC AF098F0F
Accurately ripped (confidence 4) [E501ED54] (AR v2)
Copy OK


All tracks accurately ripped

No errors occurred

End of status report

==== Log checksum F2AEFE973CE8A6E373EDAFDE4661F9ECAB9B5640D0FBDCF67098D4A5906C5425 ====


Nina Hagen - Bee Happy (1996) {RCA-Ariola}

Nina Hagen - Bee Happy (1996) {RCA-Ariola}


see also:
Nina Hagen - FreuD Euch (1995) {BMG Ariola 74321 32064 2}


===