Subcategories

Oliver Nelson & Nobuo Hara - In Tokyo (1970) {Nippon Columbia COCB-54079 rel 2013}

Posted By: ruskaval
Oliver Nelson & Nobuo Hara - In Tokyo (1970) {Nippon Columbia COCB-54079 rel 2013}

Oliver Nelson & Nobuo Hara - In Tokyo (1970) {Nippon Columbia COCB-54079 rel 2013}
EAC rip (secure mode) | FLAC (tracks)+CUE+LOG -> 247 Mb | MP3 @320 -> 99 Mb
Full Artwork @ 300 dpi (jpg) -> 19 Mb | 5% repair rar
© 1970, 2013 Nippon Columbia | COCB-54079
Jazz / Modern Big Band / Post-Bop / Saxophone

Oliver Nelson makes a great appearance here with the Sharps & Flats group of Nobuo Hara – an excellent Japanese ensemble who are clearly inspired by Nelson's soulful arrangements of the 60s! Oliver's the reed soloist on the album, not the leader – and it's great to hear him getting a bit of his own sort of treatment while stretching out as an individual voice – free to remind us that he's also a hell of a soloist when he wants to be, with reed talents that work perfectly with the larger sense of tone from the bigger group! Nelson plays soprano sax wonderfully on a few cuts.
Oliver Nelson & Nobuo Hara - In Tokyo (1970) {Nippon Columbia COCB-54079 rel 2013}


Musicians

Oliver Nelson - soprano & tenor saxes, arranger

Nobuo Hara & His Sharps & Flats
Shuzo Morikawa, Tokikazu Sumiyama, Yoshikazu Sumi, Hiroshi Sanami - trumpets
Tadao Taniyama, Hideo Kawaguchi, Tomoaki Hashizume, Masahiro Nakajima - trombones
Hajime Maekawa, Koji Suzuki - alto saxes
Nobuo Hara - tenor sax, conductor
Akio Nishimura - tenor sax
Noboyuki Morikawa - baritone sax
Sadayasu Fujii - piano
Takao Naoi - guitar
Hiroshi Takeuchi - bass
Yoshio Nakamura - drums

Recorded: September 4 & 7, 1970 Tokyo, Japan

Track Listing

01 - 'Round Midnight
02 - The shadow of your smile
03 - Yesterday
04 - My funny Valentine
05 - Scarborough fair
06 - Summertime
07 - Charade
08 - Autumn leaves
09 - How insensitive
10 - Sermonette

Exact Audio Copy V1.0 beta 3 from 29. August 2011

EAC extraction logfile from 23. October 2014, 13:50

Nobuo Hara with Oliver Nelson / In Tokyo

Used drive : ATAPI DVD A DH16ABSH Adapter: 2 ID: 1

Read mode : Secure
Utilize accurate stream : Yes
Defeat audio cache : Yes
Make use of C2 pointers : No

Read offset correction : 6
Overread into Lead-In and Lead-Out : No
Fill up missing offset samples with silence : Yes
Delete leading and trailing silent blocks : No
Null samples used in CRC calculations : Yes
Used interface : Native Win32 interface for Win NT & 2000
Gap handling : Appended to previous track

Used output format : User Defined Encoder
Selected bitrate : 128 kBit/s
Quality : High
Add ID3 tag : No
Command line compressor : C:\Program Files (x86)\Exact Audio Copy\FLAC\FLAC.EXE
Additional command line options : -8 -V -T "ARTIST=%artist%" -T "TITLE=%title%" -T "ALBUM=%albumtitle%" -T "DATE=%year%" -T "TRACKNUMBER=%tracknr%" -T "TOTALTRACKS=%numtracks%" -T "GENRE=%genre%" -T "ALBUMARTIST=%albumartist%" -T "ALBUM ARTIST=%albumartist%" -T "COMMENT=EAC Secure Mode, Test & Copy, AccurateRip, FLAC -8" %source%


TOC of the extracted CD

Track | Start | Length | Start sector | End sector
––––––––––––––––––––––––––––-
1 | 0:00.00 | 5:21.06 | 0 | 24080
2 | 5:21.06 | 4:02.44 | 24081 | 42274
3 | 9:23.50 | 5:06.07 | 42275 | 65231
4 | 14:29.57 | 4:57.27 | 65232 | 87533
5 | 19:27.09 | 3:12.43 | 87534 | 101976
6 | 22:39.52 | 4:16.38 | 101977 | 121214
7 | 26:56.15 | 2:31.13 | 121215 | 132552
8 | 29:27.28 | 2:57.14 | 132553 | 145841
9 | 32:24.42 | 3:46.40 | 145842 | 162831
10 | 36:11.07 | 6:26.14 | 162832 | 191795


Track 1

Filename C:\Users\owner\Desktop\Nobuo Hara with Oliver Nelson - In Tokyo (1970) [FLAC] {Columbia COCB-54079}\01 - 'Round Midnight.wav

Pre-gap length 0:00:02.00

Peak level 99.3 %
Extraction speed 3.5 X
Track quality 100.0 %
Test CRC 095C3962
Copy CRC 095C3962
Accurately ripped (confidence 1) [E88F508B] (AR v2)
Copy OK

Track 2

Filename C:\Users\owner\Desktop\Nobuo Hara with Oliver Nelson - In Tokyo (1970) [FLAC] {Columbia COCB-54079}\02 - The shadow of your smile.wav

Pre-gap length 0:00:06.69

Peak level 99.1 %
Extraction speed 3.8 X
Track quality 100.0 %
Test CRC A3754D8E
Copy CRC A3754D8E
Accurately ripped (confidence 1) [79ECCED8] (AR v2)
Copy OK

Track 3

Filename C:\Users\owner\Desktop\Nobuo Hara with Oliver Nelson - In Tokyo (1970) [FLAC] {Columbia COCB-54079}\03 - Yesterday.wav

Pre-gap length 0:00:05.53

Peak level 96.4 %
Extraction speed 3.4 X
Track quality 99.9 %
Test CRC 608BC305
Copy CRC 608BC305
Accurately ripped (confidence 1) [DBE5265F] (AR v2)
Copy OK

Track 4

Filename C:\Users\owner\Desktop\Nobuo Hara with Oliver Nelson - In Tokyo (1970) [FLAC] {Columbia COCB-54079}\04 - My funny Valentine.wav

Pre-gap length 0:00:04.64

Peak level 91.8 %
Extraction speed 4.8 X
Track quality 100.0 %
Test CRC 35B04946
Copy CRC 35B04946
Accurately ripped (confidence 1) [BE1B162F] (AR v2)
Copy OK

Track 5

Filename C:\Users\owner\Desktop\Nobuo Hara with Oliver Nelson - In Tokyo (1970) [FLAC] {Columbia COCB-54079}\05 - Scarborough fair.wav

Pre-gap length 0:00:05.26

Peak level 99.2 %
Extraction speed 3.7 X
Track quality 99.9 %
Test CRC 770EF5B8
Copy CRC 770EF5B8
Accurately ripped (confidence 1) [75F2D5B5] (AR v2)
Copy OK

Track 6

Filename C:\Users\owner\Desktop\Nobuo Hara with Oliver Nelson - In Tokyo (1970) [FLAC] {Columbia COCB-54079}\06 - Summertime.wav

Pre-gap length 0:00:06.01

Peak level 99.3 %
Extraction speed 4.9 X
Track quality 100.0 %
Test CRC 764C85A5
Copy CRC 764C85A5
Accurately ripped (confidence 1) [6DEE8CDC] (AR v2)
Copy OK

Track 7

Filename C:\Users\owner\Desktop\Nobuo Hara with Oliver Nelson - In Tokyo (1970) [FLAC] {Columbia COCB-54079}\07 - Charade.wav

Pre-gap length 0:00:05.56

Peak level 99.4 %
Extraction speed 4.5 X
Track quality 100.0 %
Test CRC 8F87F67C
Copy CRC 8F87F67C
Accurately ripped (confidence 1) [46D4EFE4] (AR v2)
Copy OK

Track 8

Filename C:\Users\owner\Desktop\Nobuo Hara with Oliver Nelson - In Tokyo (1970) [FLAC] {Columbia COCB-54079}\08 - Autumn leaves.wav

Pre-gap length 0:00:05.27

Peak level 99.4 %
Extraction speed 5.1 X
Track quality 100.0 %
Test CRC D9CA36F3
Copy CRC D9CA36F3
Accurately ripped (confidence 1) [BEA294CC] (AR v2)
Copy OK

Track 9

Filename C:\Users\owner\Desktop\Nobuo Hara with Oliver Nelson - In Tokyo (1970) [FLAC] {Columbia COCB-54079}\09 - How insensitive.wav

Pre-gap length 0:00:05.30

Peak level 82.4 %
Extraction speed 5.5 X
Track quality 100.0 %
Test CRC C2A855F8
Copy CRC C2A855F8
Accurately ripped (confidence 1) [F17817C4] (AR v2)
Copy OK

Track 10

Filename C:\Users\owner\Desktop\Nobuo Hara with Oliver Nelson - In Tokyo (1970) [FLAC] {Columbia COCB-54079}\10 - Sermonette.wav

Pre-gap length 0:00:05.60

Peak level 99.3 %
Extraction speed 6.2 X
Track quality 100.0 %
Test CRC 383F2E23
Copy CRC 383F2E23
Accurately ripped (confidence 1) [8B620921] (AR v2)
Copy OK


All tracks accurately ripped

No errors occurred

End of status report

==== Log checksum D7F9E4A517801EBF6CCAC3F8659937B65A3BC314301668CEE06451362BCB4DEA ====


Oliver Nelson & Nobuo Hara - In Tokyo (1970) {Nippon Columbia COCB-54079 rel 2013}

Oliver Nelson & Nobuo Hara - In Tokyo (1970) {Nippon Columbia COCB-54079 rel 2013}



===