Subcategories

Omar Kent Dykes - Big Town Playboy (2009)

Posted By: Domestos
Omar Kent Dykes - Big Town Playboy (2009)

Omar Kent Dykes - Big Town Playboy (2009)
EAC Rip | APE (image+.cue, log) ~ 276.00 Mb | 41:17 | Scans included
Blues | Label: Ruf Records ‎– RUF 1142

After years languishing in the blues-rock trenches, Omar Kent Dykes left his Howlers band behind in 2007, hooked up with friend and fellow Austin-ite Jimmie Vaughan, brought in some like-minded guests such as singer Lou Ann Barton, and cruised into one of the most popular blues albums of that year with a tribute to a major influence for both musicians; On the Jimmy Reed Highway. Little has changed on this follow-up from two years later.

While only two tunes are penned by Reed, and Vaughan's billing has shrunk to a below the title "featuring" credit, this can't help but be seen as a logical extension of its popular predecessor. Dykes digs into the lazy, Texas Reed shuffle from the opening title track (written by Reed's longtime guitarist Eddie Taylor), through the closing buzz of Slim Harpo's salacious "King Bee," 40 minutes later. But this is no case of sloppy seconds. Rather Dykes and Vaughan seem energized by the acclaim of their previous collaboration and loosen up with some returning friends (Barton, guitarist Derek O'Brien, and drummer Wes Starr, the latter who deserves more credit than he gets for capturing the loose yet crisp shuffle associated with Reed's approach) on a similarly styled session that is every bit the equal of the last. Highlights include a tough, sassy duet with Barton on Jimmy McCracklin's "Think," and a swampy cover of John Lee Hooker's "No More Doggin'." Ronnie James' upright bass also adds a rootsy element captured by Vaughan's predominantly low-key solos. James Cotton swings by on harp for five selections including a peppy take on Lightnin' Slim's "Hello Mary Lee." The set sounds perhaps deceptively spontaneous as the players congeal around their mutual love for this laconic yet invigorating Texas blues. There is no sense trying to update this traditional sound, yet Dykes and co. succeed in blowing new life into it, and kudos if they can boost their careers in the process. ~ AllMusic Review by Hal Horowitz

Track List:
01. Big town Playboy [0:04:12.13]
02. Upside your Head [0:04:16.11]
03. Can t judge nobody [0:03:48.57]
04. Think [0:03:49.74]
05. Mary, mary [0:02:44.11]
06. No more doggin [0:03:40.15]
07. Hello mary Lee [0:02:28.49]
08. Close together [0:02:43.15]
09. Dream Girl [0:04:02.50]
10. Since I met you baby [0:03:20.39]
11. Man down there [0:02:57.37]
12. King Bee [0:03:13.34]

Omar Kent Dykes - Big Town Playboy (2009)

Exact Audio Copy V0.99 prebeta 4 from 23. January 2008

Отчёт EAC об извлечении, выполненном 18. апреля 2009, 19:25

Omar Kent Dykes & Jimmie Vaughan / Big Town Playboy

Дисковод: PLEXTOR DVDR PX-820A Adapter: 0 ID: 1

Режим чтения : Достоверность
Использование точного потока : Да
Отключение кэша аудио : Да
Использование указателей C2 : Нет

Коррекция смещения при чтении : 48
Способность читать области Lead-in и Lead-out : Нет
Заполнение пропущенных сэмплов тишиной : Да
Удаление блоков с тишиной в начале и конце : Нет
При вычислениях CRC использовались нулевые сэмплы : Да
Интерфейс : Встроенный Win32-интерфейс для Win NT/2000

Выходной формат : Внутренние WAV-операции
Формат сэмплов : 44.100 Гц; 16 бит; стерео

TOC извлечённого CD

Трек | Старт | Длительность | Начальный сектор | Конечный сектор
––––––––––––––––––––––––––––––––––-
1 | 0:00.00 | 4:12.13 | 0 | 18912
2 | 4:12.13 | 4:16.11 | 18913 | 38123
3 | 8:28.24 | 3:48.57 | 38124 | 55280
4 | 12:17.06 | 3:49.74 | 55281 | 72529
5 | 16:07.05 | 2:44.11 | 72530 | 84840
6 | 18:51.16 | 3:40.15 | 84841 | 101355
7 | 22:31.31 | 2:28.49 | 101356 | 112504
8 | 25:00.05 | 2:43.15 | 112505 | 124744
9 | 27:43.20 | 4:02.50 | 124745 | 142944
10 | 31:45.70 | 3:20.39 | 142945 | 157983
11 | 35:06.34 | 2:57.37 | 157984 | 171295
12 | 38:03.71 | 3:13.34 | 171296 | 185804

Характеристики диапазона извлечения и сообщения об ошибках

Выбранный диапазон

Имя файла D:\Муз раздача 3\Omar\Omar Kent Dykes & Jimmie Vaughan - Big Town Playboy.wav

Пиковый уровень 98.9 %
Качество диапазона 100.0 %
CRC копии ACE16AE8
Копирование… OK

Ошибок не произошло

Конец отчёта

All thanks go to the ЗУБ2007

More Music in My Blog
Follow My RSS Channel