Subcategories

Carl Orff - Tbilisi Symphony Orchestra - Carmina Burana (1999, HD Classics # INF 10)

Posted By: luckburz
Carl Orff - Tbilisi Symphony Orchestra - Carmina Burana (1999, HD Classics # INF 10)

Carl Orff - Carmina Burana
Tbilisi Symphony Orchestra / Jansug Kakhidze
EAC+LOG+CUE | FLAC: 235 MB | Full Artwork | 5% Recovery Info
Label/Cat#: HD Classics # INF 10 | Country/Year: Germany 1999
Genre: Classical | Style: Early 20th Century, Choral

MD5 [X] CUE [X] LOG [X] INFO TEXT [X] ARTWORK [X]

my rip [X] not my rip [ ]

Carl Orff - Tbilisi Symphony Orchestra - Carmina Burana (1999, HD Classics # INF 10)


Exact Audio Copy V1.0 beta 3 from 29. August 2011

EAC extraction logfile from 9. July 2013, 17:58

Tbilisi Symphony Orchestra / Carmina Burana

Used drive : PIONEER BD-RW BDR-206 Adapter: 0 ID: 2

Read mode : Secure
Utilize accurate stream : Yes
Defeat audio cache : Yes
Make use of C2 pointers : No

Read offset correction : 667
Overread into Lead-In and Lead-Out : No
Fill up missing offset samples with silence : Yes
Delete leading and trailing silent blocks : No
Null samples used in CRC calculations : Yes
Used interface : Native Win32 interface for Win NT & 2000

Used output format : User Defined Encoder
Selected bitrate : 1024 kBit/s
Quality : High
Add ID3 tag : Yes
Command line compressor : C:\Program Files\FLAC\flac.exe
Additional command line options : -5 -T "Artist=%artist%" -T "Title=%title%" -T "Album=%albumtitle%" -T "Date=%year%" -T "Tracknumber=%tracknr%" -T "Genre=%genre%" %source% -o %dest%


TOC of the extracted CD

Track | Start | Length | Start sector | End sector
––––––––––––––––––––––––––––-
1 | 0:00.00 | 2:35.60 | 0 | 11684
2 | 2:35.60 | 2:32.17 | 11685 | 23101
3 | 5:08.02 | 4:14.53 | 23102 | 42204
4 | 9:22.55 | 1:57.20 | 42205 | 50999
5 | 11:20.00 | 2:55.35 | 51000 | 64159
6 | 14:15.35 | 1:43.70 | 64160 | 71954
7 | 15:59.30 | 3:28.30 | 71955 | 87584
8 | 19:27.60 | 3:11.37 | 87585 | 101946
9 | 22:39.22 | 4:34.08 | 101947 | 122504
10 | 27:13.30 | 0:55.07 | 122505 | 126636
11 | 28:08.37 | 2:10.48 | 126637 | 136434
12 | 30:19.10 | 2:56.15 | 136435 | 149649
13 | 33:15.25 | 2:07.07 | 149650 | 159181
14 | 35:22.32 | 3:04.50 | 159182 | 173031
15 | 38:27.07 | 4:00.53 | 173032 | 191084
16 | 42:27.60 | 2:29.67 | 191085 | 202326
17 | 44:57.52 | 2:27.00 | 202327 | 213351
18 | 47:24.52 | 2:06.73 | 213352 | 222874
19 | 49:31.50 | 1:04.12 | 222875 | 227686
20 | 50:35.62 | 0:53.43 | 227687 | 231704
21 | 51:29.30 | 2:06.42 | 231705 | 241196
22 | 53:35.72 | 2:22.10 | 241197 | 251856
23 | 55:58.07 | 1:00.23 | 251857 | 256379
24 | 56:58.30 | 1:32.32 | 256380 | 263311
25 | 58:30.62 | 2:40.58 | 263312 | 275369


Range status and errors

Selected range

Filename F:\=== VINYL RIPS ===\=== EAC===\X FRESH RIP\Orff- Tbilisi Symphony Orchestra - Carmina Burana.wav

Peak level 100.0 %
Extraction speed 1.2 X
Range quality 99.9 %
Test CRC 183093BC
Copy CRC 183093BC
Copy OK

No errors occurred


AccurateRip summary

Track 1 cannot be verified as accurate (confidence 3) [C2DDAF94], AccurateRip returned [B23484E8] (AR v2)
Track 2 cannot be verified as accurate (confidence 3) [C001E785], AccurateRip returned [3B5F28EC] (AR v2)
Track 3 cannot be verified as accurate (confidence 3) [F6E25761], AccurateRip returned [686B5DD2] (AR v2)
Track 4 cannot be verified as accurate (confidence 3) [C45DCDEE], AccurateRip returned [8C86DD2C] (AR v2)
Track 5 cannot be verified as accurate (confidence 3) [991BAD2A], AccurateRip returned [B6B74FEA] (AR v2)
Track 6 cannot be verified as accurate (confidence 3) [35B3DE47], AccurateRip returned [45FFA0CC] (AR v2)
Track 7 cannot be verified as accurate (confidence 3) [87427363], AccurateRip returned [F9462FD4] (AR v2)
Track 8 cannot be verified as accurate (confidence 3) [2A770DEE], AccurateRip returned [892C7B35] (AR v2)
Track 9 cannot be verified as accurate (confidence 3) [CC5D110E], AccurateRip returned [DF9E51C3] (AR v2)
Track 10 cannot be verified as accurate (confidence 3) [18546788], AccurateRip returned [1094EE40] (AR v2)
Track 11 cannot be verified as accurate (confidence 3) [2D886F05], AccurateRip returned [CAC48554] (AR v2)
Track 12 cannot be verified as accurate (confidence 3) [AC8A7095], AccurateRip returned [E670A833] (AR v2)
Track 13 cannot be verified as accurate (confidence 3) [EF0C4912], AccurateRip returned [1209C912] (AR v2)
Track 14 cannot be verified as accurate (confidence 3) [540AAC0F], AccurateRip returned [AE222C58] (AR v2)
Track 15 cannot be verified as accurate (confidence 3) [21BA6BDE], AccurateRip returned [3AE2A5F5] (AR v2)
Track 16 cannot be verified as accurate (confidence 3) [358761B0], AccurateRip returned [8F025691] (AR v2)
Track 17 cannot be verified as accurate (confidence 3) [D1D903A9], AccurateRip returned [78FBAD0D] (AR v2)
Track 18 cannot be verified as accurate (confidence 3) [62CF20B9], AccurateRip returned [B2549AB4] (AR v2)
Track 19 cannot be verified as accurate (confidence 3) [DD99BD95], AccurateRip returned [72E1E548] (AR v2)
Track 20 cannot be verified as accurate (confidence 3) [767F1752], AccurateRip returned [C85E6CC8] (AR v2)
Track 21 cannot be verified as accurate (confidence 3) [037646CB], AccurateRip returned [85227EB3] (AR v2)
Track 22 cannot be verified as accurate (confidence 2) [FC9CB8B1], AccurateRip returned [F7E13158] (AR v2)
Track 23 cannot be verified as accurate (confidence 3) [666EDBB7], AccurateRip returned [99063D0F] (AR v2)
Track 24 cannot be verified as accurate (confidence 3) [03F0BF2B], AccurateRip returned [1A4543B3] (AR v2)
Track 25 cannot be verified as accurate (confidence 3) [18E53B6E], AccurateRip returned [8BC30CAE] (AR v2)

No tracks could be verified as accurate
You may have a different pressing from the one(s) in the database

End of status report

–– CUETools DB Plugin V2.1.3

[CTDB TOCID: ku.K_2kOlUBOWLrRPYvtIcKypNg-] found, Submit result: ku.K_2kOlUBOWLrRPYvtIcKypNg- has been confirmed
[9556debb] (5/5) Accurately ripped


==== Log checksum 80416E0CAF88E8B37175FD74F96C3507F80E8F1D6C80C3F401FB307DF9C56D88 ====

foobar2000 1.1.14a / Dynamic Range Meter 1.1.1
log date: 2013-07-09 18:59:39

––––––––––––––––––––––––––––––––––––––––
Analyzed: Tbilisi Symphony Orchestra / Carmina Burana
––––––––––––––––––––––––––––––––––––––––

DR Peak RMS Duration Track
––––––––––––––––––––––––––––––––––––––––
DR11 -0.18 dB -16.05 dB 2:36 01-O Fortuna
DR12 -0.91 dB -20.05 dB 2:32 02-Fortunae plango vulnera
DR15 -13.20 dB -34.56 dB 4:15 03-Veris leta facies
DR16 -12.00 dB -34.35 dB 1:57 04-Omnia Sol temperat
DR11 -0.03 dB -17.25 dB 2:55 05-Ecce gratum
DR13 0.00 dB -17.81 dB 1:44 06-Tanz
DR14 -4.75 dB -25.36 dB 3:28 07-Floret silva
DR12 -15.13 dB -31.61 dB 3:11 08-Chramer, gip die varwe mir
DR13 -1.96 dB -22.17 dB 4:34 09-Reie
DR11 -1.19 dB -16.42 dB 0:55 10-Were diu werlt alle min
DR13 -0.41 dB -20.00 dB 2:11 11-Estuans interius
DR13 -2.73 dB -23.07 dB 2:56 12-Olim lacus colueram
DR13 -1.88 dB -21.61 dB 2:07 13-Ego sum abbas
DR12 -1.04 dB -18.04 dB 3:05 14-In taberna quando sumus
DR15 -11.00 dB -34.12 dB 4:01 15-Amor volat undique
DR13 -12.48 dB -31.43 dB 2:30 16-Dies, nox et omnia
DR12 -11.08 dB -28.56 dB 2:27 17-Stetit puella
DR14 -1.96 dB -21.02 dB 2:07 18-Circa mea pectora
DR12 -6.26 dB -24.67 dB 1:04 19-Si puer cum puellula
DR10 -0.27 dB -16.73 dB 0:54 20-Veni, veni, venias
DR9 -12.19 dB -34.03 dB 2:07 21-In trutina
DR12 -0.65 dB -18.82 dB 2:22 22-Tempus est iocundum
DR9 -7.50 dB -24.10 dB 1:00 23-Dulcissime
DR10 -0.77 dB -13.31 dB 1:32 24-Ave formosissima
DR11 -0.18 dB -16.27 dB 2:41 25-O Fortuna
––––––––––––––––––––––––––––––––––––––––

Number of tracks: 25
Official DR value: DR12

Samplerate: 44100 Hz
Channels: 2
Bits per sample: 16
Bitrate: 537 kbps
Codec: FLAC
================================================================================



CD Info:

Carl Orff - Carmina Burana

Tbilisi Symphony Orchestra / Jansug Kakhidze

Label: High Definition Classics
Catalog#: INF 10
Format: CD, Album
Country: Germany
Released: 1999
Genre: Classical
Style: Early 20th Century, Choral

Tracklist:

1 O Fortuna 2:36
2 Fortunae plango vulnera 2:32
3 Veris leta facies 4:15
4 Omnia Sol temperat 1:57
5 Ecce gratum 2:55
6 Tanz 1:44
7 Floret silva 3:28
8 Chramer, gip die varwe mir 3:11
9 Reie 4:34
10 Were diu werlt alle min 0:55
11 Estuans interius 2:11
12 Olim lacus colueram 2:56
13 Ego sum abbas 2:07
14 In taberna quando sumus 3:05
15 Amor volat undique 4:01
16 Dies, nox et omnia 2:30
17 Stetit puella 2:27
18 Circa mea pectora 2:07
19 Si puer cum puellula 1:04
20 Veni, veni, venias 0:54
21 In trutina 2:07
22 Tempus est iocundum 2:22
23 Dulcissime 1:00
24 Ave formosissima 1:32
25 O Fortuna 2:41

Jansug Kakhidze (Georgian: ჯანსუღ კახიძე) (born 26 May 1935 in Tblisi, Georgia; died 8 March 2002) was a Georgian conductor, nicknamed "the Georgian Karajan". Kakhidze was music director of the Georgian State Symphony Orchestra for two decades beginning in 1973. He is the father of composer and conductor Vakhtang Kakhidze.

In 1958, Kakhidze graduated from the Choir Conducting department of the Tbilisi State Conservatory. In 1963 he completed the post-graduate courses for Opera and Symphony Orchestra Conducting under Professor Odysseas Dimitriadis at the same institution. Later he had training in Moscow with the Ukrainian/French conductor Igor Markevich.

From 1982 until 2002 Djansug Kakhidze was the Artistic Director and Chief Conductor of the Tbilisi Opera and Ballet Theatre. Opera performances released under his direction included Salome, Don Giovanni, Boris Goduno, Il trovatore, Otello, Rigoletto, Cavalleria rusticana, Gianni Schicchi, L'elisir d'amore, The Queen of Spades, The Fiery Angel, The Love for Three Oranges, Duenj, Abesalom and Eteri, and Music for the living.

In 1989, Kakhidze founded a new hall for symphony music in Tbilisi, which included the Tbilisi Center for Music and Culture. He established the first professional boys' choir in Tbilisi at this center in 2000, further developing the classical performing arts in Georgia.

In 1993, Kakhidze founded the new Tbilisi Symphony Orchestra, and led it until his death in 2002.

Noted for his innovative program and devotion to contemporary works from his homeland, Kakhidze gained recognition during his life as a close friend and strong advocate of composer Giya Kancheli, recording his entire cycle of seven symphonies along with many other works.

Highlights of Kakhidze's career included numerous appearances conducting throughout Europe and Australia. His performance of Berlioz's Damnation of Faust with the Orchestre de Paris in 1990 drew high praise from critics, and helped him to secure further international success in places such as the United States, where appeared as a guest conductor with both the Boston Symphony Orchestra and the National Symphony Orchestra. ~wikipedia

Carl Orff - Tbilisi Symphony Orchestra - Carmina Burana (1999, HD Classics # INF 10)


all of my uploads in my blog
________________

NITROFLARE

Music Pt. 1 | | Music Pt. 2

Artwork

________________