Subcategories

Os Mutantes - Haih... Ou Amortecedor... (2009) {Anti 87041-2}

Posted By: ruskaval
Os Mutantes - Haih... Ou Amortecedor... (2009) {Anti 87041-2}

Os Mutantes - Haih… Ou Amortecedor… (2009) {Anti 87041-2}
EAC rip (secure mode) | FLAC (tracks)+CUE+LOG -> 322 Mb | MP3 @320 -> 115 Mb
Full Artwork @ 300 dpi (jpg) -> 40 Mb | 5% repair rar
© 2009 Anti / Epitaph | 87041-2
Rock / Brazilian / Psychedelic Rock / World / Tropicalia

Reunited (partially) in 2006 by the acclaim of their fans, Os Mutantes sound just as vital as they did back in 1968 on Haih…Ou Amortecedor…, their first record together in 30 years. Unfortunately, the original trio is only one-third represented. Specifically, there's no Rita Lee (who was replaced in 2006) and no Arnaldo Baptista (who appeared in the 2006 reunion but decided to continue as a solo act). Still, the band – now a seven-piece – gets songs from Tom Zé and Jorge Ben, as well as the band's prime songwriting linchpin, Sérgio Dias.

Tropicalia fans yearning for another "Panis et Circenses" won't find their hopes far off the mark; although there's a noticeable lack of production experimentation, the band's strengths are all here – bright songs, absurdist yet anti-fascist lyrics (Putin begins the album in chilling fashion), sprightly backing harmonies, and the occasional spiky, piercing guitar solo from Dias. Bia Mendes does a surprisingly good job replicating Rita Lee's singsong whine, taking over on "2000 and Agarrum," which updates 1969's "Dois Mil e Um" for the 21st century.
Os Mutantes - Haih... Ou Amortecedor... (2009) {Anti 87041-2}


ANTI review

tracklist:
01 Hymns Of The World, P. 1 (Intro) 00:33
02 Querida Querida 04:13
03 Teclar 03:11
04 2000 E Agarrum 03:22
05 Bagdad Blues 05:18
06 O Careca 03:56
07 O Mensageiro 04:00
08 Anagrama 04:12
09 Samba Do Fidel 05:31
10 Neurociкncia Do Amor 04:10
11 Nada Mudou 05:15
12 Gopala Krishna Om 03:39
13 Hymns Of The World, P. 2 (Final) 01:50

Exact Audio Copy V1.0 beta 3 from 29. August 2011

EAC extraction logfile from 25. April 2014, 9:15

Os Mutantes / Haih Ou Amortecedor

Used drive : SONY DVD RW DRU-810A Adapter: 1 ID: 0

Read mode : Secure
Utilize accurate stream : Yes
Defeat audio cache : Yes
Make use of C2 pointers : No

Read offset correction : 618
Overread into Lead-In and Lead-Out : No
Fill up missing offset samples with silence : Yes
Delete leading and trailing silent blocks : No
Null samples used in CRC calculations : Yes
Used interface : Native Win32 interface for Win NT & 2000
Gap handling : Appended to previous track

Used output format : User Defined Encoder
Selected bitrate : 128 kBit/s
Quality : High
Add ID3 tag : No
Command line compressor : C:\Program Files (x86)\Exact Audio Copy\Flac\flac.exe
Additional command line options : -8 -V -T "ARTIST=%artist%" -T "TITLE=%title%" -T "ALBUM=%albumtitle%" -T "DATE=%year%" -T "TRACKNUMBER=%tracknr%" -T "TOTALTRACKS=%numtracks%" -T "GENRE=%genre%" -T "ALBUMARTIST=%albumartist%" -T "ALBUM ARTIST=%albumartist%" -T "COMMENT=EAC Secure Mode, Test & Copy, AccurateRip, FLAC -8" %source%


TOC of the extracted CD

Track | Start | Length | Start sector | End sector
––––––––––––––––––––––––––––-
1 | 0:00.00 | 0:32.66 | 0 | 2465
2 | 0:32.66 | 4:13.34 | 2466 | 21474
3 | 4:46.25 | 3:11.01 | 21475 | 35800
4 | 7:57.26 | 3:21.48 | 35801 | 50923
5 | 11:18.74 | 5:17.47 | 50924 | 74745
6 | 16:36.46 | 3:55.40 | 74746 | 92410
7 | 20:32.11 | 3:59.64 | 92411 | 110399
8 | 24:32.00 | 4:12.05 | 110400 | 129304
9 | 28:44.05 | 5:30.72 | 129305 | 154126
10 | 34:15.02 | 4:09.67 | 154127 | 172868
11 | 38:24.69 | 5:15.36 | 172869 | 196529
12 | 43:40.30 | 3:38.60 | 196530 | 212939
13 | 47:19.15 | 1:50.36 | 212940 | 221225


Track 1

Filename F:\New Rips\Os Mutantes - Haih Ou Amortecedor (2009) [FLAC]\01 - Hymns Of The World 01.wav

Pre-gap length 0:00:02.00

Peak level 40.0 %
Extraction speed 1.3 X
Track quality 99.6 %
Test CRC 6482D04A
Copy CRC 6482D04A
Accurately ripped (confidence 5) [4D8F5A8B] (AR v2)
Copy OK

Track 2

Filename F:\New Rips\Os Mutantes - Haih Ou Amortecedor (2009) [FLAC]\02 - Querida Querida.wav

Peak level 98.8 %
Extraction speed 4.4 X
Track quality 100.0 %
Test CRC 3054C571
Copy CRC 3054C571
Accurately ripped (confidence 5) [D23BE54A] (AR v2)
Copy OK

Track 3

Filename F:\New Rips\Os Mutantes - Haih Ou Amortecedor (2009) [FLAC]\03 - Teclar.wav

Pre-gap length 0:00:00.43

Peak level 98.8 %
Extraction speed 4.6 X
Track quality 100.0 %
Test CRC 1DE489CF
Copy CRC 1DE489CF
Accurately ripped (confidence 4) [FA4F6A1C] (AR v2)
Copy OK

Track 4

Filename F:\New Rips\Os Mutantes - Haih Ou Amortecedor (2009) [FLAC]\04 - 2000 E Agarrum.wav

Pre-gap length 0:00:01.66

Peak level 87.7 %
Extraction speed 5.0 X
Track quality 100.0 %
Test CRC 75695696
Copy CRC 75695696
Accurately ripped (confidence 5) [768C9509] (AR v2)
Copy OK

Track 5

Filename F:\New Rips\Os Mutantes - Haih Ou Amortecedor (2009) [FLAC]\05 - Baghdad Blues.wav

Pre-gap length 0:00:01.01

Peak level 98.8 %
Extraction speed 5.7 X
Track quality 100.0 %
Test CRC AC021C18
Copy CRC AC021C18
Accurately ripped (confidence 5) [B644AFD6] (AR v2)
Copy OK

Track 6

Filename F:\New Rips\Os Mutantes - Haih Ou Amortecedor (2009) [FLAC]\06 - O Careca.wav

Pre-gap length 0:00:01.67

Peak level 98.8 %
Extraction speed 5.9 X
Track quality 100.0 %
Test CRC 4FBAE336
Copy CRC 4FBAE336
Accurately ripped (confidence 5) [EB58F635] (AR v2)
Copy OK

Track 7

Filename F:\New Rips\Os Mutantes - Haih Ou Amortecedor (2009) [FLAC]\07 - O Mensageiro.wav

Pre-gap length 0:00:01.63

Peak level 98.8 %
Extraction speed 6.2 X
Track quality 100.0 %
Test CRC C07ECC51
Copy CRC C07ECC51
Accurately ripped (confidence 5) [7BAB2D8E] (AR v2)
Copy OK

Track 8

Filename F:\New Rips\Os Mutantes - Haih Ou Amortecedor (2009) [FLAC]\08 - Anagrama.wav

Pre-gap length 0:00:01.60

Peak level 98.8 %
Extraction speed 6.6 X
Track quality 100.0 %
Test CRC CCEC8EB5
Copy CRC CCEC8EB5
Accurately ripped (confidence 5) [0717C3A6] (AR v2)
Copy OK

Track 9

Filename F:\New Rips\Os Mutantes - Haih Ou Amortecedor (2009) [FLAC]\09 - Samba Do Fidel.wav

Pre-gap length 0:00:01.64

Peak level 98.8 %
Extraction speed 7.1 X
Track quality 100.0 %
Test CRC B0EE085A
Copy CRC B0EE085A
Accurately ripped (confidence 5) [29FA2BBE] (AR v2)
Copy OK

Track 10

Filename F:\New Rips\Os Mutantes - Haih Ou Amortecedor (2009) [FLAC]\10 - Neurociencia Do Amor.wav

Pre-gap length 0:00:01.63

Peak level 99.9 %
Extraction speed 7.2 X
Track quality 100.0 %
Test CRC 06A02041
Copy CRC 06A02041
Accurately ripped (confidence 5) [CC2F4700] (AR v2)
Copy OK

Track 11

Filename F:\New Rips\Os Mutantes - Haih Ou Amortecedor (2009) [FLAC]\11 - Nada Mudou.wav

Pre-gap length 0:00:00.16

Peak level 99.9 %
Extraction speed 7.7 X
Track quality 100.0 %
Test CRC BEB4FC25
Copy CRC BEB4FC25
Accurately ripped (confidence 5) [89A19CA2] (AR v2)
Copy OK

Track 12

Filename F:\New Rips\Os Mutantes - Haih Ou Amortecedor (2009) [FLAC]\12 - Gopala Krishna Om.wav

Pre-gap length 0:00:00.50

Peak level 100.0 %
Extraction speed 6.4 X
Track quality 99.9 %
Test CRC 46E11752
Copy CRC 46E11752
Accurately ripped (confidence 5) [B0259742] (AR v2)
Copy OK

Track 13

Filename F:\New Rips\Os Mutantes - Haih Ou Amortecedor (2009) [FLAC]\13 - Hymns Of The World 02.wav

Peak level 49.0 %
Extraction speed 6.7 X
Track quality 100.0 %
Test CRC E0F9BD6E
Copy CRC E0F9BD6E
Accurately ripped (confidence 5) [8422EA76] (AR v2)
Copy OK


All tracks accurately ripped

No errors occurred

End of status report

–– CUETools DB Plugin V2.1.3

[CTDB TOCID: _KdQB4ICWQm377Nv2RgUr6S3nMg-] found, Submit result: _KdQB4ICWQm377Nv2RgUr6S3nMg- has been confirmed
[2e2a7538] (5/6) Accurately ripped
[ab5c1efe] (1/6) No match


==== Log checksum 3E24740A84F7ADEB9A5FF0CD30C67814FCA2DBB3DF42CCBE94170CCF4D294DAB ====


Os Mutantes - Haih... Ou Amortecedor... (2009) {Anti 87041-2}

Os Mutantes - Haih... Ou Amortecedor... (2009) {Anti 87041-2}



===