Subcategories

Oscar Peterson - Soul Espanol (1966)

Posted By: intothe
Oscar Peterson - Soul Espanol (1966)

Oscar Peterson - Soul Espanol (1966)
Jazz | EAC rip (FLAC+CUE+LOG) | 252 MB | full artwork
Limelight (Japan Mini LP) | 38:16 | RAR with 5% recovery


EAC extraction logfile from 13. July 2010, 8:02

Oscar Peterson / Soul Espańol (Japan mini-LP)

Used drive : _NEC DVD_RW ND-3500AG Adapter: 0 ID: 0

Read mode : Secure
Utilize accurate stream : Yes
Defeat audio cache : Yes
Make use of C2 pointers : No

Read offset correction : 48
Overread into Lead-In and Lead-Out : No
Fill up missing offset samples with silence : Yes
Delete leading and trailing silent blocks : No
Null samples used in CRC calculations : Yes
Used interface : Native Win32 interface for Win NT & 2000

Used output format : User Defined Encoder
Selected bitrate : 768 kBit/s
Quality : High
Add ID3 tag : No
Command line compressor : C:\Program Files\Exact Audio Copy\FLAC\FLAC.EXE
Additional command line options : -6 -V -T "ARTIST=%a" -T "TITLE=%t" -T "ALBUM=%g" -T "DATE=%y" -T "TRACKNUMBER=%n" -T "GENRE=%m" -T "COMMENT=%e" %s -o %d


TOC of the extracted CD

Track | Start | Length | Start sector | End sector
––––––––––––––––––––––––––––-
1 | 0:00.00 | 2:27.52 | 0 | 11076
2 | 2:27.52 | 3:45.15 | 11077 | 27966
3 | 6:12.67 | 5:19.60 | 27967 | 51951
4 | 11:32.52 | 4:02.68 | 51952 | 70169
5 | 15:35.45 | 4:31.70 | 70170 | 90564
6 | 20:07.40 | 2:25.27 | 90565 | 101466
7 | 22:32.67 | 4:21.65 | 101467 | 121106
8 | 26:54.57 | 4:15.35 | 121107 | 140266
9 | 31:10.17 | 3:20.35 | 140267 | 155301
10 | 34:30.52 | 3:51.08 | 155302 | 172634


Range status and errors

Selected range

Filename J:\eMusic\Rip\Oscar Peterson - Soul Espańol (Japan mini-LP).wav

Peak level 99.9 %
Range quality 100.0 %
Test CRC 1E01CC3D
Copy CRC 1E01CC3D
Copy OK

No errors occurred


AccurateRip summary

Track 1 accurately ripped (confidence 8) [C8D17303]
Track 2 accurately ripped (confidence 8) [54A8B730]
Track 3 accurately ripped (confidence 8) [25F3DBE7]
Track 4 accurately ripped (confidence 8) [7A982215]
Track 5 accurately ripped (confidence 8) [96A3A539]
Track 6 accurately ripped (confidence 8) [C320F4C0]
Track 7 accurately ripped (confidence 8) [4C81C5A6]
Track 8 accurately ripped (confidence 8) [F1E7A599]
Track 9 accurately ripped (confidence 8) [3F95DF0C]
Track 10 accurately ripped (confidence 8) [3E471BAA]

All tracks accurately ripped

End of status report


Oscar Peterson augmented his regular working trio of the time (bassist Sam Jones and drummer Louis Hayes) with Henley Gibson on congas, Marshall Thompson on timbales, and Harold Jones as an added percussionist for this release, which focuses mostly on the music of Brazilian composers (so the title Soul Espanol is a bit misleading). With the surge of interest in bossa nova and samba, Peterson's interpretations of songs like "Manha de Carnaval," "How Insensitive," "Meditation," and "Samba de Orfeo" have stood up very well against similar jazz recordings of the mid-'60s. Peterson's "Soulville Samba" has a gospel flavor, while his "Sensitive Samba" is more laid-back; Vincent Youmans' decades-old "Carioca" also fit in nicely. This is an enjoyable, if not essential, part of Oscar Peterson's considerable discography. The one mystery is why the credits and liner notes couldn't have been reproduced on a larger insert in order for them to be readable; this is one major drawback in shrinking the original LP jacket to CD size. - by Ken Dryden, AMG

Tracks:
1. Mas Que Nada (Jorge Ben) 2:27
2. Manha de Carnaval (Luiz Bonfá/Vinicius de Moraes) 3:45
3. Call Me (Tony Hatch) 5:19
4. How Intensitive (Vinicius de Moraes/Norman Gimbel/Antonio Carlos Jobim) 4:02
5. Carioca (Edward Eliscu/Gus Kahn/Vincent Youmans) 4:31
6. Soulville Samba (Oscar Peterson) 2:25
7. Amanha (Tomorrow) (Phil Bodner) 4:21
8. Meditation (Norman Gimbel/Antonio Carlos Jobim/Newton Mendonça) 4:15
9. Samba Sensitive (Oscar Peterson) 3:20
10. Samba de Orfeo (Luiz Bonfá/Vinicius de Moraes) 3:51

Personnel:
Oscar Peterson (Piano)
Sam Jones (Double Bass)
Louis Hayes (Drums)
Marshall Thompson (Timbales)
Harold Jones (Percussion)
Henley Gibson (Conga)

Rapidshare:
Part 1 - Part 2
Hotfile:
Part 1 - Part 2
pw: into