Subcategories

The Outfield - Albums CD Collection (6CD: 1985-1992)

Posted By: perfecta
The Outfield - Albums CD Collection (6CD: 1985-1992)

The Outfield - Albums CD Collection (6CD: 1985-1992)
6x EAC-FLAC with CUEs & LOGs - 1,49 GB | Full Scans | MP3 CBR 320 Kbps - 530 MB
Rock / Pop Rock / Power Pop | TT - 210:47 minutes | Label & Catalogue numbers available

The Outfield are an arena rock-influenced British pop rock/power pop power trio based in London, England. The Outfield are unusual for a British band in that they enjoyed commercial success in the U.S., but never reached the album or singles charts in their homeland.

allmusic.com biography:
Ironically, given their obsession with America's favorite pastime, the Outfield got their start in London's East End. Playing under the name the Baseball Boys, the trio of bassist/singer Tony Lewis, guitarist/keyboardist John Spinks, and drummer Alan Jackman played around London and recorded some early demos, attracting the attention of Columbia/CBS Records. They were signed shortly thereafter and began working on their debut album, Play Deep, which was released in 1985. The album was a smash success, going triple platinum, reaching number nine on the album charts, and producing their biggest song, "Your Love," which was a Top Ten hit. To support the album, they launched an international tour opening for Journey and Starship. They began recording their second album in 1986 and in 1987 issued Bangin'. While not duplicating the huge commercial success of their debut, it did produce two hit singles, "Since You've Been Gone" and "No Surrender." The band's third album featured a bit of a stylistic shift and was more meticulously produced than their previous efforts. Voices of Babylon, released in 1988, produced a single of the same name, but the band's commercial success was slipping. Jackman left the band after it was recorded and they hired Paul Reed to step in as drummer for the Voices tour.
Spinks and Lewis, now officially a duo, switched labels and began recording Diamond Days for MCA. A new session drummer, Simon Dawson, joined them and helped add an electronic edge to their sound. Diamond Days produced one of their biggest singles, "For You." They followed up with 1992's Rockeye. Its single, "Winning It All," became a feature at sporting events and was on the soundtrack of The Mighty Ducks. Simon Dawson had become increasingly involved in the shaping of the band's sound and became an official member of the band at this time. They went on hiatus for much of the mid-'90s, returning to record an exclusive release for their fan club, entitled It Ain't Over, then embarking on a kind of '80s revival tour. In 1998, they released Extra Innings, which was a compilation of several songs they wrote during the '90s, and also featured four new songs written in 1998. The band reunited in 2006 for the release of Any Time Now.


____________ This the Outfield's Albums CD Collection contains: ____________

The Outfield - Albums CD Collection (6CD: 1985-1992)

The Outfield - Play Deep (1985)
EAC-FLAC Image with CUE & LOG - 284 MB | Full Scans | MP3 CBR 320 Kbps - 105 MB
Pop Rock / Power Pop | 38:49 minutes | Label: Columbia Records / Cat. # CK 40027-2

allmusic.com says: Play Deep, the Outfield's debut album, contains a couple of singles that settled quite nicely into mid-'80s radio. Guided by Tony Lewis' airborne vocals and John Spinks' regimented guitar bluster, they managed to place two of the album's best songs within Billboard's Top 20. "Your Love" made it all the way to the number six spot in March of 1986, thanks to Lewis' high-pitched holler that dominates the opening of the song and a harmonious chorus that is overly smooth and rock savvy. Peaking at number 19 four months later, "All the Love in the World" is a an unblemished rock tune with a an effectively echoed vocal track, again highlighting the band's sweet-sounding consonance that's mixed in with rugged guitar work. The uncharted material sounds just as fluent and is anything but filler, especially efforts like "Say It Isn't So" and "I Don't Need Her," along with slower songs like "Everytime You Cry." Play Deep is a worthy first release from this British trio, lead by a novel guitar and vocal concoction.

Tracks:

01. Say It Isn't So
02. Your Love
03. I Don't Need Her
04. Everytime You Cry
05. 61 Seconds
06. Mystery Man
07. All The Love
08. Talk To Me
09. Taking My Chances
10. Nervous Alibi

More information @ Wikipedia

- Tony Lewis - Vocals, bass
- John Spinks - Guitar, keyboards
- Alan Jackman - Drums

Exact Audio Copy V0.99 prebeta 4 from 23. January 2008

EAC extraction logfile from 26. March 2008, 18:00

The Outfield / Play Deep

Used drive : PLEXTOR CD-R PX-W5224A Adapter: 1 ID: 1

Read mode : Secure
Utilize accurate stream : Yes
Defeat audio cache : Yes
Make use of C2 pointers : No

Read offset correction : 30
Overread into Lead-In and Lead-Out : Yes
Fill up missing offset samples with silence : Yes
Delete leading and trailing silent blocks : No
Null samples used in CRC calculations : Yes
Used interface : Installed external ASPI interface

Used output format : Internal WAV Routines
Sample format : 44.100 Hz; 16 Bit; Stereo


TOC of the extracted CD

Track | Start | Length | Start sector | End sector
––––––––––––––––––––––––––––-
1 | 0:00.00 | 3:48.20 | 0 | 17119
2 | 3:48.20 | 3:36.35 | 17120 | 33354
3 | 7:24.55 | 3:51.67 | 33355 | 50746
4 | 11:16.47 | 4:29.18 | 50747 | 70939
5 | 15:45.65 | 4:18.37 | 70940 | 90326
6 | 20:04.27 | 4:04.18 | 90327 | 108644
7 | 24:08.45 | 3:32.25 | 108645 | 124569
8 | 27:40.70 | 3:34.52 | 124570 | 140671
9 | 31:15.47 | 3:37.45 | 140672 | 156991
10 | 34:53.17 | 3:55.35 | 156992 | 174651


Range status and errors

Selected range

Filename C:\DAE\The Outfield - Play Deep\The Outfield - Play Deep.wav

Peak level 87.7 %
Range quality 100.0 %
Test CRC 6A907DA8
Copy CRC 6A907DA8
Copy OK

No errors occurred

End of status report
___________________________

Track [ CRC ] Status
01 [1c7ce27b] (13/62) Accurately ripped
02 [58ed11c1] (13/62) Accurately ripped
03 [f85be61d] (13/61) Accurately ripped
04 [d957d1b9] (13/62) Accurately ripped
05 [da2d8c5e] (13/61) Accurately ripped
06 [fed700bb] (13/61) Accurately ripped
07 [f775542b] (13/62) Accurately ripped
08 [6a247b3e] (13/61) Accurately ripped
09 [781e28cb] (13/61) Accurately ripped
10 [07f45e5b] (13/59) Accurately ripped

Track Peak [ CRC32 ] [W/O NULL] [ LOG ]
– 87,7 [6A907DA8] [1314E563] CRC32
01 87,7 [6F22787F] [647ED023]
02 75,9 [4FB74583] [F2AC571C]
03 82,4 [70DF1A34] [4A16196D]
04 72,0 [0D126E02] [16F1E6BD]
05 66,3 [C6B876E4] [9B288F44]
06 72,3 [1DE020F8] [A19ED44A]
07 72,5 [ACF35F84] [202E83A7]
08 73,4 [0B06FCF1] [D925D8B3]
09 80,6 [2340F5E6] [2E085D4B]
10 59,7 [6B5BB879] [FFA9D5DA]


____________________________________________________________________________

The Outfield - Albums CD Collection (6CD: 1985-1992)

The Outfield - Bangin' (1987)
EAC-FLAC Image with CUE & LOG - 294 MB | Full Scans | MP3 CBR 320 Kbps - 113 MB
Pop Rock / Power Pop | 42:58 minutes | Label: CBS Records / Cat. # 450609-2

allmusic.com says: Although Bangin'was not as huge as the Outfield's runaway debut, it's still another flawless piece of pop craft. This trio knows hooks and is never afraid to use them. Swirling in the center, as always, is the precise and economic guitar of John Spinkswhose sentimental songwriting becomes even more forlorn and desperate when passing though the pipes of sonorous singer Tony Lewis. Most songs are variations on the classic unrequited love theme, and thus avoid pretension like (gasp!) early Beatles. Plus, the impassioned vocal delivery over tight playing constantly pulls the listener inside the soaring songs. And in the end, the songs are all that matter. "Bangin' on My Heart," "No Surrender," "Moving Target," "Main Attraction," and "Since You've Been Gone" pack picture-perfect power punches. In fact, Bangin' maintains a consistent quality exclusive to only the upper echelon of rock. Mistakenly lost in the Police files, the Outfield are a true find, and Bangin' deserves any pop fan's attention.

Tracks:

01. Somewhere In America
02. Bangin' On My Heart
03. No Surrender
04. Moving Target
05. Long Way Home
06. Playground
07. Alone With You
08. The Main Attraction
09. Better Than Nothing
10. Since You've Been Gone

More information @ Wikipedia

- Tony Lewis - Vocals, bass
- John Spinks - Guitar, keyboards
- Alan Jackman - Drums

Exact Audio Copy V0.99 prebeta 4 from 23. January 2008

EAC extraction logfile from 6. April 2008, 17:30

The Outfield / Bangin'

Used drive : PLEXTOR DVDR PX-716A Adapter: 1 ID: 0

Read mode : Secure
Utilize accurate stream : Yes
Defeat audio cache : Yes
Make use of C2 pointers : No

Read offset correction : 30
Overread into Lead-In and Lead-Out : Yes
Fill up missing offset samples with silence : Yes
Delete leading and trailing silent blocks : No
Null samples used in CRC calculations : Yes
Used interface : Installed external ASPI interface

Used output format : Internal WAV Routines
Sample format : 44.100 Hz; 16 Bit; Stereo


TOC of the extracted CD

Track | Start | Length | Start sector | End sector
––––––––––––––––––––––––––––-
1 | 0:00.00 | 4:13.55 | 0 | 19029
2 | 4:13.55 | 3:58.35 | 19030 | 36914
3 | 8:12.15 | 4:48.55 | 36915 | 58569
4 | 13:00.70 | 4:22.05 | 58570 | 78224
5 | 17:23.00 | 4:23.05 | 78225 | 97954
6 | 21:46.05 | 5:00.27 | 97955 | 120481
7 | 26:46.32 | 3:18.40 | 120482 | 135371
8 | 30:04.72 | 3:57.60 | 135372 | 153206
9 | 34:02.57 | 4:06.58 | 153207 | 171714
10 | 38:09.40 | 4:48.57 | 171715 | 193371


Range status and errors

Selected range

Filename C:\DAE\The Outfield - Bangin'\The Outfield - Bangin'.wav

Peak level 69.4 %
Range quality 100.0 %
Test CRC A70ECC55
Copy CRC A70ECC55
Copy OK

No errors occurred

End of status report

___________________________

Track [ CRC ] Status
01 [db07a9b4] (4/4) Accurately ripped
02 [72042714] (4/4) Accurately ripped
03 [bdfe0e35] (4/4) Accurately ripped
04 [3557df54] (4/4) Accurately ripped
05 [95c0d25d] (4/4) Accurately ripped
06 [504a1694] (4/4) Accurately ripped
07 [b6db9a43] (4/4) Accurately ripped
08 [50617da9] (4/4) Accurately ripped
09 [7c9eca00] (4/4) Accurately ripped
10 [68c32ba7] (4/4) Accurately ripped

Track Peak [ CRC32 ] [W/O NULL] [ LOG ]
– 69,4 [A70ECC55] [EAD1D99B] CRC32
01 59,1 [7D32C1BC] [A9B9E5CE]
02 67,5 [D686429D] [E5B8ECDC]
03 60,2 [F5D09311] [F10CE890]
04 64,0 [3B3CFBC5] [551A288C]
05 56,6 [4CF89AE9] [4CC65C2E]
06 67,0 [E23EFCAB] [7AA4A2D3]
07 62,5 [1B5C9FC1] [F5683812]
08 68,5 [87221374] [99E15F9E]
09 68,7 [DC2EDCDF] [692667BA]
10 69,4 [6DDDA90D] [B1719575]


___________________________________________________________________________

The Outfield - Albums CD Collection (6CD: 1985-1992)

The Outfield - Voices Of Babylon (CDS 1989)
EAC-FLAC Image with CUE & LOG - 111 MB | Full Scans | MP3 CBR 320 Kbps - 41 MB
Pop Rock / Power Pop | TT - 15:06 minutes | Label: CBS Records # 654739-2

Tracks:

01. Voices Of Babylon
02. All The Love In The World
03. Since You've Been Gone
04. Inside Your Skin

- Tony Lewis - Vocals, bass
- John Spinks - Guitar, vocals, keyboards
- Alan Jackman - Drums

Exact Audio Copy V0.99 prebeta 4 from 23. January 2008

EAC extraction logfile from 8. April 2008, 12:52

The Outfield / Voices Of Babylon (CD Single)

Used drive : PLEXTOR CD-R PX-W5224A Adapter: 1 ID: 1

Read mode : Secure
Utilize accurate stream : Yes
Defeat audio cache : Yes
Make use of C2 pointers : No

Read offset correction : 30
Overread into Lead-In and Lead-Out : Yes
Fill up missing offset samples with silence : Yes
Delete leading and trailing silent blocks : No
Null samples used in CRC calculations : Yes
Used interface : Installed external ASPI interface

Used output format : Internal WAV Routines
Sample format : 44.100 Hz; 16 Bit; Stereo


TOC of the extracted CD

Track | Start | Length | Start sector | End sector
––––––––––––––––––––––––––––-
1 | 0:00.00 | 3:31.72 | 0 | 15896
2 | 3:31.72 | 3:32.15 | 15897 | 31811
3 | 7:04.12 | 4:41.20 | 31812 | 52906
4 | 11:45.32 | 3:21.03 | 52907 | 67984


Range status and errors

Selected range

Filename C:\DAE\The Outfield - Voices Of Babylon\CD Single\The Outfield - Voices Of Babylon (CD Single).wav

Peak level 95.6 %
Range quality 100.0 %
Test CRC FEF6E811
Copy CRC FEF6E811
Copy OK

No errors occurred

End of status report

___________________________

AccurateRip ID: 00029299-000a5b80-22038a04

Disk not present in database.

Track Peak [ CRC32 ] [W/O NULL] [ LOG ]
– 95,6 [FEF6E811] [C14E7062] CRC32
01 95,6 [93D945E3] [0A93481F]
02 87,5 [1136A949] [FC480C3F]
03 85,8 [DB5A3B53] [E721DFBF]
04 91,9 [CBE3DD8D] [4AB64A84]


________________________________________________________________________

The Outfield - Albums CD Collection (6CD: 1985-1992)

The Outfield - Voices Of Babylon (1989)
EAC-FLAC Image with CUE & LOG - 294 MB | Full Scans | MP3 CBR 320 Kbps - 92 MB
Pop Rock / Power Pop | TT - 35:13 minutes | Label: CBS Records # 463445-2

allmusic.com says: The world quit listening, but the Outfield continued to make tight, glistening pop records. Even though hook virtuoso John Spinks tries for lyrical content that digs deeper than Josie leaving on a vacation far away, all that matters is that Voices of Babylon showcases sharp harmonies, crackling guitar, and the always remarkable vocals of Tony Lewis. Thus, the Outfield recedes into history as yet another shining power pop band unjustly ignored and lost forever. 'Tis truly tragedy worthy of the Bard himself.

Tracks:

01. Voices Of Babylon
02. My Paradise
03. Part Of Your Life
04. Shelter Me
05. The Night Ain't Over
06. No Point
07. Taken By Surprise
08. Reach Out
09. Makin' Up
10. Inside Your Skin

More information @ Wikipedia

- Tony Lewis - Vocals, bass
- John Spinks - Guitar, vocals, keyboards
- Alan Jackman - Drums

Exact Audio Copy V0.99 prebeta 4 from 23. January 2008

EAC extraction logfile from 6. April 2008, 18:04

The Outfield / Voices Of Babylon

Used drive : PLEXTOR DVDR PX-716A Adapter: 1 ID: 0

Read mode : Secure
Utilize accurate stream : Yes
Defeat audio cache : Yes
Make use of C2 pointers : No

Read offset correction : 30
Overread into Lead-In and Lead-Out : Yes
Fill up missing offset samples with silence : Yes
Delete leading and trailing silent blocks : No
Null samples used in CRC calculations : Yes
Used interface : Installed external ASPI interface

Used output format : Internal WAV Routines
Sample format : 44.100 Hz; 16 Bit; Stereo


TOC of the extracted CD

Track | Start | Length | Start sector | End sector
––––––––––––––––––––––––––––-
1 | 0:00.00 | 3:32.37 | 0 | 15936
2 | 3:32.37 | 3:39.50 | 15937 | 32411
3 | 7:12.12 | 3:58.68 | 32412 | 50329
4 | 11:11.05 | 3:53.27 | 50330 | 67831
5 | 15:04.32 | 4:07.70 | 67832 | 86426
6 | 19:12.27 | 3:03.48 | 86427 | 100199
7 | 22:16.00 | 3:11.17 | 100200 | 114541
8 | 25:27.17 | 3:32.33 | 114542 | 130474
9 | 28:59.50 | 2:48.67 | 130475 | 143141
10 | 31:48.42 | 3:24.50 | 143142 | 158491


Range status and errors

Selected range

Filename C:\DAE\The Outfield - Voices Of Babylon\The Outfield - Voices Of Babylon.wav

Peak level 97.0 %
Range quality 100.0 %
Test CRC E4C254D8
Copy CRC E4C254D8
Copy OK

No errors occurred

End of status report

___________________________

Track [ CRC ] Status
01 [9db78482] (3/3) Accurately ripped
02 [2644f9bb] (3/3) Accurately ripped
03 [0b5b4fbb] (3/3) Accurately ripped
04 [8fee37b6] (2/2) Accurately ripped
05 [7bfd54a5] (3/3) Accurately ripped
06 [781d8715] (3/3) Accurately ripped
07 [fdaae785] (3/3) Accurately ripped
08 [df844378] (3/3) Accurately ripped
09 [45403fc2] (3/3) Accurately ripped
10 [0b7c7a20] (3/3) Accurately ripped

Track Peak [ CRC32 ] [W/O NULL] [ LOG ]
– 97,0 [E4C254D8] [CC90E5A9] CRC32
01 94,7 [D004328B] [3101D3FC]
02 80,6 [9B3C64FA] [47DE5EB0]
03 94,9 [69E9B8A0] [DA6806DA]
04 92,0 [43DECEFE] [B20E9440]
05 78,1 [DF5A3595] [209995A3]
06 95,3 [CE49695C] [8818E280]
07 97,0 [2E1AB480] [17A5E917]
08 85,8 [6DBEDB77] [E2089E1C]
09 88,0 [DAD6D3CD] [C12DD914]
10 84,0 [07457DED] [41982BD0]


_______________________________________________________________________

The Outfield - Albums CD Collection (6CD: 1985-1992)

The Outfield - Diamond Days (1990)
EAC-FLAC Image with CUE & LOG - 271 MB | Full Scans - 76 MB | MP3 CBR 320 Kbps - 85 MB
Pop Rock / Power Pop | 37:24 minutes | Label: MCA Records / Cat. # MCAD 10111-2

allmusic.com says: After the Outfield's Voices of Babylon album, drummer Alan Jackman parted ways, and the band released Diamond Days as a duo. Even though the album's finest song "For You" made it to number 21, it was truly Diamond Days' only bright spot, with the rest of the album suffering from limp harmonies and a lack of pop energy which circulated through their past releases as well. Both Tony Lewis and John Spinks fail to rekindle any of the avidity that was prevalent on earlier songs like "Your Love" or "Since You've Been Gone," coming up short and sounding like a tandem without any direction. Absent is Lewis' vocal muscle and the guitar grind of Spinks, replaced by rather slipshod efforts like "Magic Seed" and "After the Storm." "John Lennon" shows a minute hint of promise but just can't get off the ground for full flight. With Diamond Days, the Outfield attempted to simmer down their pop enthusiasm in order to please a somewhat older crowd, but it seems this route affected both their vehemency as a pop band as well as their songwriting strengths.

Tracks:

01. Take It All
02. Eye To Eye
03. For You
04. John Lennon
05. Magic Seed
06. Unrespectable
07. Burning Blue
08. Raintown Boys
09. One Night In Heaven
10. After The Storm

More information @ Wikipedia

- Tony Lewis - Vocals, bass
- John Spinks - Guitar, keyboards
- Simon Dawson - Drums

Exact Audio Copy V0.99 prebeta 5 from 4. May 2009

EAC extraction logfile from 29. May 2010, 16:37

The Outfield / Diamond Days

Used drive : PLEXTOR CD-R PREMIUM2 Adapter: 1 ID: 0

Read mode : Secure
Utilize accurate stream : Yes
Defeat audio cache : Yes
Make use of C2 pointers : No

Read offset correction : 30
Overread into Lead-In and Lead-Out : Yes
Fill up missing offset samples with silence : Yes
Delete leading and trailing silent blocks : No
Null samples used in CRC calculations : Yes
Used interface : Installed external ASPI interface
Gap handling : Appended to previous track

Used output format : Internal WAV Routines
Sample format : 44.100 Hz; 16 Bit; Stereo


TOC of the extracted CD

Track | Start | Length | Start sector | End sector
––––––––––––––––––––––––––––-
1 | 0:00.37 | 3:48.63 | 37 | 17199
2 | 3:49.25 | 3:00.22 | 17200 | 30721
3 | 6:49.47 | 4:27.63 | 30722 | 50809
4 | 11:17.35 | 3:28.10 | 50810 | 66419
5 | 14:45.45 | 3:26.32 | 66420 | 81901
6 | 18:12.02 | 2:46.70 | 81902 | 94421
7 | 20:58.72 | 3:38.48 | 94422 | 110819
8 | 24:37.45 | 3:33.65 | 110820 | 126859
9 | 28:11.35 | 4:26.05 | 126860 | 146814
10 | 32:37.40 | 4:47.15 | 146815 | 168354


Track 1

Filename C:\supang\The Outfield -1990- Diamond Days {MCAD-10111}\01. Take It All.wav

Pre-gap length 0:00:02.37

Peak level 96.7 %
Track quality 100.0 %
Test CRC 5DD6584D
Copy CRC 5DD6584D
Accurately ripped (confidence 20) [8349C993]
Copy OK

Track 2

Filename C:\supang\The Outfield -1990- Diamond Days {MCAD-10111}\02. Eye to Eye.wav

Pre-gap length 0:00:00.42

Peak level 91.7 %
Track quality 99.9 %
Test CRC 01BFE852
Copy CRC 01BFE852
Accurately ripped (confidence 20) [631A500A]
Copy OK

Track 3

Filename C:\supang\The Outfield -1990- Diamond Days {MCAD-10111}\03. For You.wav

Pre-gap length 0:00:00.49

Peak level 97.8 %
Track quality 100.0 %
Test CRC 9B4A8A5F
Copy CRC 9B4A8A5F
Accurately ripped (confidence 20) [1E5A1CB4]
Copy OK

Track 4

Filename C:\supang\The Outfield -1990- Diamond Days {MCAD-10111}\04. John Lennon.wav

Pre-gap length 0:00:00.41

Peak level 83.6 %
Track quality 100.0 %
Test CRC A6A1B593
Copy CRC A6A1B593
Accurately ripped (confidence 20) [78B982EE]
Copy OK

Track 5

Filename C:\supang\The Outfield -1990- Diamond Days {MCAD-10111}\05. Magic Seed.wav

Pre-gap length 0:00:00.35

Peak level 88.2 %
Track quality 100.0 %
Test CRC 7E7C020F
Copy CRC 7E7C020F
Accurately ripped (confidence 20) [019CA28F]
Copy OK

Track 6

Filename C:\supang\The Outfield -1990- Diamond Days {MCAD-10111}\06. Unrespectable.wav

Pre-gap length 0:00:01.05

Peak level 100.0 %
Track quality 100.0 %
Test CRC 9D4BD2E1
Copy CRC 9D4BD2E1
Accurately ripped (confidence 20) [95D12DF5]
Copy OK

Track 7

Filename C:\supang\The Outfield -1990- Diamond Days {MCAD-10111}\07. Burning Blue.wav

Peak level 100.0 %
Track quality 100.0 %
Test CRC 9738CBF8
Copy CRC 9738CBF8
Accurately ripped (confidence 20) [A35B7575]
Copy OK

Track 8

Filename C:\supang\The Outfield -1990- Diamond Days {MCAD-10111}\08. Raintown Boys.wav

Pre-gap length 0:00:00.25

Peak level 93.3 %
Track quality 99.9 %
Test CRC 4155F883
Copy CRC 4155F883
Accurately ripped (confidence 20) [0AE7F12C]
Copy OK

Track 9

Filename C:\supang\The Outfield -1990- Diamond Days {MCAD-10111}\09. One Night in Heaven.wav

Pre-gap length 0:00:01.28

Peak level 95.2 %
Track quality 100.0 %
Test CRC 449A349D
Copy CRC 449A349D
Accurately ripped (confidence 20) [EF406087]
Copy OK

Track 10

Filename C:\supang\The Outfield -1990- Diamond Days {MCAD-10111}\10. After the Storm.wav

Pre-gap length 0:00:00.19

Peak level 81.3 %
Track quality 99.9 %
Test CRC F82F0678
Copy CRC F82F0678
Accurately ripped (confidence 20) [5CC8FF4A]
Copy OK


All tracks accurately ripped

No errors occurred

End of status report

___________________________

Pregap length 00:00:37.
Track [ CRC ] Status
01 [8349c993] (20/20) Accurately ripped
02 [631a500a] (20/20) Accurately ripped
03 [1e5a1cb4] (20/20) Accurately ripped
04 [78b982ee] (20/20) Accurately ripped
05 [019ca28f] (20/20) Accurately ripped
06 [95d12df5] (20/20) Accurately ripped
07 [a35b7575] (20/20) Accurately ripped
08 [0ae7f12c] (20/20) Accurately ripped
09 [ef406087] (20/20) Accurately ripped
10 [5cc8ff4a] (20/20) Accurately ripped

Track Peak [ CRC32 ] [W/O NULL]
– 100,0 [52C1BE45] [495B2138]
01 96,7 [5DD6584D] [F7E2671A]
02 91,7 [01BFE852] [E7E2FBEE]
03 97,8 [9B4A8A5F] [76B56CF7]
04 83,6 [A6A1B593] [F052844A]
05 88,2 [7E7C020F] [86BEF9E1]
06 100,0 [9D4BD2E1] [9ACAB684]
07 100,0 [9738CBF8] [5B23E8CA]
08 93,3 [4155F883] [CFADA5D0]
09 95,2 [449A349D] [F43419EA]
10 81,3 [F82F0678] [CAF820A3]


_________________________________________________________________________

The Outfield - Albums CD Collection (6CD: 1985-1992)

The Outfield - Rockeye (1992)
EAC-FLAC Image with CUE & LOG - 295 MB | Full Scans - 102 MB | MP3 CBR 320 Kbps - 94 MB
Rock / Pop Rock / Power Pop | 41:16 minutes | Label: MCA Records / Catalogue # MCAD 10476-2

allmusic.com says: The Outfield were a great power pop band whose big '80s production sound was the antithesis of what power pop fans wanted. The fusion of Dwight Twilley-style melodies with Journey bombast was intriguing for the moment, but inhibits the luster of the group years after the fact. For bright, shiny hit singles, one refers to the Raspberries and Badfinger, while Crowded House comes close to what vibe could have been a blessing to this group. Rockeye was the fifth album in seven years, and is highly listenable throughout – the trio pared down to a duo, John Spinks' 11 new compositions feature only one Tony Lewis co-write, and the material is still first rate pop chock full of hooks. They don't break any new ground with "Winning It All" or "Closer to You," and the sound is interchangeable with some of their previous work, "The Way It Should Be" in the same vein, while "Under a Stone" resembles a British version of The Cars with Dave Fitzgerald providing the saxophone. If Split Enz went the 38 Special route, you might have the ingredients that make up Rockeye – it sounds like an unholy marriage on paper, but the album is pleasing and works on many levels. "Young Love" feels like it is going to be redundant, but it twists at the right time to rescue itself. Ten Years After guitarist Alvin Lee shows up to provide the solo for "Jane," and it is too bad Jefferson Starship didn't cut this quasi-psychedelic number instead of that dreadful album rock classic Mickey Thomas got to hit with when Marty Balin exited the band. Alvin is an added plus to what is the most new-wavey cut on the disc, the kind of stuff to make a band like this very hip indeed. Lee's solo is neo-metal, a nice contrast to the modern rock sensibility everywhere else on the tune. Rockeye seems to be a forgotten album of '80s rock, but it deserves a better fate – despite the sameness of tracks like "Take Me Home" and "Tonight You're Home," the vocals of Tony Lewis are what give the group the "progressive rock" tag; he could sub for the band Yes when Jon Anderson goes on hiatus. But the incessant thump thump Cars/'Til Tuesday/Girls Night Out riff under "Tonight You're Mine" keeps things from getting too mainstream and it is a shame the late Cars bassist Ben Orr didn't get a chance to cover it. There's not a bad track on Rockeye. Though having a song included on a Mighty Ducks film soundtrack wasn't enough to insure it a better fate, enough substance is here to demand more attention for this mostly neglected work sometime down the road.

Tracks:

01. Winning It All
02. Closer To Me
03. The Way It Should Be
04. Under A Stone
05. Young Love
06. Jane
07. Take Me Home
08. Tonight You're Mine
09. On The Line
10. Stranger In My Own Town
11. Going Back

Produced by John Spinks.

More information @ Wikipedia

- Tony G Lewis: Vocals, Bass
- John Frederick Spinks: Electric & Acoustic Guitars, Keyboards
- Simon Dawson: Drums, Percussion

Exact Audio Copy V1.0 beta 2 from 29. April 2011

EAC extraction logfile from 10. June 2011, 21:25

The Outfield / Rockeye

Used drive : PLEXTOR CD-R PREMIUM2 Adapter: 1 ID: 0

Read mode : Secure
Utilize accurate stream : Yes
Defeat audio cache : Yes
Make use of C2 pointers : No

Read offset correction : 30
Overread into Lead-In and Lead-Out : Yes
Fill up missing offset samples with silence : Yes
Delete leading and trailing silent blocks : No
Null samples used in CRC calculations : Yes
Used interface : Installed external ASPI interface

Used output format : Internal WAV Routines
Sample format : 44.100 Hz; 16 Bit; Stereo


TOC of the extracted CD

Track | Start | Length | Start sector | End sector
––––––––––––––––––––––––––––-
1 | 0:00.33 | 3:24.17 | 33 | 15349
2 | 3:24.50 | 3:18.45 | 15350 | 30244
3 | 6:43.20 | 3:39.70 | 30245 | 46739
4 | 10:23.15 | 3:14.30 | 46740 | 61319
5 | 13:37.45 | 3:50.33 | 61320 | 78602
6 | 17:28.03 | 4:28.72 | 78603 | 98774
7 | 21:57.00 | 3:19.48 | 98775 | 113747
8 | 25:16.48 | 3:40.22 | 113748 | 130269
9 | 28:56.70 | 3:20.43 | 130270 | 145312
10 | 32:17.38 | 4:20.65 | 145313 | 164877
11 | 36:38.28 | 4:38.37 | 164878 | 185764


Range status and errors

Selected range

Filename D:\supang\Rock\The Outfield -1992- Rockeye {MCAD10476}\The Outfield - Rockeye.wav

Peak level 100.0 %
Extraction speed 11.9 X
Range quality 100.0 %
Test CRC 70698D7A
Copy CRC 70698D7A
Copy OK

No errors occurred


AccurateRip summary

Track 1 accurately ripped (confidence 11) [E11602BD] (AR v1)
Track 2 accurately ripped (confidence 11) [246F5582] (AR v1)
Track 3 accurately ripped (confidence 10) [68729B30] (AR v1)
Track 4 accurately ripped (confidence 11) [50B6B154] (AR v1)
Track 5 accurately ripped (confidence 12) [C5023480] (AR v1)
Track 6 accurately ripped (confidence 11) [59C76F7C] (AR v1)
Track 7 accurately ripped (confidence 11) [DBB9E842] (AR v1)
Track 8 accurately ripped (confidence 11) [4323AA22] (AR v1)
Track 9 accurately ripped (confidence 11) [D5695BFD] (AR v1)
Track 10 accurately ripped (confidence 11) [41A33B4C] (AR v1)
Track 11 accurately ripped (confidence 10) [915C15BE] (AR v1)

All tracks accurately ripped

End of status report


Dynamic range(s): 13 / 12 / 13 / 13 / 12 / 12.
Source: eD2k. All thanks goes to supang!