Subcategories

Paco de Lucia , Al Di Meola & John McLaughlin - The Guitar Trio (1996) {2010 Nueva Integral Box Set CD 24 of 27}

Posted By: ruskaval
Paco de Lucia , Al Di Meola & John McLaughlin - The Guitar Trio (1996) {2010 Nueva Integral Box Set CD 24 of 27}

Paco de Lucia , Al Di Meola & John McLaughlin - The Guitar Trio (1996) {2010 Nueva Integral Box Set CD 24 of 27}
EAC rip (secure mode) | FLAC (tracks)+CUE+LOG -> 279 Mb | MP3 @320 -> 124 Mb
Full Artwork @ 600 dpi (jpg) -> 13 Mb | 5% repair rar
© 1996, 2010 Verve / PolyGram / Polydor / Universal Music Spain | 533-215-2
Jazz / Flamenco / International Jazz / World Music / Guitar

New version of the Paco de Lucía Integral, 27 CDs his complete work remastered. "Cositas Buenas", his last album, comes as a new in this new Integral. Now in a new economic format. This collection is a unique tour of the work of Paco de Lucia from 1964 to 2004. Flamenco is not improvised: everything is carefully rehearsed. Every falseta, every step of the dance, although it may appear spontaneous is based on conscientious preparation. Flamenco artists are not fans of improvisation in their public performances; only in the dance are small spaces left. In the singing and above all the guitar there is no place for improvisation. This is something Paco de Lucía knows well. He was concerned with learning the tricks of improvisation in order to put them into practise, first alongside McLaughlin and Di Meola and then in his own music. In an interview which Paco gave to Miriam Davison he declared: “I thought the best way for me to learn was to get together with musicians, from Jazz, for example, who are always very much at the harmonic vanguard. As always I was curious and inquisitive… I never tried to stop being a Flamenco artist, nor to dedicate myself to Jazz, nothing like that. I went with the clear idea that I was going to learn in order to later bring something new to my Flamenco and try to grow in some way.”
Fifteen years before this recording, they had made Friday Night in San Francisco 1980. Recorded live, it soon became a Jazz classic of the time. The Guitar Trio recorded in Peter Gabriel’s studios, Real World. This is an album which when compared to the previous is more introspective, more reflective: although they share the great frequency of notes per second. The declaration of virtuosity characterises this successful experiment.

With the exception of ‘Manha de Carnaval’ the rest of the tracks come from the individual back catalogues of each of the guitarists. None of the three tried to take the lead: each one had his role and the solos are well-distributed so that no one is brought out above any of the others, they strictly took turns in making them while the others accompanied. It is like a conversation between three good friends who know each other inside out. In this sense, Paco says: “On my work with Larry Coryell, John Mclaughlin or Al di Meola, it was neither Flamenco nor Jazz, it was a fusion of musicians not of music”.
Paco De Lucía plays a Conde Hermanos guitar, as does Al Di Meola, who also plays, along with McLaughlin, an Ovation acoustic guitar.
Paco de Lucia , Al Di Meola & John McLaughlin - The Guitar Trio (1996) {2010 Nueva Integral Box Set CD 24 of 27}


Contents of the Box Set:
01- “Dos guitarras flamencas en stereo” (1964) Ricardo Modrego and Paco de Lucía.
02- “12 canciones de García Lorca para guitarra” (1965) Paco de Lucía and Ricardo Modrego.
03- “12 éxitos para dos guitarras flamencas” (1965) Paco de Lucía and Ricardo Modrego.
04- “La fabulosa guitarra de Paco de Lucía” (1967).
05- “Canciones andaluzas para 2 guitarras” (1967) Paco de Lucía and Ramón de Algeciras.
06- “Dos guitarras flamencas en América latina” (1967) Paco de Lucía and Ramón de Algeciras.
07- “Fantasía flamenca de Paco de Lucía” (1969).
08- “12 hits para 2 guitarras flamencas y orquesta de cuerda (1969) Paco de Lucía and Ramón de Algeciras.
09- “Paco de Lucía y Ramón de Algeciras en Hispanoamérica” (1969).
10- “El mundo del flamenco” (1971).
11- “Recital de guitarra de Paco de Lucía” (1971) with Ramón de Algeciras, Enrique Jiménez De Melchor,Paco Cepero, Isidro de Sanlúcar Muñoz and Julio Vallejo.
12- “El duende flamenco de Paco de Lucía” (1972).
13- “Fuente y Caudal” (1973).
14- “Paco de Lucía en vivo desde el Teatro Real” (1975).
15- “Almoraima" (1976).
16- “Paco de Lucía interpreta a Manuel de Falla” (1978).
17- “Castro Marín” (1981) seven themes registered in Tokio, two with John Mclaughlin and Larry Coryell.
18- “Sólo quiero caminar” (1981).
19- “Live… One Summer Night” (1984) Alive with The Sextet.
20 - “Siroco” (1987).
21- “Zyryab” (1990).
22- “Concierto de Aranjuez - Iberia / Albéniz” (1992).
23- "Paco de Lucía & Sextet, “Live in América” (1993) Alive with The Sextet on tour at the United States.
24- “The Guitar Trío” (1996) with John Mclaughlin and Al Di Meola.
25- “Luzía” (1998).
26- “Paco de Lucía por descubrir” (1964-1999) first record of Paco de Lucía, EP / 4 toques; alegrías from the record In Memoriam Niño Ricardo; Three themes from the Original Soundtrack of the movie “La Sabina”; one theme from the record of the band “Dolores”; music from the movie “Carmen” by Carlos Saura / Antonio Gades; The sevillanas with Manolo Sanlúcar from the movie “Sevillanas” by Carlos Saura; one theme with Juan Habichuela from the CD “De la zambra al duende”.
27- “Cositas buenas” (2004)

Paco de Lucia , Al Di Meola & John McLaughlin - The Guitar Trio (1996) {2010 Nueva Integral Box Set CD 24 of 27}

Paco de Lucia , Al Di Meola & John McLaughlin - The Guitar Trio (1996) {2010 Nueva Integral Box Set CD 24 of 27}


Personnel:
Paco De Lucia
John McLaughlin
Al Di Meola


tracklist:
01 - La Estiba
02 - Beyond The Mirage
03 - Midsummer Night
04 - Manha De Carnaval
05 - Letter From India
06 - Espiritu
07 - Le Monastere Dans Les Montagnes
08 - Azzura
09 - Cardeosa

Exact Audio Copy V1.0 beta 3 from 29. August 2011

EAC extraction logfile from 16. December 2011, 16:35

Paco De Lucia, Al Di Meola, John McLaughlin / The Guitar Trio

Used drive : HL-DT-STDVDRAM GH22NS50 Adapter: 0 ID: 0

Read mode : Secure
Utilize accurate stream : Yes
Defeat audio cache : Yes
Make use of C2 pointers : No

Read offset correction : 667
Overread into Lead-In and Lead-Out : No
Fill up missing offset samples with silence : Yes
Delete leading and trailing silent blocks : No
Null samples used in CRC calculations : Yes
Used interface : Installed external ASPI interface
Gap handling : Appended to previous track

Used output format : User Defined Encoder
Selected bitrate : 1024 kBit/s
Quality : High
Add ID3 tag : No
Command line compressor : C:\Program Files\Exact Audio Copy\Flac\flac.exe
Additional command line options : -8 -V -T "ARTIST=%artist%" -T "TITLE=%title%" -T "ALBUM=%albumtitle%" -T "DATE=%year%" -T "TRACKNUMBER=%tracknr%" -T "TOTALTRACKS=%numtracks%" -T "GENRE=%genre%" -T "ALBUMARTIST=%albumartist%" -T "ALBUM ARTIST=%albumartist%" -T "COMMENT=EAC Secure Mode, Test & Copy, AccurateRip, FLAC -8" %source%


TOC of the extracted CD

Track | Start | Length | Start sector | End sector
––––––––––––––––––––––––––––-
1 | 0:00.32 | 5:50.55 | 32 | 26336
2 | 5:51.12 | 6:10.00 | 26337 | 54086
3 | 12:01.12 | 4:36.58 | 54087 | 74844
4 | 16:37.70 | 6:14.37 | 74845 | 102931
5 | 22:52.32 | 3:54.50 | 102932 | 120531
6 | 26:47.07 | 5:30.18 | 120532 | 145299
7 | 32:17.25 | 6:14.57 | 145300 | 173406
8 | 38:32.07 | 7:58.00 | 173407 | 209256
9 | 46:30.07 | 6:36.25 | 209257 | 238981


Track 1

Filename C:\Users\user\Documents\Paco de Lucia , Al Di Meola and John Mc Laughlin - The Guitar Trio (1996) [FLAC] {New Integral-Cd 24 of 27}\01 - La Estiba.wav

Pre-gap length 0:00:02.32

Peak level 97.9 %
Extraction speed 1.2 X
Track quality 100.0 %
Test CRC 375FBE24
Copy CRC 375FBE24
Cannot be verified as accurate (confidence 153) [BC6C7AF1], AccurateRip returned [1D1E250A] (AR v2)
Copy OK

Track 2

Filename C:\Users\user\Documents\Paco de Lucia , Al Di Meola and John Mc Laughlin - The Guitar Trio (1996) [FLAC] {New Integral-Cd 24 of 27}\02 - Beyond The Mirage.wav

Peak level 97.9 %
Extraction speed 1.3 X
Track quality 100.0 %
Test CRC 3347F09D
Copy CRC 3347F09D
Cannot be verified as accurate (confidence 156) [1BA57C8B], AccurateRip returned [D9CCF651] (AR v2)
Copy OK

Track 3

Filename C:\Users\user\Documents\Paco de Lucia , Al Di Meola and John Mc Laughlin - The Guitar Trio (1996) [FLAC] {New Integral-Cd 24 of 27}\03 - Midsummer Night.wav

Peak level 97.9 %
Extraction speed 1.4 X
Track quality 100.0 %
Test CRC 237D7FD4
Copy CRC 237D7FD4
Cannot be verified as accurate (confidence 153) [75401E8D], AccurateRip returned [C644B1CD] (AR v2)
Copy OK

Track 4

Filename C:\Users\user\Documents\Paco de Lucia , Al Di Meola and John Mc Laughlin - The Guitar Trio (1996) [FLAC] {New Integral-Cd 24 of 27}\04 - Manha De Carnaval.wav

Peak level 100.0 %
Extraction speed 1.5 X
Track quality 99.9 %
Test CRC D9B50CEC
Copy CRC D9B50CEC
Cannot be verified as accurate (confidence 154) [CFCFAEEC], AccurateRip returned [2BA69B2C] (AR v2)
Copy OK

Track 5

Filename C:\Users\user\Documents\Paco de Lucia , Al Di Meola and John Mc Laughlin - The Guitar Trio (1996) [FLAC] {New Integral-Cd 24 of 27}\05 - Letter From India.wav

Pre-gap length 0:00:02.25

Peak level 97.9 %
Extraction speed 1.6 X
Track quality 100.0 %
Test CRC C7044931
Copy CRC C7044931
Cannot be verified as accurate (confidence 155) [5528C489], AccurateRip returned [C34D584A] (AR v2)
Copy OK

Track 6

Filename C:\Users\user\Documents\Paco de Lucia , Al Di Meola and John Mc Laughlin - The Guitar Trio (1996) [FLAC] {New Integral-Cd 24 of 27}\06 - Espiritu.wav

Pre-gap length 0:00:01.00

Peak level 97.9 %
Extraction speed 1.8 X
Track quality 100.0 %
Test CRC 6A7A0C43
Copy CRC 6A7A0C43
Cannot be verified as accurate (confidence 154) [C2BF784C], AccurateRip returned [3F70386C] (AR v2)
Copy OK

Track 7

Filename C:\Users\user\Documents\Paco de Lucia , Al Di Meola and John Mc Laughlin - The Guitar Trio (1996) [FLAC] {New Integral-Cd 24 of 27}\07 - Le Monastere Dans Les Montagnes.wav

Peak level 97.9 %
Extraction speed 1.9 X
Track quality 100.0 %
Test CRC 1BDDCA98
Copy CRC 1BDDCA98
Cannot be verified as accurate (confidence 153) [2FC36328], AccurateRip returned [243ABCC7] (AR v2)
Copy OK

Track 8

Filename C:\Users\user\Documents\Paco de Lucia , Al Di Meola and John Mc Laughlin - The Guitar Trio (1996) [FLAC] {New Integral-Cd 24 of 27}\08 - Azzura.wav

Pre-gap length 0:00:00.62

Peak level 97.9 %
Extraction speed 2.1 X
Track quality 100.0 %
Test CRC 9FAE418F
Copy CRC 9FAE418F
Cannot be verified as accurate (confidence 151) [7E0C3947], AccurateRip returned [847FED5C] (AR v2)
Copy OK

Track 9

Filename C:\Users\user\Documents\Paco de Lucia , Al Di Meola and John Mc Laughlin - The Guitar Trio (1996) [FLAC] {New Integral-Cd 24 of 27}\09 - Cardeosa.wav

Peak level 97.9 %
Extraction speed 2.2 X
Track quality 100.0 %
Test CRC 0B6656B9
Copy CRC 0B6656B9
Cannot be verified as accurate (confidence 147) [500C823B], AccurateRip returned [8BD8C9C7] (AR v2)
Copy OK


No tracks could be verified as accurate
You may have a different pressing from the one(s) in the database

No errors occurred

End of status report

==== Log checksum 3D1D3E4A3E89182DB515A298DC42E2B468369ED7A1ED211BFB29E18C8AF2F391 ====


Paco de Lucia , Al Di Meola & John McLaughlin - The Guitar Trio (1996) {2010 Nueva Integral Box Set CD 24 of 27}

Paco de Lucia , Al Di Meola & John McLaughlin - The Guitar Trio (1996) {2010 Nueva Integral Box Set CD 24 of 27}


Paco de Lucia & Ricardo Modrego - Dos Guitarras Flamencas en Stereo (1965) {2010 Nueva Integral Box Set CD 01of27}
Paco de Lucia & Ricardo Modrego - 12 Canciones de Garcia Lorca para Guitarra (1965) {2010 Nueva Integral Box Set CD 02of27}
Paco de Lucia & Ricardo Modrego - 12 Exitos para 2 Guitarras Flamencas (1965) {2010 Nueva Integral Box Set CD 03of27}
Paco de Lucia - La Fabulosa Guitarra de Paco de Lucia (1967) {2010 Nueva Integral Box Set CD 04of27}
Paco de Lucia & Ramon de Algeciras - Canciones Andaluzas para 2 Guitarras (1967) {2010 Nueva Integral Box Set CD 05of27}

Paco de Lucia & Ramon de Algeciras - Dos Guitarras Flamencas en America Latina (1967) {2010 Nueva Integral Box Set CD 06of27}
Paco de Lucia - Fantasia Flamenca de Paco de Lucia (1969) {2010 Nueva Integral Box Set CD 07of27}
Paco de Lucia & Ramon de Algeciras - 12 hits para 2 guitarras flamencas y orquesta de cuerda (1969) {2010 Nueva Integral Box Set CD 08of27}
Paco de Lucia & Ramon de Algeciras - En Hispanoamerica (1969) {2010 Nueva Integral Box Set CD 09of27}
Paco de Lucia - El mundo del Flamenco (1971) {2010 Nueva Integral Box Set CD 10of27}

Paco de Lucia - Recital de Guitarra de Paco de Lucia (1971) {2010 Nueva Integral Box Set CD 11of27}
Paco de Lucia - El Duende Flamenco de Paco de Lucia (1972) {2010 Nueva Integral Box Set CD 12of27}
Paco de Lucia - Fuente y Caudal (1973) {2010 Nueva Integral Box Set CD 13of27}
Paco de Lucia - En vivo desde el Teatro Real (1975) {2010 Nueva Integral Box Set CD 14 of 27}
Paco de Lucia - Almoraima (1976) {2010 Nueva Integral Box Set CD 15 of 27}

Paco de Lucia - Interpreta a Manuel de Falla (1978) {2010 Nueva Integral Box Set CD 16 of 27}
Paco de Lucia - Castro Marin (1981) {2010 Nueva Integral Box Set CD 17 of 27}
Paco de Lucia - Solo Quiero Caminar (1981) {2010 Nueva Integral Box Set CD 18 of 27}
Paco de Lucia & Sextet - Live… One Summer Night (1984) {2010 Nueva Integral Box Set CD 19 of 27}
Paco de Lucia - Siroco (1987) {2010 Nueva Integral Box Set CD 20 of 27}

Paco de Lucia - Zyryab (1990) {2010 Nueva Integral Box Set CD 21 of 27}
Paco de Lucia - Concierto de Aranjuez & Iberia (1991) {2010 Nueva Integral Box Set CD 22 of 27}
Paco de Lucia & Sextet - Live in America (1993) {2010 Nueva Integral Box Set CD 23 of 27}


NEXT -> More Paco de Lucia 2010 Nueva Integral Box Set CDs…