Subcategories

Patty Waters - Live (2019)

Posted By: Domestos
Patty Waters - Live (2019)

Patty Waters - Live (2019)
EAC Rip | FLAC (tracks+.cue, log) ~ 239.29 Mb | 44:14 | Covers
Avant-Garde Jazz, Experimental | Country: USA | Label: Blank Forms Editions - BF-009

Known best for her incendiary deconstruction of ‘Black is the Color of My True Love’s Hair’, avant-garde singer and composer Patty Waters is one of the most overlooked icons of her age - perhaps because of the 30-year career hiatus she took between the Sixties and the Nineties. In 2018, she performed a one-off concert in New York titled ‘Blank Forms’, and this release, Patty Waters Live, documents that show. The first side is populated with stark ballads, while the second is full of political yet dignified and moving covers harking back to Waters’ Sixties origins.



Track List:
01. You've Changed (Carey-Fischer) - 4:15
02. I'm So Lonesome I Could Cry (Williams) - 2:55
03. Lover Man (Davis-Ramirez-Sherman) - 4:51
04. I Love You, Porgy (Gershwin) - 4:14
05. Moon, Don't Come Up Tonight (Waters) - 4:21
06. Strange Fruit/Nature Boy (Allan) - 6:59
07. Lonely Woman (Ahbez) - 4:27
08. Hush Little Baby with Ba Ha Bad (Trad.) - 4:55
09. Wild Is the Wind (Tiomkin-Washington) - 7:17

Patty Waters - voice
Burton Greene - piano
Mario Pavone - bass
Barry Altschul - percussion

Recorded live at First Unitarian Congregational Society, Brooklyn, NY on April 5, 2018.

Patty Waters - Live (2019)

Exact Audio Copy V1.3 from 2. September 2016

EAC extraction logfile from 8. April 2020, 20:59

Patty Waters / Live

Used drive : ATAPI iHAS124 F Adapter: 1 ID: 0

Read mode : Secure
Utilize accurate stream : Yes
Defeat audio cache : Yes
Make use of C2 pointers : No

Read offset correction : 6
Overread into Lead-In and Lead-Out : No
Fill up missing offset samples with silence : Yes
Delete leading and trailing silent blocks : No
Null samples used in CRC calculations : Yes
Used interface : Native Win32 interface for Win NT & 2000
Gap handling : Appended to previous track

Used output format : User Defined Encoder
Selected bitrate : 1024 kBit/s
Quality : High
Add ID3 tag : No
Command line compressor : C:\Program Files (x86)\Exact Audio Copy\Flac\flac.exe
Additional command line options : -8 -V -T "ARTIST=%artist%" -T "TITLE=%title%" -T "ALBUM=%albumtitle%" -T "DATE=%year%" -T "TRACKNUMBER=%tracknr%" -T "GENRE=%genre%" -T "PERFORMER=%albuminterpret%" -T "COMPOSER=%composer%" %haslyrics%–tag-from-file=LYRICS="%lyricsfile%"%haslyrics% -T "ALBUMARTIST=%albumartist%" -T "DISCNUMBER=%cdnumber%" -T "TOTALDISCS=%totalcds%" -T "TOTALTRACKS=%numtracks%" -T "COMMENT=%comment%" %source% -o %dest%


TOC of the extracted CD

Track | Start | Length | Start sector | End sector
––––––––––––––––––––––––––––-
1 | 0:00.00 | 4:14.66 | 0 | 19115
2 | 4:14.66 | 2:54.61 | 19116 | 32226
3 | 7:09.52 | 4:51.36 | 32227 | 54087
4 | 12:01.13 | 4:13.38 | 54088 | 73100
5 | 16:14.51 | 4:21.31 | 73101 | 92706
6 | 20:36.07 | 6:58.68 | 92707 | 124124
7 | 27:35.00 | 4:27.09 | 124125 | 144158
8 | 32:02.09 | 4:54.61 | 144159 | 166269
9 | 36:56.70 | 7:17.21 | 166270 | 199065


Track 1

Filename F:\Dropbox\EAC\Patty Waters - Live (2019) [FLAC]\01. You've Changed.wav

Pre-gap length 0:00:02.00

Peak level 94.8 %
Extraction speed 5.1 X
Track quality 100.0 %
Test CRC AE63474E
Copy CRC AE63474E
Track not present in AccurateRip database
Copy OK

Track 2

Filename F:\Dropbox\EAC\Patty Waters - Live (2019) [FLAC]\02. I'm So Lonesome I Could Cry.wav

Peak level 94.7 %
Extraction speed 5.3 X
Track quality 100.0 %
Test CRC ED7E6E5D
Copy CRC ED7E6E5D
Track not present in AccurateRip database
Copy OK

Track 3

Filename F:\Dropbox\EAC\Patty Waters - Live (2019) [FLAC]\03. Lover Man.wav

Peak level 94.7 %
Extraction speed 5.4 X
Track quality 99.9 %
Test CRC 0847AB55
Copy CRC 0847AB55
Track not present in AccurateRip database
Copy OK

Track 4

Filename F:\Dropbox\EAC\Patty Waters - Live (2019) [FLAC]\04. I Love You, Porgy.wav

Peak level 94.9 %
Extraction speed 6.6 X
Track quality 100.0 %
Test CRC 1665E81F
Copy CRC 1665E81F
Track not present in AccurateRip database
Copy OK

Track 5

Filename F:\Dropbox\EAC\Patty Waters - Live (2019) [FLAC]\05. Moon, Don't Come Up Tonight.wav

Peak level 94.8 %
Extraction speed 7.1 X
Track quality 100.0 %
Test CRC 2D5061B3
Copy CRC 2D5061B3
Track not present in AccurateRip database
Copy OK

Track 6

Filename F:\Dropbox\EAC\Patty Waters - Live (2019) [FLAC]\06. Strange Fruit , Nature Boy.wav

Peak level 94.8 %
Extraction speed 7.9 X
Track quality 100.0 %
Test CRC FCE2F2FA
Copy CRC FCE2F2FA
Track not present in AccurateRip database
Copy OK

Track 7

Filename F:\Dropbox\EAC\Patty Waters - Live (2019) [FLAC]\07. Lonely Woman.wav

Peak level 93.6 %
Extraction speed 8.1 X
Track quality 100.0 %
Test CRC E5EF2E2B
Copy CRC E5EF2E2B
Track not present in AccurateRip database
Copy OK

Track 8

Filename F:\Dropbox\EAC\Patty Waters - Live (2019) [FLAC]\08. Hush Little Baby With Ba Ha Bad.wav

Peak level 94.3 %
Extraction speed 7.2 X
Track quality 99.9 %
Test CRC C80AAA95
Copy CRC C80AAA95
Track not present in AccurateRip database
Copy OK

Track 9

Filename F:\Dropbox\EAC\Patty Waters - Live (2019) [FLAC]\09. Wild Is The Wind.wav

Peak level 94.2 %
Extraction speed 8.2 X
Track quality 99.9 %
Test CRC 319A0E21
Copy CRC 319A0E21
Track not present in AccurateRip database
Copy OK


None of the tracks are present in the AccurateRip database

No errors occurred

End of status report

–– CUETools DB Plugin V2.1.6

[CTDB TOCID: 5UAfV6ROd2GLz1AsjlLyVpKYjKU-] disk not present in database
Submit result: 5UAfV6ROd2GLz1AsjlLyVpKYjKU- has been uploaded


==== Log checksum 58A42371A9A094EA1C7A7776D230475C981D4C3D0F121690610C8EF6B824F80E ====

All thanks go to the talzer

More Music in My Blog
Follow My RSS Channel