Subcategories

Pavarotti & Friends - Together For The Children Of Bosnia [Decca 452 100-2] {Europe 1996}

Posted By: luckburz
Pavarotti & Friends - Together For The Children Of Bosnia [Decca 452 100-2] {Europe 1996}

Pavarotti & Friends - Together For The Children Of Bosnia
FLAC, EAC, LOG & CUE | Lossless Artwork | Size: 812 MB
Label/Cat#: Decca 452 100-2 | Country/Year: Europe 1996
Genre: Pop, Contemporary Classical | Hoster: Uploaded/Filepost

MD5 [X] CUE [X] LOG [X] INFO TEXT [X] ARTWORK [X]

webfind [] selfrip [X]


Pavarotti & Friends - Together For The Children Of Bosnia [Decca 452 100-2] {Europe 1996}

Pavarotti & Friends - Together For The Children Of Bosnia [Decca 452 100-2] {Europe 1996}

Extraction Log:

Exact Audio Copy V1.0 beta 2 from 29. April 2011

EAC extraction logfile from 16. November 2011, 12:58

Various / Pavarotti & Friends - Together For The Children Of Bosnia

Used drive : HL-DT-STDVDRAM GSA-H12L Adapter: 0 ID: 0

Read mode : Secure
Utilize accurate stream : Yes
Defeat audio cache : Yes
Make use of C2 pointers : No

Read offset correction : 667
Overread into Lead-In and Lead-Out : No
Fill up missing offset samples with silence : Yes
Delete leading and trailing silent blocks : No
Null samples used in CRC calculations : Yes
Used interface : Native Win32 interface for Win NT & 2000

Used output format : User Defined Encoder
Selected bitrate : 896 kBit/s
Quality : High
Add ID3 tag : No
Command line compressor : C:\Program Files\FLAC\flac.exe
Additional command line options : -5 -T "Artist=%artist%" -T "Title=%title%" -T "Album=%albumtitle%" -T "Date=%year%" -T "Tracknumber=%tracknr%" -T "Genre=%genre%" %source% -o %dest%


TOC of the extracted CD

Track | Start | Length | Start sector | End sector
––––––––––––––––––––––––––––-
1 | 0:00.32 | 4:04.00 | 32 | 18331
2 | 4:04.32 | 4:26.13 | 18332 | 38294
3 | 8:30.45 | 4:28.37 | 38295 | 58431
4 | 12:59.07 | 5:57.00 | 58432 | 85206
5 | 18:56.07 | 5:03.13 | 85207 | 107944
6 | 23:59.20 | 6:22.12 | 107945 | 136606
7 | 30:21.32 | 4:55.38 | 136607 | 158769
8 | 35:16.70 | 4:58.50 | 158770 | 181169
9 | 40:15.45 | 3:25.37 | 181170 | 196581
10 | 43:41.07 | 6:15.50 | 196582 | 224756
11 | 49:56.57 | 3:32.00 | 224757 | 240656
12 | 53:28.57 | 5:21.50 | 240657 | 264781
13 | 58:50.32 | 4:03.50 | 264782 | 283056
14 | 62:54.07 | 5:06.25 | 283057 | 306031
15 | 68:00.32 | 5:33.38 | 306032 | 331044
16 | 73:33.70 | 2:25.12 | 331045 | 341931
17 | 75:59.07 | 2:57.25 | 341932 | 355231


Range status and errors

Selected range

Filename I:\=== VINYL RIPS ===\=== EAC===\Various - Pavarotti & Friends - Together For The Children Of Bosnia.wav

Peak level 100.0 %
Extraction speed 2.1 X
Range quality 100.0 %
Test CRC 8A3A48B9
Copy CRC 8A3A48B9
Copy OK

No errors occurred


AccurateRip summary

Track 1 accurately ripped (confidence 6) [15045ADA] (AR v2)
Track 2 accurately ripped (confidence 6) [08BDD5D4] (AR v2)
Track 3 accurately ripped (confidence 6) [13F4C05E] (AR v2)
Track 4 accurately ripped (confidence 6) [D169843A] (AR v2)
Track 5 accurately ripped (confidence 6) [CA878BA5] (AR v2)
Track 6 accurately ripped (confidence 6) [1A0A979A] (AR v2)
Track 7 accurately ripped (confidence 6) [D6141402] (AR v2)
Track 8 accurately ripped (confidence 6) [044F5EAC] (AR v2)
Track 9 accurately ripped (confidence 6) [7CDB9782] (AR v2)
Track 10 accurately ripped (confidence 6) [FAA3F126] (AR v2)
Track 11 accurately ripped (confidence 6) [5069B15F] (AR v2)
Track 12 accurately ripped (confidence 6) [5D0AB803] (AR v2)
Track 13 accurately ripped (confidence 6) [D912231C] (AR v2)
Track 14 accurately ripped (confidence 6) [09C1785A] (AR v2)
Track 15 accurately ripped (confidence 6) [BB7B057A] (AR v2)
Track 16 accurately ripped (confidence 6) [683155BC] (AR v2)
Track 17 accurately ripped (confidence 6) [C33E5214] (AR v2)

All tracks accurately ripped

End of status report

==== Log checksum 7F1A13CB92D632BA711899E50AFA8A5E1F8461DD328DE13B7E7641E30547E638 ====

CD Info:

Luciano Pavarotti & Friends – For The Children Of Bosnia

Label: Decca
Catalog#: 452 100-2
Format: CD, Compilation
Country: Europe
Released: 1996
Genre: Classical, Folk, World, & Country, Pop, Rock
Style: Pop Rock, Contemporary, Classical

Tracklist:

1 Zucchero – Per Colpa Di Chi? 3:54
2 Luciano Pavarotti • Jovanotti – Serenta Rap/Mattinata 4:13
3 Nenad Bach – Can We Go Higher? 4:18
4 Luciano Pavarotti • Simon Le Bon – Ordinary World 5:44
5 Gam Gam – Clap Clap 4:46
6 Brian Eno • Bono and Edge, The • Luciano Pavarotti – Miss Sarajevo 6:07
7 Luciano Pavarotti • Zucchero – Così Celeste 4:44
8 Dolores O'Riordan • Simon Le Bon – Linger 4:36
9 Luciano Pavarotti • Meat Loaf – Come Back To Sorrento 3:08
10 Jovanotti – Penso Positivo 6:00
11 Luciano Pavarotti • Michael Bolton – Vesti La Giubba 3:17
12 Meat Loaf – Heaven Can Wait 5:09
13 Luciano Pavarotti • Dolores O'Riordan – Ave Maria 3:53
14 Brian Eno • Bono and Edge, The – One 4:55
15 Chieftains, The – The Long Black Veil 5:09
16 Luciano Pavarotti • Chieftains, The – Funiculì, Fuliculà 2:11
17 Ensemble – Nessun Dorma 2:54

Notes:

Live from the Parco Novi Sad, Modena, 12 September 1995 In the presence of Her Royal Highness The Princess of Wales.

CD is made in Germany.

Barcode and Other Identifiers:

Barcode: 028945210025

Discogs Url: http://www.discogs.com/release/3290753

Pavarotti & Friends - Together For The Children Of Bosnia [Decca 452 100-2] {Europe 1996}




If you have problems extracting the RAR files on your HD, please verify these checksums. If they do not match, redownload the not-matching part and try again.

(copy & paste to your editor and save as *.md5 in the folder where the RAR files are located)

ed4fd59808a34891be721717a77973da *FHQA-PaFr-FoThChOfBo-CD.part1.rar
40ca1855cd007b793974632e579c3cef *FHQA-PaFr-FoThChOfBo-CD.part2.rar
3b9a4c218e1791707164b43b0752fc66 *FHQA-PaFr-FoThChOfBo-CD.part3.rar

Password:

finest-hq-audio

Check my blog for other lossless uploads:

http://www.avaxhome.ws/blogs/luckburz
Links:

[Filepost]

Part 1 | Part 2 | Part 3

[Filefactory]

Folder