Subcategories

Pentatonix - A Pentatonix Christmas (Deluxe Edition) (2017)

Posted By: delpotro
Pentatonix - A Pentatonix Christmas (Deluxe Edition) (2017)

Pentatonix - A Pentatonix Christmas (Deluxe Edition) (2017)
EAC Rip | FLAC (tracks+log+.cue) - 332 Mb | MP3 CBR 320 kbps - 117 Mb | 00:51:00
A Capella, Xmas, Pop | Label: RCA Records

A Pentatonix Christmas is the fifth studio album by American a cappella group Pentatonix. It is also their second full-length holiday album since That's Christmas to Me in 2014. Featuring two new original songs, "Good to Be Bad" and "The Christmas Sing-Along", A Pentatonix Christmas debuted on the Billboard 200 at number three with 52,000 albums sold in its first week, and later peaked at number one, selling 206,000 units in its best week. A Pentatonix Christmas marks as their second number one album on the Billboard 200 after Pentatonix. The album also debuted atop the Billboard Holiday Albums chart, their second number one on that chart after That's Christmas to Me. As of January 2017, 904,000 units of A Pentatonix Christmas have been sold in the US and 1,400,000 units worldwide. A deluxe edition is set to be released on October 20, 2017, almost a year after the original's release.
Tracklist:
1. O Come, All Ye Faithful
2. God Rest Ye Merry Gentlemen
3. White Christmas - Pentatonix feat. The Manhattan Transfer
4. I'll Be Home For Christmas
5. Up On The Housetop
6. The Christmas Sing-Along
7. Coventry Carol
8. Hallelujah
9. Coldest Winter
10. Good To Be Bad
11. Merry Christmas, Happy Holidays
12. Deck The Halls
13. How Great Thou Art - Penatonix feat. Jennifer Hudson
14. Away In A Manger
15. Let It Snow! Let It Snow! Let It Snow!
16. Hallelujah - Pentatonix feat. The String Mob

Exact Audio Copy V1.3 from 2. September 2016

EAC extraction logfile from 19. October 2017, 23:15

Pentatonix / A Penatonix Christmas Deluxe

Used drive : ASUS DRW-24B3ST Adapter: 1 ID: 0

Read mode : Secure
Utilize accurate stream : Yes
Defeat audio cache : Yes
Make use of C2 pointers : No

Read offset correction : 6
Overread into Lead-In and Lead-Out : No
Fill up missing offset samples with silence : Yes
Delete leading and trailing silent blocks : No
Null samples used in CRC calculations : Yes
Used interface : Native Win32 interface for Win NT & 2000
Gap handling : Appended to previous track

Used output format : User Defined Encoder
Selected bitrate : 1024 kBit/s
Quality : High
Add ID3 tag : No
Command line compressor : C:\Program Files (x86)\Exact Audio Copy\FLAC\FLAC.EXE
Additional command line options : -8 -V -T "ARTIST=%artist%" -T "TITLE=%title%" -T "ALBUM=%albumtitle%" -T "DATE=%year%" -T "TRACKNUMBER=%tracknr%" -T "GENRE=%genre%" -T "PERFORMER=%albuminterpret%" -T "COMPOSER=%composer%" %haslyrics%–tag-from-file=LYRICS="%lyricsfile%"%haslyrics% -T "ALBUMARTIST=%albumartist%" -T "DISCNUMBER=%cdnumber%" -T "TOTALDISCS=%totalcds%" -T "TOTALTRACKS=%numtracks%" -T "COMMENT=%comment%" %source% -o %dest%


TOC of the extracted CD

Track | Start | Length | Start sector | End sector
––––––––––––––––––––––––––––-
1 | 0:00.00 | 3:35.70 | 0 | 16194
2 | 3:35.70 | 2:29.51 | 16195 | 27420
3 | 6:05.46 | 3:19.00 | 27421 | 42345
4 | 9:24.46 | 3:27.42 | 42346 | 57912
5 | 12:52.13 | 2:14.68 | 57913 | 68030
6 | 15:07.06 | 3:17.28 | 68031 | 82833
7 | 18:24.34 | 3:02.29 | 82834 | 96512
8 | 21:26.63 | 4:28.72 | 96513 | 116684
9 | 25:55.60 | 2:28.12 | 116685 | 127796
10 | 28:23.72 | 2:07.20 | 127797 | 137341
11 | 30:31.17 | 3:56.20 | 137342 | 155061
12 | 34:27.37 | 2:46.55 | 155062 | 167566
13 | 37:14.17 | 4:09.13 | 167567 | 186254
14 | 41:23.30 | 3:04.51 | 186255 | 200105
15 | 44:28.06 | 2:00.68 | 200106 | 209173
16 | 46:28.74 | 4:30.67 | 209174 | 229490


Track 1

Filename V:\EAC\Pentatonix - A Pentatonix Christmas Deluxe (2017) [FLAC] {RCA 88985-47691-2}\01 - O Come, All Ye Faithful.wav

Pre-gap length 0:00:02.00

Peak level 99.8 %
Extraction speed 5.5 X
Track quality 100.0 %
Test CRC 8D181611
Copy CRC 8D181611
Track not present in AccurateRip database
Copy OK

Track 2

Filename V:\EAC\Pentatonix - A Pentatonix Christmas Deluxe (2017) [FLAC] {RCA 88985-47691-2}\02 - God Rest Ye Merry Gentlemen.wav

Peak level 99.8 %
Extraction speed 5.5 X
Track quality 100.0 %
Test CRC 8EB6C299
Copy CRC 8EB6C299
Track not present in AccurateRip database
Copy OK

Track 3

Filename V:\EAC\Pentatonix - A Pentatonix Christmas Deluxe (2017) [FLAC] {RCA 88985-47691-2}\03 - White Christmas (feat. The Manhattan Transfer).wav

Peak level 99.8 %
Extraction speed 6.2 X
Track quality 100.0 %
Test CRC 8EE0A6DF
Copy CRC 8EE0A6DF
Track not present in AccurateRip database
Copy OK

Track 4

Filename V:\EAC\Pentatonix - A Pentatonix Christmas Deluxe (2017) [FLAC] {RCA 88985-47691-2}\04 - I'll Be Home For Christmas.wav

Peak level 99.8 %
Extraction speed 6.6 X
Track quality 100.0 %
Test CRC 70746A98
Copy CRC 70746A98
Track not present in AccurateRip database
Copy OK

Track 5

Filename V:\EAC\Pentatonix - A Pentatonix Christmas Deluxe (2017) [FLAC] {RCA 88985-47691-2}\05 - Up On The Housetop.wav

Peak level 99.8 %
Extraction speed 6.3 X
Track quality 100.0 %
Test CRC FDD1EC1D
Copy CRC FDD1EC1D
Track not present in AccurateRip database
Copy OK

Track 6

Filename V:\EAC\Pentatonix - A Pentatonix Christmas Deluxe (2017) [FLAC] {RCA 88985-47691-2}\06 - The Christmas Sing-Along.wav

Peak level 99.8 %
Extraction speed 7.1 X
Track quality 100.0 %
Test CRC AD160EB5
Copy CRC AD160EB5
Track not present in AccurateRip database
Copy OK

Track 7

Filename V:\EAC\Pentatonix - A Pentatonix Christmas Deluxe (2017) [FLAC] {RCA 88985-47691-2}\07 - Coventry Carol.wav

Peak level 99.8 %
Extraction speed 7.2 X
Track quality 100.0 %
Test CRC 5C78B27D
Copy CRC 5C78B27D
Track not present in AccurateRip database
Copy OK

Track 8

Filename V:\EAC\Pentatonix - A Pentatonix Christmas Deluxe (2017) [FLAC] {RCA 88985-47691-2}\08 - Hallelujah.wav

Peak level 99.8 %
Extraction speed 8.0 X
Track quality 100.0 %
Test CRC 8B53988D
Copy CRC 8B53988D
Track not present in AccurateRip database
Copy OK

Track 9

Filename V:\EAC\Pentatonix - A Pentatonix Christmas Deluxe (2017) [FLAC] {RCA 88985-47691-2}\09 - Coldest Winter.wav

Peak level 99.8 %
Extraction speed 7.5 X
Track quality 100.0 %
Test CRC 60ECDD29
Copy CRC 60ECDD29
Track not present in AccurateRip database
Copy OK

Track 10

Filename V:\EAC\Pentatonix - A Pentatonix Christmas Deluxe (2017) [FLAC] {RCA 88985-47691-2}\10 - Good To Be Bad.wav

Peak level 99.8 %
Extraction speed 7.4 X
Track quality 100.0 %
Test CRC 87DCF0B6
Copy CRC 87DCF0B6
Track not present in AccurateRip database
Copy OK

Track 11

Filename V:\EAC\Pentatonix - A Pentatonix Christmas Deluxe (2017) [FLAC] {RCA 88985-47691-2}\11 - Merry Christmas, Happy Holidays.wav

Peak level 99.8 %
Extraction speed 8.5 X
Track quality 100.0 %
Test CRC 8FA0783E
Copy CRC 8FA0783E
Track not present in AccurateRip database
Copy OK

Track 12

Filename V:\EAC\Pentatonix - A Pentatonix Christmas Deluxe (2017) [FLAC] {RCA 88985-47691-2}\12 - Deck The Halls.wav

Peak level 99.8 %
Extraction speed 8.3 X
Track quality 100.0 %
Test CRC 2E9BBCD1
Copy CRC 2E9BBCD1
Track not present in AccurateRip database
Copy OK

Track 13

Filename V:\EAC\Pentatonix - A Pentatonix Christmas Deluxe (2017) [FLAC] {RCA 88985-47691-2}\13 - How Great Thou Art (feat. Jennifer Hudson).wav

Peak level 96.0 %
Extraction speed 9.1 X
Track quality 100.0 %
Test CRC 048C2D2E
Copy CRC 048C2D2E
Track not present in AccurateRip database
Copy OK

Track 14

Filename V:\EAC\Pentatonix - A Pentatonix Christmas Deluxe (2017) [FLAC] {RCA 88985-47691-2}\14 - Away In A Manger.wav

Peak level 99.8 %
Extraction speed 9.0 X
Track quality 100.0 %
Test CRC 91EC4B5E
Copy CRC 91EC4B5E
Track not present in AccurateRip database
Copy OK

Track 15

Filename V:\EAC\Pentatonix - A Pentatonix Christmas Deluxe (2017) [FLAC] {RCA 88985-47691-2}\15 - Let It Snow! Let It Snow! Let It Snow!.wav

Peak level 99.8 %
Extraction speed 8.3 X
Track quality 100.0 %
Test CRC 8A9103B2
Copy CRC 8A9103B2
Track not present in AccurateRip database
Copy OK

Track 16

Filename V:\EAC\Pentatonix - A Pentatonix Christmas Deluxe (2017) [FLAC] {RCA 88985-47691-2}\16 - Hallelujah (feat. The String Mob).wav

Peak level 99.8 %
Extraction speed 8.4 X
Track quality 99.9 %
Test CRC 1BE8920B
Copy CRC 1BE8920B
Track not present in AccurateRip database
Copy OK


None of the tracks are present in the AccurateRip database

No errors occurred

End of status report

–– CUETools DB Plugin V2.1.6

[CTDB TOCID: TlhKHwjnaT6QBL8xN1_3z.s5yOs-] disk not present in database
Submit result: TlhKHwjnaT6QBL8xN1_3z.s5yOs- has been uploaded


==== Log checksum F68E5949DC3778BB588A360C8D97840547498D1E875D6415EA765FDA14FE93F7 ====

Thanks to the Original ripper Soliloquy !