Subcategories

Peo Alfonsi - Change of Heart (2015)

Posted By: Domestos
Peo Alfonsi - Change of Heart (2015)

Peo Alfonsi - Change of Heart (2015)
EAC Rip | FLAC (tracks+.cue, log) ~ 235.97 Mb | 52:21 | Scans included
Post-Bop, Contemporary Jazz | Country: Italy | Label: In-Akustik/Songsurfer (INAK 9144 CD)

When a complex arrangement of music for a band is distilled down to a single instrument, that’s when the strength of the song’s structure, the essential beauty of its melody and harmony, is fully revealed. We know the basic building blocks of Pat Metheny’s compositions are solid and often sublime, so it’s great to be reminded of them. Peo Alfonsi, the Sardinian who first came to international attention when Al Di Meola chose to pay in a duo with him and then incorporated him into his New World Sinfonia, plays an acoustic guitar and here treats 13 of Metheny’s tunes to his own interpretations.

There are no overdubs and on one song, Mas Alla, he is joined by Ivan Lopez singing lyrics by Pedro Aznar. All the rest are solo Alfonsi. You’ll find many of your favourites here, from Farmer’s Trust to James, from Every Day (I Thank You) to It’s Just Talk, from So May It Secretly Begin to Change Of Heart. I’m sure there will be added fascination here for guitarists – Alfonsi manages to convey a whole band’s worth of musical information with just six strings and two hands – but for the rest of us there are the simple pleasures of hearing songs we know and love given fresh interpretations by a guitarist who manages the whole thing without ever sounding like a Metheny mimic. He is definitely his own man, and an exceptionally sensitive and insightful player. If you have all the Metheny albums you want, you might feel you don’t really need this disc as well. But have a listen – it might just change your mind. ~ Review by Peter Bacon

Peo Alfonsi - solo guitar
Ivan Lopez - vocals (#6)

Recorded at Movie Your Sound, Verona on November 6-7, 2014.
Ivan Lopez's vocals recorded at LAb06 Studio, Valencia.

Track List:
01. Farmer's Trust (Metheny) - 3:45
02. Midwestern Nights Dream (Metheny) - 3:24
03. James (Metheny) - 2:17
04. Story from a Stranger (Metheny) - 4:24
05. It's Just Talk (Metheny) - 4:29
06. Mas Alla (feat. Ivan Lopez) (Metheny-Aznar) - 7:01
07. Unity Village (Metheny) - 2:31
08. So May It Secretly Begin (Metheny) - 4:31
09. Antonia (Metheny) - 3:57
10. Every Day (I Thank You) (Metheny) - 5:00
11. 80/81 (Metheny) - 3:23
12. Change of Heart (Metheny) - 3:41
13. The Bat (Metheny) - 3:58

Peo Alfonsi - Change of Heart (2015)

Exact Audio Copy V1.3 from 2. September 2016

EAC extraction logfile from 28. June 2017, 13:40

Peo Alfonsi / Change Of Heart

Used drive : Optiarc BD ROM BC-5650H Adapter: 1 ID: 1

Read mode : Secure
Utilize accurate stream : Yes
Defeat audio cache : Yes
Make use of C2 pointers : No

Read offset correction : 48
Overread into Lead-In and Lead-Out : No
Fill up missing offset samples with silence : Yes
Delete leading and trailing silent blocks : No
Null samples used in CRC calculations : Yes
Used interface : Native Win32 interface for Win NT & 2000
Gap handling : Appended to previous track

Used output format : User Defined Encoder
Selected bitrate : 1024 kBit/s
Quality : High
Add ID3 tag : No
Command line compressor : C:\Program Files\Exact Audio Copy\Flac\flac.exe
Additional command line options : -8 -e -V -T "ARTIST=%artist%" -T "TITLE=%title%" -T "ALBUM=%albumtitle%" -T "DATE=%year%" -T "TRACKNUMBER=%tracknr%" -T "GENRE=%genre%" -T "PERFORMER=%albuminterpret%" -T "COMPOSER=%composer%" %haslyrics%–tag-from-file=LYRICS="%lyricsfile%"%haslyrics% -T "ALBUMARTIST=%albumartist%" -T "DISCNUMBER=%cdnumber%" -T "TOTALDISCS=%totalcds%" -T "TOTALTRACKS=%numtracks%" -T "COMMENT=%comment%" %source% -o %dest%

TOC of the extracted CD

Track | Start | Length | Start sector | End sector
––––––––––––––––––––––––––––-
1 | 0:00.00 | 3:44.57 | 0 | 16856
2 | 3:44.57 | 3:23.46 | 16857 | 32127
3 | 7:08.28 | 2:17.20 | 32128 | 42422
4 | 9:25.48 | 4:24.07 | 42423 | 62229
5 | 13:49.55 | 4:28.54 | 62230 | 82383
6 | 18:18.34 | 7:01.29 | 82384 | 113987
7 | 25:19.63 | 2:30.68 | 113988 | 125305
8 | 27:50.56 | 4:30.51 | 125306 | 145606
9 | 32:21.32 | 3:57.36 | 145607 | 163417
10 | 36:18.68 | 4:59.48 | 163418 | 185890
11 | 41:18.41 | 3:22.44 | 185891 | 201084
12 | 44:41.10 | 3:41.17 | 201085 | 217676
13 | 48:22.27 | 3:57.69 | 217677 | 235520

Track 1

Filename Z:\home\enconding\FLAC\Peo Alfonsi - Change Of Heart (2015) [FLAC] {}\01 - Farmer's Trust.wav

Pre-gap length 0:00:02.00

Peak level 75.7 %
Extraction speed 9.3 X
Track quality 99.9 %
Test CRC CE8E600C
Copy CRC CE8E600C
Accurately ripped (confidence 1) [3BF63E5E] (AR v2)
Copy OK

Track 2

Filename Z:\home\enconding\FLAC\Peo Alfonsi - Change Of Heart (2015) [FLAC] {}\02 - Midwestern Nights Dream.wav

Peak level 91.7 %
Extraction speed 10.8 X
Track quality 100.0 %
Test CRC F2213354
Copy CRC F2213354
Accurately ripped (confidence 1) [9F3865A9] (AR v2)
Copy OK

Track 3

Filename Z:\home\enconding\FLAC\Peo Alfonsi - Change Of Heart (2015) [FLAC] {}\03 - James.wav

Peak level 81.7 %
Extraction speed 11.1 X
Track quality 100.0 %
Test CRC 59266B64
Copy CRC 59266B64
Accurately ripped (confidence 1) [D845BFFA] (AR v2)
Copy OK

Track 4

Filename Z:\home\enconding\FLAC\Peo Alfonsi - Change Of Heart (2015) [FLAC] {}\04 - Story From A Stranger.wav

Peak level 79.3 %
Extraction speed 12.5 X
Track quality 100.0 %
Test CRC 5DDB9235
Copy CRC 5DDB9235
Accurately ripped (confidence 1) [8208CA75] (AR v2)
Copy OK

Track 5

Filename Z:\home\enconding\FLAC\Peo Alfonsi - Change Of Heart (2015) [FLAC] {}\05 - It's Just Talk.wav

Peak level 81.2 %
Extraction speed 13.4 X
Track quality 100.0 %
Test CRC 567EC2FB
Copy CRC 567EC2FB
Accurately ripped (confidence 1) [D5B09B3A] (AR v2)
Copy OK

Track 6

Filename Z:\home\enconding\FLAC\Peo Alfonsi - Change Of Heart (2015) [FLAC] {}\06 - Mas Alla (Feat. Ivan Lopez).wav

Peak level 94.5 %
Extraction speed 14.8 X
Track quality 100.0 %
Test CRC 4A489FA1
Copy CRC 4A489FA1
Accurately ripped (confidence 1) [4BBF53A4] (AR v2)
Copy OK

Track 7

Filename Z:\home\enconding\FLAC\Peo Alfonsi - Change Of Heart (2015) [FLAC] {}\07 - Unity Village.wav

Pre-gap length 0:00:01.39

Peak level 76.5 %
Extraction speed 14.4 X
Track quality 100.0 %
Test CRC DE0A7A6E
Copy CRC DE0A7A6E
Accurately ripped (confidence 1) [CABA8334] (AR v2)
Copy OK

Track 8

Filename Z:\home\enconding\FLAC\Peo Alfonsi - Change Of Heart (2015) [FLAC] {}\08 - So May It Secretly Begin.wav

Peak level 83.6 %
Extraction speed 15.7 X
Track quality 100.0 %
Test CRC 3473C140
Copy CRC 3473C140
Accurately ripped (confidence 1) [9E4AD7A9] (AR v2)
Copy OK

Track 9

Filename Z:\home\enconding\FLAC\Peo Alfonsi - Change Of Heart (2015) [FLAC] {}\09 - Antonia.wav

Peak level 93.0 %
Extraction speed 16.0 X
Track quality 100.0 %
Test CRC E967610C
Copy CRC E967610C
Accurately ripped (confidence 1) [C5A97F7E] (AR v2)
Copy OK

Track 10

Filename Z:\home\enconding\FLAC\Peo Alfonsi - Change Of Heart (2015) [FLAC] {}\10 - Every Day (I Thank You).wav

Peak level 84.1 %
Extraction speed 16.9 X
Track quality 100.0 %
Test CRC 77713E68
Copy CRC 77713E68
Accurately ripped (confidence 1) [921B2ABB] (AR v2)
Copy OK

Track 11

Filename Z:\home\enconding\FLAC\Peo Alfonsi - Change Of Heart (2015) [FLAC] {}\11 - 80-81.wav

Peak level 78.2 %
Extraction speed 16.9 X
Track quality 100.0 %
Test CRC B56777A9
Copy CRC B56777A9
Accurately ripped (confidence 1) [5627ABB7] (AR v2)
Copy OK

Track 12

Filename Z:\home\enconding\FLAC\Peo Alfonsi - Change Of Heart (2015) [FLAC] {}\12 - Change Of Heart.wav

Pre-gap length 0:00:01.42

Peak level 93.1 %
Extraction speed 17.5 X
Track quality 100.0 %
Test CRC 0847DE43
Copy CRC 0847DE43
Accurately ripped (confidence 1) [DBD3D832] (AR v2)
Copy OK

Track 13

Filename Z:\home\enconding\FLAC\Peo Alfonsi - Change Of Heart (2015) [FLAC] {}\13 - The Bat.wav

Peak level 81.8 %
Extraction speed 18.1 X
Track quality 100.0 %
Test CRC FE15BE1E
Copy CRC FE15BE1E
Accurately ripped (confidence 1) [06DC0F86] (AR v2)
Copy OK

All tracks accurately ripped

No errors occurred

End of status report

==== Log checksum CD422547960D64D5E1A2C7B407B3C02EF3D186AC23432B735771BBB315A1C423 ====

All thanks go to the gagarin

More Music in My Blog
Follow My RSS Channel