Subcategories

Pepper Adams - Plays Charlie Mingus (1963) {Fresh Sounds FSR-CD 341 rel 2003}

Posted By: ruskaval
Pepper Adams - Plays Charlie Mingus (1963) {Fresh Sounds FSR-CD 341 rel 2003}

Pepper Adams - Plays Charlie Mingus (1963) {Fresh Sounds FSR-CD 341 rel 2003}
EAC rip (secure mode) | FLAC (tracks)+CUE+LOG -> 246 Mb | MP3 @320 -> 99 Mb
Full Artwork @ 300 dpi (jpg) -> 17 Mb | 5% repair rar
© 1963, 2003 Fresh Sounds Records | FSR-CD 341
Jazz / Hard Bop / Baritone Saxophone

Pepper Adams' Plays Charlie Mingus is a watershed album in Adams' long career. For starters, Mingus himself had a hand in the selection of material for the dates, along with Adams and vibist Teddy Charles. Next, the two dates here, September 9 and 12, 1963, were recorded with two different bands. Most of the material was taped on the earlier date with an octet comprised of Adams, Mingus' own drummer, Danny Richmond, bassist Paul Chambers, and Thad Jones on trumpet and his brother Hank on piano. The latter date added Charles McPherson on alto, Zoot Sims on tenor, Bennie Powell on trombone, and had Bob Cranshaw replacing Chambers on bass.

Adams' read of "Fables of Faubus," by the quintet with its loping, rather than careening, pace, was arranged by Thad Jones approved by the composer. Historically, it is also the first recording of the work without vocals. "Incarnation," also by the quintet, was arranged by Adams. Hank Jones leads the band in the piece's difficult rhythmic and harmonic structures, and he edges Adams and Thad Jones on in the front line; Pepper's solo and fills are among the most moving and knotty of his career. Of the octet session, "Haitian Fight Song" is as furious as the composer's, as Cranshaw's bass drives the band inexhaustibly into the spirit of righteous indignation and rage at its heart. On "Better Git It in Your Soul," Sims and Powell's solos are full of gut-bucket funk and stride the R&B line with aplomb and plenty of grease. This is one of those must-own recordings for fans of Adams; but it is also for those who revere Mingus' work, because, as radical as some of these interpretations are, they were not only sanctioned by, but delighted in by the composer.

Personnel:
Pepper Adams – baritone saxophone
Thad Jones – trumpet
Benny Powell – trombone
Charles McPherson – alto saxophone
Zoot Sims – tenor saxophone
Hank Jones – piano
Paul Chambers, Bob Cranshaw – bass
Dannie Richmond – drums

tracklist:
01 - Fables of Faubus
02 - Black light
03 - Song with orange
04 - Carolyn
05 - Better git in your soul
06 - Incarnation
07 - Portarait
08 - Haitian fight song
09 - Strollin' honies

Exact Audio Copy V1.0 beta 3 from 29. August 2011

EAC extraction logfile from 17. February 2012, 12:31

Pepper Adams / Plays Charlie Mingus

Used drive : HP DVD Writer 1270t Adapter: 1 ID: 1

Read mode : Secure
Utilize accurate stream : Yes
Defeat audio cache : Yes
Make use of C2 pointers : No

Read offset correction : 6
Overread into Lead-In and Lead-Out : No
Fill up missing offset samples with silence : Yes
Delete leading and trailing silent blocks : No
Null samples used in CRC calculations : Yes
Used interface : Native Win32 interface for Win NT & 2000
Gap handling : Appended to previous track

Used output format : User Defined Encoder
Selected bitrate : 896 kBit/s
Quality : High
Add ID3 tag : No
Command line compressor : C:\Program Files (x86)\Exact Audio Copy\Flac\flac.exe
Additional command line options : -8 -V -T "ARTIST=%artist%" -T "TITLE=%title%" -T "ALBUM=%albumtitle%" -T "DATE=%year%" -T "TRACKNUMBER=%tracknr%" -T "TOTALTRACKS=%numtracks%" -T "GENRE=%genre%" -T "ALBUMARTIST=%albumartist%" -T "ALBUM ARTIST=%albumartist%" -T "COMMENT=EAC Secure Mode, Test & Copy, AccurateRip, FLAC -8" %source%


TOC of the extracted CD

Track | Start | Length | Start sector | End sector
––––––––––––––––––––––––––––-
1 | 0:00.00 | 4:27.12 | 0 | 20036
2 | 4:27.12 | 3:41.38 | 20037 | 36649
3 | 8:08.50 | 2:37.28 | 36650 | 48452
4 | 10:46.03 | 5:02.03 | 48453 | 71105
5 | 15:48.06 | 4:04.38 | 71106 | 89443
6 | 19:52.44 | 5:46.21 | 89444 | 115414
7 | 25:38.65 | 2:56.08 | 115415 | 128622
8 | 28:34.73 | 7:54.24 | 128623 | 164196
9 | 36:29.22 | 5:30.35 | 164197 | 188981


Track 1

Filename U:\Flac Rips\A\Pepper Adams - Plays Charlie Mingus (1963) [FLAC]\01 - Fables of Faubus.wav

Pre-gap length 0:00:02.00

Peak level 96.0 %
Extraction speed 1.8 X
Track quality 100.0 %
Test CRC 75FFCA85
Copy CRC 75FFCA85
Accurately ripped (confidence 3) [2162AB61] (AR v1)
Copy OK

Track 2

Filename U:\Flac Rips\A\Pepper Adams - Plays Charlie Mingus (1963) [FLAC]\02 - Black light.wav

Peak level 89.0 %
Extraction speed 2.0 X
Track quality 100.0 %
Test CRC 681958E1
Copy CRC 681958E1
Accurately ripped (confidence 3) [6B218944] (AR v1)
Copy OK

Track 3

Filename U:\Flac Rips\A\Pepper Adams - Plays Charlie Mingus (1963) [FLAC]\03 - Song with orange.wav

Peak level 92.4 %
Extraction speed 1.3 X
Track quality 99.9 %
Test CRC FFF59084
Copy CRC FFF59084
Accurately ripped (confidence 3) [268BCDB9] (AR v1)
Copy OK

Track 4

Filename U:\Flac Rips\A\Pepper Adams - Plays Charlie Mingus (1963) [FLAC]\04 - Carolyn.wav

Peak level 90.4 %
Extraction speed 2.4 X
Track quality 100.0 %
Test CRC 9EA616E8
Copy CRC 9EA616E8
Accurately ripped (confidence 3) [89E4DADE] (AR v1)
Copy OK

Track 5

Filename U:\Flac Rips\A\Pepper Adams - Plays Charlie Mingus (1963) [FLAC]\05 - Better git in your soul.wav

Peak level 91.8 %
Extraction speed 2.5 X
Track quality 100.0 %
Test CRC A3577F29
Copy CRC A3577F29
Accurately ripped (confidence 3) [D2BF078E] (AR v1)
Copy OK

Track 6

Filename U:\Flac Rips\A\Pepper Adams - Plays Charlie Mingus (1963) [FLAC]\06 - Incarnation.wav

Peak level 97.0 %
Extraction speed 2.2 X
Track quality 99.9 %
Test CRC 2A5AA6F5
Copy CRC 2A5AA6F5
Accurately ripped (confidence 3) [CADF31BB] (AR v1)
Copy OK

Track 7

Filename U:\Flac Rips\A\Pepper Adams - Plays Charlie Mingus (1963) [FLAC]\07 - Portarait.wav

Peak level 97.3 %
Extraction speed 2.7 X
Track quality 100.0 %
Test CRC 9AC048A6
Copy CRC 9AC048A6
Accurately ripped (confidence 3) [55B29BA0] (AR v1)
Copy OK

Track 8

Filename U:\Flac Rips\A\Pepper Adams - Plays Charlie Mingus (1963) [FLAC]\08 - Haitian fight song.wav

Peak level 92.2 %
Extraction speed 3.2 X
Track quality 100.0 %
Test CRC 38E267CC
Copy CRC 38E267CC
Accurately ripped (confidence 3) [3DF875FF] (AR v1)
Copy OK

Track 9

Filename U:\Flac Rips\A\Pepper Adams - Plays Charlie Mingus (1963) [FLAC]\09 - Strollin' honies.wav

Peak level 83.4 %
Extraction speed 3.3 X
Track quality 100.0 %
Test CRC 8D7B019D
Copy CRC 8D7B019D
Accurately ripped (confidence 3) [7738DA16] (AR v1)
Copy OK


All tracks accurately ripped

No errors occurred

End of status report

==== Log checksum 5DF645AAA0D1F0BA95311D36FAA8648B21F5CDEA9576A2FCB6F12EE567A39DB1 ====


Pepper Adams - Plays Charlie Mingus (1963) {Fresh Sounds FSR-CD 341 rel 2003}

Pepper Adams - Plays Charlie Mingus (1963) {Fresh Sounds FSR-CD 341 rel 2003}



===