Subcategories

Peter Apfelbaum & The New York Hieroglyphics - It Is Written (2005)

Posted By: Domestos
Peter Apfelbaum & The New York Hieroglyphics - It Is Written (2005)

Peter Apfelbaum & The New York Hieroglyphics - It Is Written (2005)
EAC Rip | FLAC (image+.cue, log) ~ 375.33 Mb | 1:00:21 | Cover
Contemporary Jazz | Label: ACT Music (ACT-9437-2)

Saxophonist Peter Apfelbaum gathered together a new version of his Hieroglyphics for this record date, inspired by rediscovering fragments of music left over from the 1970s. Influenced strongly not only by avant-garde jazz but world music, the Hieroglyphics are, at times, reminiscent of Abdullah Ibrahim's groups, open to the rhythms, harmonies, and melodies of American, Latin, European, African, and Asian music. While the band has a strong group sound, Apfelbaum's nine originals cover a wide variety of music including the vocal-dominated "Titiwa" (featuring Abdoulaye Diabate), a number showcasing the leader on harmonium, some ensemble-oriented pieces, and others with short and fiery solos. Although not for the jazz purist, there is plenty of spirit to these performances, serving as an opportunity for Peter Apfelbaum to look both backwards and forward simultaneously. ~ AllMusic Review by Scott Yanow

Peter Apfelbaum: piano, organ, tenor sax, clarinet, flute, harmonium, melodica, qarqabas, bata drums
Peck Allmond: tenor sax,
Josh Roseman: trombone
Jessica Jones: tenor sax
Tony Jones: tenor sax,
Norbert Stachel: bass sax
Craig Handy: alto sax
Steven Bernstein: slide trumpet
Natalie Cressman trombone
Jeff Cressman: trombone
Charles Burnham: violin
Juliana Cressman: violin
David Phelps: guitar
Viva De Concini: guitar
Will Bernard: guitar
Trey Anastasio: electric guitar
Patrice Blanchard: bass
John Shifflettv: acoustic bass
Abdoulaye Diabate: vocal
Jai Uttal: vocal, harmonium
Dafnis Prieto: caxixi
Cyro Baptista: pandeiro, caxixi, bells
Josh Jones: bata drums
David Frazier: bata drums
Aaron Johnston: drums
Deszon X. Claiborne: drums

Recorded at Loho Studios, NYC, September 22 - 24, 2004

Track List:
1. Prelude
2. Labile (Unfolding)
3. Rainbow Sign
4. Apparition/Projectiles
5. Song of the Signs
6. Petroglyph Extension
7. Shotgun Bouquet
8. It Is Written
9. Titiwa

Exact Audio Copy V0.99 prebeta 4 from 23. January 2008

EAC extraction logfile from 26. February 2009, 20:38

Peter Apfelbaum / It Is Written

Used drive : TSSTcorpCD/DVDW SH-S182M Adapter: 2 ID: 1

Read mode : Secure
Utilize accurate stream : Yes
Defeat audio cache : Yes
Make use of C2 pointers : No

Read offset correction : 6
Overread into Lead-In and Lead-Out : No
Fill up missing offset samples with silence : Yes
Delete leading and trailing silent blocks : No
Null samples used in CRC calculations : Yes
Used interface : Installed external ASPI interface

Used output format : User Defined Encoder
Selected bitrate : 1024 kBit/s
Quality : High
Add ID3 tag : No
Command line compressor : C:\Program Files\Exact Audio Copy\FLAC\FLAC.EXE
Additional command line options : -8 -V -T "ARTIST=%a" -T "TITLE=%t" -T "ALBUM=%g" -T "DATE=%y" -T "TRACKNUMBER=%n" -T "GENRE=%m" -T "COMMENT=%e" %s -o %d

TOC of the extracted CD

Track | Start | Length | Start sector | End sector
––––––––––––––––––––––––––––-
1 | 0:00.00 | 1:17.39 | 0 | 5813
2 | 1:17.39 | 2:18.74 | 5814 | 16237
3 | 3:36.38 | 7:28.48 | 16238 | 49885
4 | 11:05.11 | 14:29.32 | 49886 | 115092
5 | 25:34.43 | 6:04.62 | 115093 | 142454
6 | 31:39.30 | 3:21.31 | 142455 | 157560
7 | 35:00.61 | 11:55.56 | 157561 | 211241
8 | 46:56.42 | 5:27.60 | 211242 | 235826
9 | 52:24.27 | 7:56.48 | 235827 | 271574

Range status and errors

Selected range

Filename C:\Documents and Settings\Igor\My Documents\My Music\eac\Peter Apfelbaum - It Is Written.wav

Peak level 98.7 %
Range quality 100.0 %
Test CRC A3BBF837
Copy CRC A3BBF837
Copy OK

No errors occurred

AccurateRip summary

Track 1 not present in database
Track 2 not present in database
Track 3 not present in database
Track 4 not present in database
Track 5 not present in database
Track 6 not present in database
Track 7 not present in database
Track 8 not present in database
Track 9 not present in database

None of the tracks are present in the AccurateRip database

End of status report

All thanks go to the ivoronen

More Music in My Blog
Follow My RSS Channel