Subcategories

Petr Hejny - Carl Friedrich Abel: Six Sonatas for Viola da Gamba Solo (1994)

Posted By: Domestos
Petr Hejny - Carl Friedrich Abel: Six Sonatas for Viola da Gamba Solo (1994)

Petr Hejny - Carl Friedrich Abel: Six Sonatas for Viola da Gamba Solo (1994)
EAC Rip | FLAC (tracks+.cue, log) ~ 249.65 Mb | 63:34 | Scans included
Classical sonatas | Label: ARTA Records (F1 0046-2)

Petr Hejny comes from a family of sculptors. At the age of seven he started playing the violin and two years later began cello lessons with Professor K. P. Sádlo. Afterwards he studied the Prague Conservatory under Professors Viktor Moučka and Josef Chuchro and at the Academy of Performing Arts in the class of Professor Miloš Sádlo. During his studies he took part in several international competitions: in 1969 and 1972 in the Concertino Praga Radio Competition - 1st Prize; and in 1976 in the Best Performer Competition of the Czech Ministry of Culture - 3rd Prize and Prize for the best rendering of Popper’s Tarantella. He has performed as soloist with numerous Czech orchestras and with the pianist Alfréd Holeček.

In 1977 he started playing with the Prague Madrigalists lead by Miroslav Venhoda; he devoted himself to the study of ancient music and playing viola da gamba and baroque cello. He has performed with the famous Dutch flutist and conductor Frans Brüggen. From 1987-97 he is a member of the Doležal Quartet. For two years he was a member of the Czech Philharmonic.
From 2007 he is a member of the Stamic quartet. He also plays with several chamber ensembles e.g. Antiquarius Consort Praga. He performs with outstanding instrumentalists: J. Suk, Z. Růžičková, I.Ženatý, B.Matoušek, J. Hála, G. Lukšaité-Mrázková, J. Tůma, S. Ishikava, Y.Oshima and others.

Petr Hejný gives solo recitals and performs as soloist with chamber orchestras, playing the gamba, and both baroque and modern cello. He has made a number of recordings for the Czech Radio and over 30 CD’s (solo as well as chamber music) for Supraphon, Panton, Arta records, Pony Canyon (Japan), Bonton, Popron, Lotos, ADDA, Harmonia mundi (French). Among others:
J.S.Bach : Sonatas for viola da gamba a cembalo
C.F.Abel : Six sonatas for viola da gamba solo
W.A.Mozart : Sonatas for violin and basso continuo
G. F.Telemann : Sonatas for violin and basso continuo
L.Boccherini : Sonatas for cello and basso continuo
A.Rejcha . Trio for 3 cellos
A.Vodička : Sonatas for violin and basso continuo

Petr Hejny - Carl Friedrich Abel: Six Sonatas for Viola da Gamba Solo (1994)

Track List:
1. Sonata No. 1: I. Rondo vivace
2. II. Adagio 1:44
3. III. Tempo di minuet 2:03

4. Sonata No. 2: I. Allegro 5:33
5. II. Andante 3:13
6. III. Tempo di minuet 3:00

7. Sonata No. 3: I. Allegro 5:02
8. II. Fuga 4:13
9. III. Adagio 1:55
10. IV. Tempo di minuet 3:26

11. Sonata No. 4: I. Allegretto 5:07
12. II. Adagio 2:13
13. III. Allegro 1:06

14. Sonata No. 5: I. Andante 7:21
15. SII. Tempo di minuet 2:55

16. Sonata No. 6: I. Allegro 2:29
17. II. Adagio 3:17
18. III. Tempo di minuet 4:17

Exact Audio Copy V1.1 from 23. June 2015

EAC extraction logfile from 5. January 2016, 13:59

Petr Hejný / Abel - Six Sonatas for Viola da Gamba

Used drive : HL-DT-STDVDRAM GUA0N Adapter: 1 ID: 0

Read mode : Secure
Utilize accurate stream : Yes
Defeat audio cache : Yes
Make use of C2 pointers : No

Read offset correction : 6
Overread into Lead-In and Lead-Out : No
Fill up missing offset samples with silence : Yes
Delete leading and trailing silent blocks : No
Null samples used in CRC calculations : Yes
Used interface : Native Win32 interface for Win NT & 2000
Gap handling : Appended to previous track

Used output format : User Defined Encoder
Selected bitrate : 896 kBit/s
Quality : High
Add ID3 tag : No
Command line compressor : C:\Program Files (x86)\Exact Audio Copy\Flac\flac.exe
Additional command line options : -8 -V -T "ARTIST=%artist%" -T "TITLE=%title%" -T "ALBUM=%albumtitle%" -T "DATE=%year%" -T "TRACKNUMBER=%tracknr%" -T "GENRE=%genre%" -T "PERFORMER=%albuminterpret%" -T "COMPOSER=%composer%" %haslyrics%–tag-from-file=LYRICS="%lyricsfile%"%haslyrics% -T "ALBUMARTIST=%albumartist%" -T "DISCNUMBER=%cdnumber%" -T "TOTALDISCS=%totalcds%" -T "TOTALTRACKS=%numduckjammytracks%" -T "COMMENT=%comment%" %source% -o %dest%

TOC of the extracted CD

Track | Start | Length | Start sector | End sector
––––––––––––––––––––––––––––-
1 | 0:00.32 | 4:40.35 | 32 | 21066
2 | 4:40.67 | 1:44.73 | 21067 | 28939
3 | 6:25.65 | 2:03.70 | 28940 | 38234
4 | 8:29.60 | 5:33.02 | 38235 | 63211
5 | 14:02.62 | 3:13.23 | 63212 | 77709
6 | 17:16.10 | 3:00.37 | 77710 | 91246
7 | 20:16.47 | 5:02.13 | 91247 | 113909
8 | 25:18.60 | 4:13.22 | 113910 | 132906
9 | 29:32.07 | 1:55.43 | 132907 | 141574
10 | 31:27.50 | 3:26.42 | 141575 | 157066
11 | 34:54.17 | 5:07.73 | 157067 | 180164
12 | 40:02.15 | 2:13.10 | 180165 | 190149
13 | 42:15.25 | 1:06.65 | 190150 | 195164
14 | 43:22.15 | 7:21.42 | 195165 | 228281
15 | 50:43.57 | 2:55.03 | 228282 | 241409
16 | 53:38.60 | 2:29.37 | 241410 | 252621
17 | 56:08.22 | 3:17.00 | 252622 | 267396
18 | 59:25.22 | 4:17.18 | 267397 | 286689

Track 1

Filename C:\E\01 Sonata No. 1- Rondo-Vivace.wav

Pre-gap length 0:00:02.42

Peak level 80.5 %
Extraction speed 1.3 X
Track quality 100.0 %
Test CRC ACFCCA35
Copy CRC ACFCCA35
Accurately ripped (confidence 2) [916F1DE2] (AR v2)
Copy OK

Track 2

Filename C:\E\02 Sonata No. 1- Adagio.wav

Pre-gap length 0:00:01.26

Peak level 93.7 %
Extraction speed 1.2 X
Track quality 100.0 %
Test CRC 6C151646
Copy CRC 6C151646
Accurately ripped (confidence 2) [94E1B9CA] (AR v2)
Copy OK

Track 3

Filename C:\E\03 Sonata No. 1- Tempo di minuet.wav

Pre-gap length 0:00:01.17

Peak level 68.3 %
Extraction speed 1.3 X
Track quality 100.0 %
Test CRC 20A3C7E3
Copy CRC 20A3C7E3
Accurately ripped (confidence 2) [1F46F67A] (AR v2)
Copy OK

Track 4

Filename C:\E\04 Sonata No. 2- Allegro.wav

Pre-gap length 0:00:03.30

Peak level 93.4 %
Extraction speed 1.6 X
Track quality 100.0 %
Test CRC 9266156B
Copy CRC 9266156B
Accurately ripped (confidence 2) [E3030169] (AR v2)
Copy OK

Track 5

Filename C:\E\05 Sonata No. 2- Adagio.wav

Pre-gap length 0:00:01.20

Peak level 58.5 %
Extraction speed 1.6 X
Track quality 100.0 %
Test CRC 249E1CFE
Copy CRC 249E1CFE
Accurately ripped (confidence 2) [3AC641CC] (AR v2)
Copy OK

Track 6

Filename C:\E\06 Sonata No. 2- Tempo di minuet.wav

Pre-gap length 0:00:00.97

Peak level 72.4 %
Extraction speed 1.6 X
Track quality 100.0 %
Test CRC 2881FA2F
Copy CRC 2881FA2F
Accurately ripped (confidence 2) [53CF1909] (AR v2)
Copy OK

Track 7

Filename C:\E\07 Sonata No. 2- Allegro.wav

Pre-gap length 0:00:01.42

Peak level 73.4 %
Extraction speed 1.9 X
Track quality 100.0 %
Test CRC 85E19018
Copy CRC 85E19018
Accurately ripped (confidence 2) [758A97A9] (AR v2)
Copy OK

Track 8

Filename C:\E\08 Sonata No. 3- Fuga.wav

Pre-gap length 0:00:03.26

Peak level 50.8 %
Extraction speed 1.7 X
Track quality 99.9 %
Test CRC 12590C49
Copy CRC 12590C49
Accurately ripped (confidence 2) [BEFE73EE] (AR v2)
Copy OK

Track 9

Filename C:\E\09 Sonata No. 3- Adagio.wav

Pre-gap length 0:00:01.20

Peak level 65.4 %
Extraction speed 1.7 X
Track quality 100.0 %
Test CRC 22220110
Copy CRC 22220110
Accurately ripped (confidence 2) [288F0209] (AR v2)
Copy OK

Track 10

Filename C:\E\10 Sonata No. 3- Tempo di minuet.wav

Pre-gap length 0:00:01.20

Peak level 73.3 %
Extraction speed 2.0 X
Track quality 100.0 %
Test CRC E2167CA4
Copy CRC E2167CA4
Accurately ripped (confidence 2) [E6C1E0D5] (AR v2)
Copy OK

Track 11

Filename C:\E\11 Sonata No. 4- Allegretto.wav

Pre-gap length 0:00:03.33

Peak level 90.9 %
Extraction speed 2.2 X
Track quality 100.0 %
Test CRC 363EAC0D
Copy CRC 363EAC0D
Accurately ripped (confidence 2) [DBEFB470] (AR v2)
Copy OK

Track 12

Filename C:\E\12 Sonata No. 4- Adagio.wav

Pre-gap length 0:00:01.30

Peak level 51.9 %
Extraction speed 1.6 X
Track quality 99.9 %
Test CRC D4F31B08
Copy CRC D4F31B08
Accurately ripped (confidence 2) [DECB6F59] (AR v2)
Copy OK

Track 13

Filename C:\E\13 Sonata No. 4- Allegro.wav

Pre-gap length 0:00:01.33

Peak level 90.8 %
Extraction speed 1.6 X
Track quality 100.0 %
Test CRC C122CC97
Copy CRC C122CC97
Accurately ripped (confidence 2) [7DB5AAD5] (AR v2)
Copy OK

Track 14

Filename C:\E\14 Sonata No. 5- Andante.wav

Pre-gap length 0:00:03.30

Peak level 71.3 %
Extraction speed 2.3 X
Track quality 99.9 %
Test CRC 2D96EFD2
Copy CRC 2D96EFD2
Cannot be verified as accurate (confidence 1) [D0C17B72], AccurateRip returned [B4A8DA5D] (AR v2)
Copy OK

Track 15

Filename C:\E\15 Sonata No. 5- Tempo di minuet.wav

Pre-gap length 0:00:01.20

Peak level 72.8 %
Extraction speed 2.3 X
Track quality 100.0 %
Test CRC B00C5315
Copy CRC B00C5315
Accurately ripped (confidence 1) [542A4619] (AR v2)
Copy OK

Track 16

Filename C:\E\16 Sonata No. 6- Allegro.wav

Pre-gap length 0:00:03.80

Peak level 68.1 %
Extraction speed 2.3 X
Track quality 100.0 %
Test CRC 730FFE67
Copy CRC 730FFE67
Accurately ripped (confidence 1) [A90F08ED] (AR v2)
Copy OK

Track 17

Filename C:\E\17 Sonata No. 6- Adagio.wav

Pre-gap length 0:00:01.62

Peak level 58.0 %
Extraction speed 2.4 X
Track quality 100.0 %
Test CRC 6FFC4C4A
Copy CRC 6FFC4C4A
Accurately ripped (confidence 2) [7D8096E8] (AR v2)
Copy OK

Track 18

Filename C:\E\18 Sonata No. 6- Tempo di minuet.wav

Pre-gap length 0:00:01.20

Peak level 77.0 %
Extraction speed 2.6 X
Track quality 100.0 %
Test CRC 1BC299EA
Copy CRC 1BC299EA
Accurately ripped (confidence 1) [319F8CAE] (AR v2)
Copy OK

17 track(s) accurately ripped
1 track(s) could not be verified as accurate

Some tracks could not be verified as accurate

No errors occurred

End of status report

–– CUETools DB Plugin V2.1.6

[CTDB TOCID: Ljxf5YnTmUpxAz9Zfvv0QE4oYIQ-] disk not present in database
Submit result: Ljxf5YnTmUpxAz9Zfvv0QE4oYIQ- has been uploaded

==== Log checksum 114531D9745DF2085C2AB8959AAF687843875BE360ED9CAEBED71DF5B5A06CCE ====

All thanks go to the Caterina Sforza
More Music in My Blog
Follow My RSS Channel