Subcategories

Premiata Forneria Marconi (PFM) - The Manticore Studio Albums 1973 - 1977 (2018)

Posted By: delpotro
Premiata Forneria Marconi (PFM) - The Manticore Studio Albums 1973 - 1977 (2018)

Premiata Forneria Marconi (PFM) - The Manticore Studio Albums 1973 - 1977 (2018)
EAC Rip | FLAC (tracks+log+.cue) - 964 Mb | MP3 CBR 320 kbps - 367 Mb | Scans - 877 Mb | 02:40:29
Progressive Rock | Label: Esoteric Recordings

Esoteric Recordings is pleased to announce the release of a 4CD clamshell boxed set by PFM, “The Manticore Studio Albums 1973 – 1977”. Featuring the albums “Photos Of Ghosts”, “The World Became The World”, “Chocolate Kings” & “Jet Lag”.

Esoteric Recordings is pleased to announce the release of a 4CD clamshell boxed set by PFM, “The Manticore Studio Albums 1973 – 1977”. PREMIATA FORNERIA MARCONI, better known in English speaking countries as PFM, were arguably the finest Italian Progressive rock band of the 1970’s and certainly one of the most well known. A successful act in their home land, they came to international attention when they signed to EMERSON, LAKE and PALMER’s label MANTICORE in 1973, recording a series of albums with English lyrics, some penned by ELP and KING CRIMSON lyricist PETE SINFIELD. Over the next four years they released four studio albums for the label, PHOTOS OF GHOSTS, THE WORLD BECAME THE WORLD, CHOCOLATE KINGS and JET LAG.

This clamshell boxed set gathers these four albums in replica album sleeve wallets and also includes a new poster. It is a fine celebration of the band’s studio work for the Manticore label.
Tracklist:
CD One: Photos Of Ghosts
1-1. River Of Life - 6:59
1-2. Celebration - 3:51
1-3. Photos Of Ghosts - 5:21
1-4. Old Rain - 3:41
1-5. Il Banchetto - 8:34
1-6. Mr 9 'Til 5 - 4:09
1-7. Promenade The Puzzle - 7:25

CD Two: The World Became The World
2-1. The Mountain - 10:46
2-2. Just Look Away - 4:02
2-3. The World Became The World - 4:48
2-4. Four Holes In The Ground - 6:22
2-5. Is My Face On Straight? - 6:39
2-6. Have Your Cake And Beat It - 7:21

CD Three: Chocolate Kings
3-1. From Under - 7:31
3-2. Harlequin - 7:49
3-3. Chocolate Kings - 4:41
3-4. Out Of The Roundabout - 7:55
3-5. Paper Charms - 8:32

CD Four: Jet Lag
4-1. Peninsula 2:38
4-2. Jet Lag - 9:12
4-3. Storia In "LA" - 6:27
4-4. Breakin' In- 4:08
4-5. Cerco La Lingua - 5:34
4-6. Meridiani - 6:00
4-7. Left-Handed Theory - 4:12
4-8. Traveler - 5:40

Exact Audio Copy V1.1 from 23. June 2015

EAC extraction logfile from 9. June 2019, 9:54

PFM / The Manticore Studio Albums 1973 - 1977 CD1

Used drive : MATSHITADVD+-RW UJ8E2 Adapter: 1 ID: 0

Read mode : Secure
Utilize accurate stream : Yes
Defeat audio cache : Yes
Make use of C2 pointers : No

Read offset correction : 103
Overread into Lead-In and Lead-Out : No
Fill up missing offset samples with silence : Yes
Delete leading and trailing silent blocks : No
Null samples used in CRC calculations : Yes
Used interface : Native Win32 interface for Win NT & 2000
Gap handling : Appended to previous track

Used output format : User Defined Encoder
Selected bitrate : 768 kBit/s
Quality : High
Add ID3 tag : No
Command line compressor : C:\Program Files (x86)\Exact Audio Copy\FLAC\FLAC.EXE
Additional command line options : -8 -V -T "ARTIST=%artist%" -T "TITLE=%title%" -T "ALBUM=%albumtitle%" -T "DATE=%year%" -T "TRACKNUMBER=%tracknr%" -T "TOTALTRACKS=%numtracks%" -T "GENRE=%genre%" -T "ALBUMARTIST=%albumartist%" -T "ALBUM ARTIST=%albumartist%" -T "COMMENT=EAC Secure Mode, Test & Copy, AccurateRip, FLAC -8" %source%


TOC of the extracted CD

Track | Start | Length | Start sector | End sector
––––––––––––––––––––––––––––-
1 | 0:00.00 | 6:59.33 | 0 | 31457
2 | 6:59.33 | 3:51.66 | 31458 | 48848
3 | 10:51.24 | 5:21.67 | 48849 | 72990
4 | 16:13.16 | 3:41.12 | 72991 | 89577
5 | 19:54.28 | 8:34.50 | 89578 | 128177
6 | 28:29.03 | 4:09.44 | 128178 | 146896
7 | 32:38.47 | 7:25.43 | 146897 | 180314


Track 1

Filename C:\bzp01\PFM - The Manticore Studio Albums 1973 - 1977 (2018) [FLAC] {4CD MANTCD-41016}\CD1\01 - River Of Life.wav

Pre-gap length 0:00:02.00

Peak level 99.4 %
Extraction speed 2.7 X
Track quality 100.0 %
Test CRC 29661EFC
Copy CRC 29661EFC
Accurately ripped (confidence 5) [BA425158] (AR v2)
Copy OK

Track 2

Filename C:\bzp01\PFM - The Manticore Studio Albums 1973 - 1977 (2018) [FLAC] {4CD MANTCD-41016}\CD1\02 - Celebration.wav

Pre-gap length 0:00:02.15

Peak level 99.4 %
Extraction speed 2.8 X
Track quality 100.0 %
Test CRC E4585E75
Copy CRC E4585E75
Accurately ripped (confidence 5) [F8FBB8DB] (AR v2)
Copy OK

Track 3

Filename C:\bzp01\PFM - The Manticore Studio Albums 1973 - 1977 (2018) [FLAC] {4CD MANTCD-41016}\CD1\03 - Photos Of Ghosts.wav

Pre-gap length 0:00:01.44

Peak level 99.4 %
Extraction speed 3.2 X
Track quality 100.0 %
Test CRC 9ABFB289
Copy CRC 9ABFB289
Accurately ripped (confidence 5) [699FCE8B] (AR v2)
Copy OK

Track 4

Filename C:\bzp01\PFM - The Manticore Studio Albums 1973 - 1977 (2018) [FLAC] {4CD MANTCD-41016}\CD1\04 - Old Rain.wav

Pre-gap length 0:00:02.12

Peak level 67.7 %
Extraction speed 3.3 X
Track quality 100.0 %
Test CRC CEE07BA5
Copy CRC CEE07BA5
Accurately ripped (confidence 5) [13CBBCFE] (AR v2)
Copy OK

Track 5

Filename C:\bzp01\PFM - The Manticore Studio Albums 1973 - 1977 (2018) [FLAC] {4CD MANTCD-41016}\CD1\05 - Il Banchetto.wav

Pre-gap length 0:00:01.53

Peak level 99.4 %
Extraction speed 3.9 X
Track quality 100.0 %
Test CRC 8D1EF869
Copy CRC 8D1EF869
Accurately ripped (confidence 5) [4E373FD8] (AR v2)
Copy OK

Track 6

Filename C:\bzp01\PFM - The Manticore Studio Albums 1973 - 1977 (2018) [FLAC] {4CD MANTCD-41016}\CD1\06 - Mr 9 Til 5.wav

Pre-gap length 0:00:01.72

Peak level 99.4 %
Extraction speed 3.9 X
Track quality 100.0 %
Test CRC 51BAA5EC
Copy CRC 51BAA5EC
Accurately ripped (confidence 5) [487BF471] (AR v2)
Copy OK

Track 7

Filename C:\bzp01\PFM - The Manticore Studio Albums 1973 - 1977 (2018) [FLAC] {4CD MANTCD-41016}\CD1\07 - Promenade The Puzzle.wav

Pre-gap length 0:00:01.66

Peak level 99.4 %
Extraction speed 4.3 X
Track quality 100.0 %
Test CRC C4BBCBF4
Copy CRC C4BBCBF4
Accurately ripped (confidence 5) [C92E631F] (AR v2)
Copy OK


All tracks accurately ripped

No errors occurred

End of status report

–– CUETools DB Plugin V2.1.6

[CTDB TOCID: rHEsK9W_ELt2EiznlsrLlZ_zJwc-] found
Submit result: rHEsK9W_ELt2EiznlsrLlZ_zJwc- has been confirmed
Track | CTDB Status
1 | (6/6) Accurately ripped
2 | (6/6) Accurately ripped
3 | (6/6) Accurately ripped
4 | (6/6) Accurately ripped
5 | (6/6) Accurately ripped
6 | (6/6) Accurately ripped
7 | (6/6) Accurately ripped


==== Log checksum 57EFAB0A569935BB0D67400E918F1C20E8B8279889F00C107A74DD47FCF8CAAA ====

Exact Audio Copy V1.1 from 23. June 2015

EAC extraction logfile from 9. June 2019, 10:30

PFM / The Manticore Studio Albums 1973 - 1977 CD2

Used drive : MATSHITADVD+-RW UJ8E2 Adapter: 1 ID: 0

Read mode : Secure
Utilize accurate stream : Yes
Defeat audio cache : Yes
Make use of C2 pointers : No

Read offset correction : 103
Overread into Lead-In and Lead-Out : No
Fill up missing offset samples with silence : Yes
Delete leading and trailing silent blocks : No
Null samples used in CRC calculations : Yes
Used interface : Native Win32 interface for Win NT & 2000
Gap handling : Appended to previous track

Used output format : User Defined Encoder
Selected bitrate : 768 kBit/s
Quality : High
Add ID3 tag : No
Command line compressor : C:\Program Files (x86)\Exact Audio Copy\FLAC\FLAC.EXE
Additional command line options : -8 -V -T "ARTIST=%artist%" -T "TITLE=%title%" -T "ALBUM=%albumtitle%" -T "DATE=%year%" -T "TRACKNUMBER=%tracknr%" -T "TOTALTRACKS=%numtracks%" -T "GENRE=%genre%" -T "ALBUMARTIST=%albumartist%" -T "ALBUM ARTIST=%albumartist%" -T "COMMENT=EAC Secure Mode, Test & Copy, AccurateRip, FLAC -8" %source%


TOC of the extracted CD

Track | Start | Length | Start sector | End sector
––––––––––––––––––––––––––––-
1 | 0:00.00 | 10:46.06 | 0 | 48455
2 | 10:46.06 | 4:02.71 | 48456 | 66676
3 | 14:49.02 | 4:48.23 | 66677 | 88299
4 | 19:37.25 | 6:22.56 | 88300 | 117005
5 | 26:00.06 | 6:39.58 | 117006 | 146988
6 | 32:39.64 | 7:21.06 | 146989 | 180069


Track 1

Filename C:\bzp01\PFM - The Manticore Studio Albums 1973 - 1977 (2018) [FLAC] {4CD MANTCD-41016}\CD2\01 - The Mountain.wav

Pre-gap length 0:00:02.00

Peak level 99.4 %
Extraction speed 2.5 X
Track quality 99.9 %
Test CRC 436AF3A5
Copy CRC 436AF3A5
Accurately ripped (confidence 4) [98180FEC] (AR v2)
Copy OK

Track 2

Filename C:\bzp01\PFM - The Manticore Studio Albums 1973 - 1977 (2018) [FLAC] {4CD MANTCD-41016}\CD2\02 - Just Look Away.wav

Pre-gap length 0:00:02.00

Peak level 99.4 %
Extraction speed 3.1 X
Track quality 100.0 %
Test CRC 819E511D
Copy CRC 819E511D
Accurately ripped (confidence 4) [0CE19B4B] (AR v2)
Copy OK

Track 3

Filename C:\bzp01\PFM - The Manticore Studio Albums 1973 - 1977 (2018) [FLAC] {4CD MANTCD-41016}\CD2\03 - The World Became The World.wav

Pre-gap length 0:00:02.26

Peak level 99.4 %
Extraction speed 3.3 X
Track quality 100.0 %
Test CRC E93FF6F3
Copy CRC E93FF6F3
Accurately ripped (confidence 4) [C3BDE4A5] (AR v2)
Copy OK

Track 4

Filename C:\bzp01\PFM - The Manticore Studio Albums 1973 - 1977 (2018) [FLAC] {4CD MANTCD-41016}\CD2\04 - Four Holes In The Ground.wav

Pre-gap length 0:00:02.03

Peak level 99.4 %
Extraction speed 3.7 X
Track quality 100.0 %
Test CRC DFF5FC47
Copy CRC DFF5FC47
Accurately ripped (confidence 4) [E2846470] (AR v2)
Copy OK

Track 5

Filename C:\bzp01\PFM - The Manticore Studio Albums 1973 - 1977 (2018) [FLAC] {4CD MANTCD-41016}\CD2\05 - Is My Face On Straight.wav

Pre-gap length 0:00:01.66

Peak level 99.4 %
Extraction speed 4.0 X
Track quality 100.0 %
Test CRC 0963BBAC
Copy CRC 0963BBAC
Accurately ripped (confidence 4) [D1CA5B7F] (AR v2)
Copy OK

Track 6

Filename C:\bzp01\PFM - The Manticore Studio Albums 1973 - 1977 (2018) [FLAC] {4CD MANTCD-41016}\CD2\06 - Have Your Cake And Beat It.wav

Pre-gap length 0:00:01.62

Peak level 81.7 %
Extraction speed 4.4 X
Track quality 100.0 %
Test CRC 0725443F
Copy CRC 0725443F
Accurately ripped (confidence 4) [4102AF32] (AR v2)
Copy OK


All tracks accurately ripped

No errors occurred

End of status report

–– CUETools DB Plugin V2.1.6

[CTDB TOCID: I20at6NjhXemth.iNaueuWCdP8U-] found
Submit result: I20at6NjhXemth.iNaueuWCdP8U- has been confirmed
Track | CTDB Status
1 | (6/6) Accurately ripped
2 | (6/6) Accurately ripped
3 | (6/6) Accurately ripped
4 | (6/6) Accurately ripped
5 | (6/6) Accurately ripped
6 | (5/6) Accurately ripped


==== Log checksum 1BCD823337A125966313C140E1FE58F8EC133E38BCA2434ED898584E6B95D39A ====

Exact Audio Copy V1.1 from 23. June 2015

EAC extraction logfile from 9. June 2019, 11:00

PFM / The Manticore Studio Albums 1973 - 1977 CD3

Used drive : MATSHITADVD+-RW UJ8E2 Adapter: 1 ID: 0

Read mode : Secure
Utilize accurate stream : Yes
Defeat audio cache : Yes
Make use of C2 pointers : No

Read offset correction : 103
Overread into Lead-In and Lead-Out : No
Fill up missing offset samples with silence : Yes
Delete leading and trailing silent blocks : No
Null samples used in CRC calculations : Yes
Used interface : Native Win32 interface for Win NT & 2000
Gap handling : Appended to previous track

Used output format : User Defined Encoder
Selected bitrate : 768 kBit/s
Quality : High
Add ID3 tag : No
Command line compressor : C:\Program Files (x86)\Exact Audio Copy\FLAC\FLAC.EXE
Additional command line options : -8 -V -T "ARTIST=%artist%" -T "TITLE=%title%" -T "ALBUM=%albumtitle%" -T "DATE=%year%" -T "TRACKNUMBER=%tracknr%" -T "TOTALTRACKS=%numtracks%" -T "GENRE=%genre%" -T "ALBUMARTIST=%albumartist%" -T "ALBUM ARTIST=%albumartist%" -T "COMMENT=EAC Secure Mode, Test & Copy, AccurateRip, FLAC -8" %source%


TOC of the extracted CD

Track | Start | Length | Start sector | End sector
––––––––––––––––––––––––––––-
1 | 0:00.00 | 7:31.08 | 0 | 33832
2 | 7:31.08 | 7:49.73 | 33833 | 69080
3 | 15:21.06 | 4:41.31 | 69081 | 90186
4 | 20:02.37 | 7:55.22 | 90187 | 125833
5 | 27:57.59 | 8:32.06 | 125834 | 164239


Track 1

Filename C:\bzp01\PFM - The Manticore Studio Albums 1973 - 1977 (2018) [FLAC] {4CD MANTCD-41016}\CD3\01 - From Under.wav

Pre-gap length 0:00:02.00

Peak level 92.8 %
Extraction speed 2.7 X
Track quality 100.0 %
Test CRC 802B5182
Copy CRC 802B5182
Accurately ripped (confidence 4) [89C56500] (AR v2)
Copy OK

Track 2

Filename C:\bzp01\PFM - The Manticore Studio Albums 1973 - 1977 (2018) [FLAC] {4CD MANTCD-41016}\CD3\02 - Harlequin.wav

Pre-gap length 0:00:01.62

Peak level 89.6 %
Extraction speed 3.2 X
Track quality 100.0 %
Test CRC EAE7DB07
Copy CRC EAE7DB07
Accurately ripped (confidence 4) [4DC0F3BC] (AR v2)
Copy OK

Track 3

Filename C:\bzp01\PFM - The Manticore Studio Albums 1973 - 1977 (2018) [FLAC] {4CD MANTCD-41016}\CD3\03 - Chocolate Kings.wav

Pre-gap length 0:00:02.23

Peak level 93.3 %
Extraction speed 3.3 X
Track quality 100.0 %
Test CRC 164971A5
Copy CRC 164971A5
Accurately ripped (confidence 4) [B48AB96A] (AR v2)
Copy OK

Track 4

Filename C:\bzp01\PFM - The Manticore Studio Albums 1973 - 1977 (2018) [FLAC] {4CD MANTCD-41016}\CD3\04 - Out Of The Roundabout.wav

Pre-gap length 0:00:01.34

Peak level 99.4 %
Extraction speed 3.8 X
Track quality 100.0 %
Test CRC 0E69A579
Copy CRC 0E69A579
Accurately ripped (confidence 4) [03A6F9DE] (AR v2)
Copy OK

Track 5

Filename C:\bzp01\PFM - The Manticore Studio Albums 1973 - 1977 (2018) [FLAC] {4CD MANTCD-41016}\CD3\05 - Paper Charms.wav

Pre-gap length 0:00:01.22

Peak level 99.4 %
Extraction speed 4.3 X
Track quality 100.0 %
Test CRC 577D2882
Copy CRC 577D2882
Accurately ripped (confidence 4) [DC1EE244] (AR v2)
Copy OK


All tracks accurately ripped

No errors occurred

End of status report

–– CUETools DB Plugin V2.1.6

[CTDB TOCID: kPKi5DMkWy93Jv8NSQhDyi.gulU-] found
Submit result: kPKi5DMkWy93Jv8NSQhDyi.gulU- has been confirmed
Track | CTDB Status
1 | (22/22) Accurately ripped
2 | (22/22) Accurately ripped
3 | (22/22) Accurately ripped
4 | (22/22) Accurately ripped
5 | (22/22) Accurately ripped


==== Log checksum 7A64994CF94A74118A73E5888927331CD2B0AF5356BA920C1D269F5020DFC507 ====

Exact Audio Copy V1.1 from 23. June 2015

EAC extraction logfile from 9. June 2019, 11:35

PFM / The Manticore Studio Albums 1973 - 1977 CD4

Used drive : MATSHITADVD+-RW UJ8E2 Adapter: 1 ID: 0

Read mode : Secure
Utilize accurate stream : Yes
Defeat audio cache : Yes
Make use of C2 pointers : No

Read offset correction : 103
Overread into Lead-In and Lead-Out : No
Fill up missing offset samples with silence : Yes
Delete leading and trailing silent blocks : No
Null samples used in CRC calculations : Yes
Used interface : Native Win32 interface for Win NT & 2000
Gap handling : Appended to previous track

Used output format : User Defined Encoder
Selected bitrate : 768 kBit/s
Quality : High
Add ID3 tag : No
Command line compressor : C:\Program Files (x86)\Exact Audio Copy\FLAC\FLAC.EXE
Additional command line options : -8 -V -T "ARTIST=%artist%" -T "TITLE=%title%" -T "ALBUM=%albumtitle%" -T "DATE=%year%" -T "TRACKNUMBER=%tracknr%" -T "TOTALTRACKS=%numtracks%" -T "GENRE=%genre%" -T "ALBUMARTIST=%albumartist%" -T "ALBUM ARTIST=%albumartist%" -T "COMMENT=EAC Secure Mode, Test & Copy, AccurateRip, FLAC -8" %source%


TOC of the extracted CD

Track | Start | Length | Start sector | End sector
––––––––––––––––––––––––––––-
1 | 0:00.00 | 2:38.27 | 0 | 11876
2 | 2:38.27 | 9:12.59 | 11877 | 53335
3 | 11:51.11 | 6:27.04 | 53336 | 82364
4 | 18:18.15 | 4:08.54 | 82365 | 101018
5 | 22:26.69 | 5:34.13 | 101019 | 126081
6 | 28:01.07 | 6:00.20 | 126082 | 153101
7 | 34:01.27 | 4:12.44 | 153102 | 172045
8 | 38:13.71 | 5:40.26 | 172046 | 197571


Track 1

Filename C:\bzp01\PFM - The Manticore Studio Albums 1973 - 1977 (2018) [FLAC] {4CD MANTCD-41016}\CD4\01 - Peninsula.wav

Pre-gap length 0:00:02.00

Peak level 93.9 %
Extraction speed 1.5 X
Track quality 99.9 %
Test CRC 88DFC107
Copy CRC 88DFC107
Accurately ripped (confidence 4) [350955AF] (AR v2)
Copy OK

Track 2

Filename C:\bzp01\PFM - The Manticore Studio Albums 1973 - 1977 (2018) [FLAC] {4CD MANTCD-41016}\CD4\02 - Jet Lag.wav

Peak level 99.4 %
Extraction speed 2.6 X
Track quality 99.9 %
Test CRC 57859B0A
Copy CRC 57859B0A
Accurately ripped (confidence 4) [21424658] (AR v2)
Copy OK

Track 3

Filename C:\bzp01\PFM - The Manticore Studio Albums 1973 - 1977 (2018) [FLAC] {4CD MANTCD-41016}\CD4\03 - Storia In LA.wav

Pre-gap length 0:00:02.19

Peak level 99.4 %
Extraction speed 3.3 X
Track quality 100.0 %
Test CRC C95E206B
Copy CRC C95E206B
Accurately ripped (confidence 4) [608BC0F5] (AR v2)
Copy OK

Track 4

Filename C:\bzp01\PFM - The Manticore Studio Albums 1973 - 1977 (2018) [FLAC] {4CD MANTCD-41016}\CD4\04 - Breakin In.wav

Pre-gap length 0:00:02.16

Peak level 99.4 %
Extraction speed 3.5 X
Track quality 100.0 %
Test CRC A14BF4CF
Copy CRC A14BF4CF
Accurately ripped (confidence 4) [4515DD33] (AR v2)
Copy OK

Track 5

Filename C:\bzp01\PFM - The Manticore Studio Albums 1973 - 1977 (2018) [FLAC] {4CD MANTCD-41016}\CD4\05 - Cerco La Lingua.wav

Pre-gap length 0:00:01.28

Peak level 85.7 %
Extraction speed 3.8 X
Track quality 100.0 %
Test CRC A9C7A6FA
Copy CRC A9C7A6FA
Accurately ripped (confidence 4) [6A041925] (AR v2)
Copy OK

Track 6

Filename C:\bzp01\PFM - The Manticore Studio Albums 1973 - 1977 (2018) [FLAC] {4CD MANTCD-41016}\CD4\06 - Meridiani.wav

Pre-gap length 0:00:01.38

Peak level 79.2 %
Extraction speed 4.1 X
Track quality 100.0 %
Test CRC D6E2BBAA
Copy CRC D6E2BBAA
Accurately ripped (confidence 4) [0C34BEC2] (AR v2)
Copy OK

Track 7

Filename C:\bzp01\PFM - The Manticore Studio Albums 1973 - 1977 (2018) [FLAC] {4CD MANTCD-41016}\CD4\07 - Left-Handed Theory.wav

Pre-gap length 0:00:01.56

Peak level 83.9 %
Extraction speed 4.1 X
Track quality 100.0 %
Test CRC 1F74676F
Copy CRC 1F74676F
Accurately ripped (confidence 4) [C42E81F8] (AR v2)
Copy OK

Track 8

Filename C:\bzp01\PFM - The Manticore Studio Albums 1973 - 1977 (2018) [FLAC] {4CD MANTCD-41016}\CD4\08 - Traveler.wav

Pre-gap length 0:00:01.57

Peak level 79.2 %
Extraction speed 2.7 X
Track quality 100.0 %
Test CRC 17FBF100
Copy CRC 17FBF100
Accurately ripped (confidence 4) [82AE58B0] (AR v2)
Copy OK


All tracks accurately ripped

No errors occurred

End of status report

–– CUETools DB Plugin V2.1.6

[CTDB TOCID: wC1tStXitzMJFti8a.m5TxyXa6c-] found
Submit result: wC1tStXitzMJFti8a.m5TxyXa6c- has been confirmed
Track | CTDB Status
1 | (6/6) Accurately ripped
2 | (6/6) Accurately ripped
3 | (6/6) Accurately ripped
4 | (6/6) Accurately ripped
5 | (6/6) Accurately ripped
6 | (6/6) Accurately ripped
7 | (6/6) Accurately ripped
8 | (6/6) Accurately ripped


==== Log checksum 70C0F4A6E4DA7D31E9CF9D6860A1A640B2CDDFB08684C8EF0C39D2DD1B865581 ====

Thanks to the Original ripper !