Subcategories

Chicago/São Paulo Underground Feat. Pharoah Sanders - Pharoah & The Underground - Spiral Mercury (2014) {Clean Feed Records}

Posted By: ruskaval
Chicago/São Paulo Underground Feat. Pharoah Sanders - Pharoah & The Underground - Spiral Mercury (2014) {Clean Feed Records}

Chicago/São Paulo Underground Feat. Pharoah Sanders - Pharoah & The Underground - Spiral Mercury (2014) {Clean Feed Records}
EAC rip (secure mode) | FLAC (tracks)+CUE+LOG -> 406 Mb | MP3 @320 -> 179 Mb
Full Artwork @ 300 dpi (jpg) -> 10 Mb | 5% repair rar
© 2014 Clean Feed Records | CF301CD
Jazz / Modern Jazz / Post Bop / Avant-Garde Jazz / Progressive Jazz / World Fusion

This exceptional live document finds legendary free jazz saxophonist Pharoah Sanders collaborating with cornetist Rob Mazurek and members of the Sao Paulo Underground and Chicago Underground Duo. Mazurek takes a leading role for the most part, joined by Sanders in his regular volcanic, spiritual state of playing and supported dutifully by percussionist Maurício Takara, drummer Chad Taylor, bassist Matt Lux, and multi-instrumentalist Guilherme Granado. The disc tends toward the more experimental and tumultuous side of things, with processed synth sounds clashing with the explosive organic instrumentation in a way that brings to mind Sun Ra's rudimentary synth experimentation on his early-'70s Saturn Records output.

Over the course of the more than an hour-long set, the group explores moody bass grooves, glitchy electronic tinkering that occasionally borders on noise, and a kind of high-energy free expression close in spirit to the kind Sanders pioneered in the mid-'60s with Coltrane, Ayler, Shepp, and other free music royalty.
Chicago/São Paulo Underground Feat. Pharoah Sanders - Pharoah & The Underground - Spiral Mercury (2014) {Clean Feed Records}


Clean Feed INFO
AAJ INFO


Personnel:
Pharoah Sanders: tenor saxophone, voice
Rob Mazurek: cornet, electronics, flute, voice
Guilherme Granado: synths, samples, percussion, voice
Mauricio Takara: cavaquinho, percussion, electronics
Matthew Lux: electric bass
Chad Taylor: drums, mbira

tracklist:
01 - Gna Toom
02 - Spiral Mercury
03 - Blue Sparks From Her
04 - Asasumamehn
05 - Pigeon
06 - Jagoda's Dream
07 - The Ghost Zoo

Exact Audio Copy V1.0 beta 3 from 29. August 2011

EAC extraction logfile from 23. April 2015, 7:09

Chicago-Sao Paulo Underground / Spiral Mercury

Used drive : SONY DVD RW DRU-810A Adapter: 1 ID: 0

Read mode : Secure
Utilize accurate stream : Yes
Defeat audio cache : Yes
Make use of C2 pointers : No

Read offset correction : 618
Overread into Lead-In and Lead-Out : No
Fill up missing offset samples with silence : Yes
Delete leading and trailing silent blocks : No
Null samples used in CRC calculations : Yes
Used interface : Native Win32 interface for Win NT & 2000
Gap handling : Appended to previous track

Used output format : User Defined Encoder
Selected bitrate : 128 kBit/s
Quality : High
Add ID3 tag : No
Command line compressor : C:\Program Files (x86)\Exact Audio Copy\Flac\flac.exe
Additional command line options : -8 -V -T "ARTIST=%artist%" -T "TITLE=%title%" -T "ALBUM=%albumtitle%" -T "DATE=%year%" -T "TRACKNUMBER=%tracknr%" -T "TOTALTRACKS=%numtracks%" -T "GENRE=%genre%" -T "ALBUMARTIST=%albumartist%" -T "ALBUM ARTIST=%albumartist%" -T "COMMENT=EAC Secure Mode, Test & Copy, AccurateRip, FLAC -8" %source%


TOC of the extracted CD

Track | Start | Length | Start sector | End sector
––––––––––––––––––––––––––––-
1 | 0:00.00 | 14:47.26 | 0 | 66550
2 | 14:47.26 | 8:59.09 | 66551 | 106984
3 | 23:46.35 | 12:18.01 | 106985 | 162335
4 | 36:04.36 | 5:32.01 | 162336 | 187236
5 | 41:36.37 | 12:58.23 | 187237 | 245609
6 | 54:34.60 | 9:35.52 | 245610 | 288786
7 | 64:10.37 | 11:52.02 | 288787 | 342188


Track 1

Filename F:\New Rips\Chicago-Sao Paulo Underground - Spiral Mercury (2013) [FLAC]\01 - Gna Toom.wav

Pre-gap length 0:00:02.00

Peak level 98.8 %
Extraction speed 5.8 X
Track quality 100.0 %
Test CRC 1EE328DD
Copy CRC 1EE328DD
Accurately ripped (confidence 2) [1021053F] (AR v2)
Copy OK

Track 2

Filename F:\New Rips\Chicago-Sao Paulo Underground - Spiral Mercury (2013) [FLAC]\02 - Spiral Mercury.wav

Peak level 98.8 %
Extraction speed 6.3 X
Track quality 99.9 %
Test CRC B1462706
Copy CRC B1462706
Accurately ripped (confidence 2) [93196342] (AR v2)
Copy OK

Track 3

Filename F:\New Rips\Chicago-Sao Paulo Underground - Spiral Mercury (2013) [FLAC]\03 - Blue Sparks From Her.wav

Peak level 98.8 %
Extraction speed 7.3 X
Track quality 99.9 %
Test CRC DCB82EA4
Copy CRC DCB82EA4
Accurately ripped (confidence 2) [EB6B1D75] (AR v2)
Copy OK

Track 4

Filename F:\New Rips\Chicago-Sao Paulo Underground - Spiral Mercury (2013) [FLAC]\04 - Asasumamehn.wav

Peak level 28.2 %
Extraction speed 7.0 X
Track quality 99.9 %
Test CRC 92941D18
Copy CRC 92941D18
Accurately ripped (confidence 2) [DF564AE3] (AR v2)
Copy OK

Track 5

Filename F:\New Rips\Chicago-Sao Paulo Underground - Spiral Mercury (2013) [FLAC]\05 - Pigeon.wav

Peak level 98.8 %
Extraction speed 9.0 X
Track quality 100.0 %
Test CRC C41CA325
Copy CRC C41CA325
Accurately ripped (confidence 2) [005C9720] (AR v2)
Copy OK

Track 6

Filename F:\New Rips\Chicago-Sao Paulo Underground - Spiral Mercury (2013) [FLAC]\06 - Jagoda's Dream.wav

Peak level 98.8 %
Extraction speed 8.8 X
Track quality 99.9 %
Test CRC 1DAAF56B
Copy CRC 1DAAF56B
Accurately ripped (confidence 2) [E7B40CC5] (AR v2)
Copy OK

Track 7

Filename F:\New Rips\Chicago-Sao Paulo Underground - Spiral Mercury (2013) [FLAC]\07 - The Ghost Zoo.wav

Peak level 98.8 %
Extraction speed 10.1 X
Track quality 100.0 %
Test CRC 3EF25746
Copy CRC 3EF25746
Accurately ripped (confidence 2) [8731274E] (AR v2)
Copy OK


All tracks accurately ripped

No errors occurred

End of status report

–– CUETools DB Plugin V2.1.3

[CTDB TOCID: Xzvq.50q5PYxU5toXKqM.GmtsiA-] found, Submit result: Xzvq.50q5PYxU5toXKqM.GmtsiA- has been confirmed
[61a1ff4e] (4/4) Accurately ripped


==== Log checksum C892864B40A6B9C7A104BEEB3DB04DA4243C581B0F5A862C14630EF8C3BE9D4A ====


Chicago/São Paulo Underground Feat. Pharoah Sanders - Pharoah & The Underground - Spiral Mercury (2014) {Clean Feed Records}

Chicago/São Paulo Underground Feat. Pharoah Sanders - Pharoah & The Underground - Spiral Mercury (2014) {Clean Feed Records}