Subcategories

Phil Campbell and the Bastard Sons - The Age of Absurdity (2018)

Posted By: delpotro
Phil Campbell and the Bastard Sons - The Age of Absurdity (2018)

Phil Campbell and the Bastard Sons - The Age of Absurdity (2018)
XLD Rip | FLAC (tracks+log+.cue) | 00:45:32 | 328 Mb
Hard Rock | Label: Nuclear Blast

There isn’t much Welsh guitar legend Phil Campbell hasn’t done. From three-plus decades as Motörhead’s axeman to being voted number 20 in the pole of top 100 Welsh Heroes (comfortably beating JPR Williams, Roald Dahl and Sir Anthony Hopkins) to covering a Norweigian promoter in squirty cheese, Pontypridd-born Campbell continues to live life to the fullest with guitar in hand and humour intact.

Growing up admiring the likes of Jimi Hendrix, Tony Iommi and Jimmy Page, Campbell was playing professionally at the age of 13 with cabaret band Contrast on the Welsh club circuit. He bought his first Les Paul in 1973, and only 5 years later (in 1978!) he formed popular heavy metal indie band Persian Risk. Spending several years gigging with Risk, in February 1984 Campbell auditioned for the vacant guitar slot in popular beat group Motörhead. He ended up sharing guitar duties with fellow auditionee (and partner-in-cheap-laughs) Michael Würzel Burston.

In a 32 year Motörcareer which spanned three drummers, the departure of Würzel and the appearance of a horse onstage, Campbell was a major creative force and identity for the legendary rockers, selling millions of albums, filling dozens of passports and finding fun and games wherever he went. With 16 studio albums under his belt, Campbell has co-written some of Motörhead’s most-loved songs, including “Orgasmatron”, “Going To Brazil” and “Rock Out”. In fact, since joining the band, Campbell has co-written 90% of Motörhead’s studio output. He has also enjoyed various accolades, including 4 Grammy nominations and one Grammy win (in 2005), two Golden God awards from Metal Hammer magazine, a Kerrang! award, an official proclamation from the City of Los Angeles in August 2015, and a grand total of 16 speeding fines.

Phil Campbell & The Bastard Sons, featuring Campbell alongside his three sons Todd (guitar), Dane (drums), Tyla (bass) and complemented by vocalist Neil Starr stepped are now set to release their first full-length studio effort,’The Age Of Absurdity’.Recorded at Rockfield Studios and Longwave Studios in Wales and produced, engineered and mixed by Romesh Dodangoda and mastered at Abbey Road Studios in London.11 tracks of ass-kicking heavy rock’n’roll that extend the Motorhead legacy with a fresh coat of paint.

Commented Phil Campbell: “I am really excited for the fans to hear our debut record. Every part of the process was done in Wales, from the writing, to the recording and even the artwork! The album title ‘The Age Of Absurdity’ was inspired by the crazy world we live in today. The world to me seems to be a bit of a theater show so the album artwork idea just seemed to fit so well with the whole concept and album title.”
Tracklist:
1. Ringleader (04:04)
2. Freak Show (03:41)
3. Skin and Bones (03:49)
4. Gypsy Kiss (02:22)
5. Welcome To Hell (03:06)
6. Dark Days (04:44)
7. Dropping the Needle (01:50)
8. Step Into the Fire (03:32)
9. Get On Your Knees (03:28)
10. High Rule (03:55)
11. Into the Dark (06:37)

X Lossless Decoder version 20170729 (150.3)

XLD extraction logfile from 2018-01-26 14:48:44 +0000

Phil Campbell And The Bastard Sons / The Age of Absurdity

Used drive : HL-DT-ST DVD+-RW GS40N (revision A100)
Media type : Pressed CD

Ripper mode : XLD Secure Ripper
Disable audio cache : OK for the drive with a cache less than 1375KiB
Make use of C2 pointers : NO
Read offset correction : 6
Max retry count : 100
Gap status : Analyzed, Appended (except HTOA)

TOC of the extracted CD
Track | Start | Length | Start sector | End sector
––––––––––––––––––––––––––––-
1 | 00:00:00 | 04:04:57 | 0 | 18356
2 | 04:04:57 | 03:41:45 | 18357 | 34976
3 | 07:46:27 | 03:49:55 | 34977 | 52206
4 | 11:36:07 | 02:23:00 | 52207 | 62931
5 | 13:59:07 | 03:07:10 | 62932 | 76966
6 | 17:06:17 | 04:45:44 | 76967 | 98385
7 | 21:51:61 | 01:50:65 | 98386 | 106700
8 | 23:42:51 | 03:32:36 | 106701 | 122636
9 | 27:15:12 | 03:29:09 | 122637 | 138320
10 | 30:44:21 | 03:56:45 | 138321 | 156065
11 | 34:40:66 | 06:42:33 | 156066 | 186248
12 | 41:23:24 | 04:09:14 | 186249 | 204937

AccurateRip Summary
Disc not found in AccurateRip DB.

All Tracks
Album gain : -8.73 dB
Peak : 1.000000
Statistics
Read error : 0
Jitter error (maybe fixed) : 0
Retry sector count : 0
Damaged sector count : 0

Track 01
Filename : /Users/MacMini/Working Folder/XLD/Phil Campbell And The Bastard Sons - The Age of Absurdity (2018) [FLAC]/01 Ringleader.flac
/Users/MacMini/Working Folder/XLD/Phil Campbell And The Bastard Sons - The Age of Absurdity (2018) [MP3-320]/01 Ringleader.mp3
/Users/MacMini/Working Folder/XLD/Phil Campbell And The Bastard Sons - The Age of Absurdity (2018) [MP3-V0]/01 Ringleader.mp3
/Users/MacMini/Working Folder/XLD/Phil Campbell And The Bastard Sons - The Age of Absurdity (2018) [MP3-V2]/01 Ringleader.mp3
Pre-gap length : 00:02:00

Track gain : -8.73 dB
Peak : 0.977295
CRC32 hash (test run) : 9503A912
CRC32 hash : 9503A912
CRC32 hash (skip zero) : C7D4A088
AccurateRip v1 signature : E807D629
AccurateRip v2 signature : B30A725C
->Track not present in AccurateRip database.
Statistics
Read error : 0
Jitter error (maybe fixed) : 0
Retry sector count : 0
Damaged sector count : 0

Track 02
Filename : /Users/MacMini/Working Folder/XLD/Phil Campbell And The Bastard Sons - The Age of Absurdity (2018) [FLAC]/02 Freak Show.flac
/Users/MacMini/Working Folder/XLD/Phil Campbell And The Bastard Sons - The Age of Absurdity (2018) [MP3-320]/02 Freak Show.mp3
/Users/MacMini/Working Folder/XLD/Phil Campbell And The Bastard Sons - The Age of Absurdity (2018) [MP3-V0]/02 Freak Show.mp3
/Users/MacMini/Working Folder/XLD/Phil Campbell And The Bastard Sons - The Age of Absurdity (2018) [MP3-V2]/02 Freak Show.mp3

Track gain : -9.00 dB
Peak : 0.977295
CRC32 hash (test run) : 3A4D2DF9
CRC32 hash : 3A4D2DF9
CRC32 hash (skip zero) : 528B948F
AccurateRip v1 signature : 1B0A6095
AccurateRip v2 signature : A2DB2B05
->Track not present in AccurateRip database.
Statistics
Read error : 0
Jitter error (maybe fixed) : 0
Retry sector count : 0
Damaged sector count : 0

Track 03
Filename : /Users/MacMini/Working Folder/XLD/Phil Campbell And The Bastard Sons - The Age of Absurdity (2018) [FLAC]/03 Skin And Bones.flac
/Users/MacMini/Working Folder/XLD/Phil Campbell And The Bastard Sons - The Age of Absurdity (2018) [MP3-320]/03 Skin And Bones.mp3
/Users/MacMini/Working Folder/XLD/Phil Campbell And The Bastard Sons - The Age of Absurdity (2018) [MP3-V0]/03 Skin And Bones.mp3
/Users/MacMini/Working Folder/XLD/Phil Campbell And The Bastard Sons - The Age of Absurdity (2018) [MP3-V2]/03 Skin And Bones.mp3
Pre-gap length : 00:00:29

Track gain : -7.88 dB
Peak : 0.977295
CRC32 hash (test run) : 1F892082
CRC32 hash : 1F892082
CRC32 hash (skip zero) : 82420033
AccurateRip v1 signature : BC27C47E
AccurateRip v2 signature : C0F27C94
->Track not present in AccurateRip database.
Statistics
Read error : 0
Jitter error (maybe fixed) : 0
Retry sector count : 0
Damaged sector count : 0

Track 04
Filename : /Users/MacMini/Working Folder/XLD/Phil Campbell And The Bastard Sons - The Age of Absurdity (2018) [FLAC]/04 Gypsy Kiss.flac
/Users/MacMini/Working Folder/XLD/Phil Campbell And The Bastard Sons - The Age of Absurdity (2018) [MP3-320]/04 Gypsy Kiss.mp3
/Users/MacMini/Working Folder/XLD/Phil Campbell And The Bastard Sons - The Age of Absurdity (2018) [MP3-V0]/04 Gypsy Kiss.mp3
/Users/MacMini/Working Folder/XLD/Phil Campbell And The Bastard Sons - The Age of Absurdity (2018) [MP3-V2]/04 Gypsy Kiss.mp3

Track gain : -8.63 dB
Peak : 0.977295
CRC32 hash (test run) : 2A311D63
CRC32 hash : 2A311D63
CRC32 hash (skip zero) : 303817B2
AccurateRip v1 signature : 58354D88
AccurateRip v2 signature : 104449C1
->Track not present in AccurateRip database.
Statistics
Read error : 0
Jitter error (maybe fixed) : 0
Retry sector count : 0
Damaged sector count : 0

Track 05
Filename : /Users/MacMini/Working Folder/XLD/Phil Campbell And The Bastard Sons - The Age of Absurdity (2018) [FLAC]/05 Welcome To Hell.flac
/Users/MacMini/Working Folder/XLD/Phil Campbell And The Bastard Sons - The Age of Absurdity (2018) [MP3-320]/05 Welcome To Hell.mp3
/Users/MacMini/Working Folder/XLD/Phil Campbell And The Bastard Sons - The Age of Absurdity (2018) [MP3-V0]/05 Welcome To Hell.mp3
/Users/MacMini/Working Folder/XLD/Phil Campbell And The Bastard Sons - The Age of Absurdity (2018) [MP3-V2]/05 Welcome To Hell.mp3
Pre-gap length : 00:00:09

Track gain : -8.60 dB
Peak : 0.977295
CRC32 hash (test run) : DF7BDC5C
CRC32 hash : DF7BDC5C
CRC32 hash (skip zero) : 4EEF4E83
AccurateRip v1 signature : 843BD210
AccurateRip v2 signature : 4BC7E2FD
->Track not present in AccurateRip database.
Statistics
Read error : 0
Jitter error (maybe fixed) : 0
Retry sector count : 0
Damaged sector count : 0

Track 06
Filename : /Users/MacMini/Working Folder/XLD/Phil Campbell And The Bastard Sons - The Age of Absurdity (2018) [FLAC]/06 Dark Days.flac
/Users/MacMini/Working Folder/XLD/Phil Campbell And The Bastard Sons - The Age of Absurdity (2018) [MP3-320]/06 Dark Days.mp3
/Users/MacMini/Working Folder/XLD/Phil Campbell And The Bastard Sons - The Age of Absurdity (2018) [MP3-V0]/06 Dark Days.mp3
/Users/MacMini/Working Folder/XLD/Phil Campbell And The Bastard Sons - The Age of Absurdity (2018) [MP3-V2]/06 Dark Days.mp3
Pre-gap length : 00:00:20

Track gain : -8.43 dB
Peak : 0.977295
CRC32 hash (test run) : 6D20D5D5
CRC32 hash : 6D20D5D5
CRC32 hash (skip zero) : E99567FD
AccurateRip v1 signature : CC8FF832
AccurateRip v2 signature : 9CAF9B3C
->Track not present in AccurateRip database.
Statistics
Read error : 0
Jitter error (maybe fixed) : 0
Retry sector count : 0
Damaged sector count : 0

Track 07
Filename : /Users/MacMini/Working Folder/XLD/Phil Campbell And The Bastard Sons - The Age of Absurdity (2018) [FLAC]/07 Dropping The Needle.flac
/Users/MacMini/Working Folder/XLD/Phil Campbell And The Bastard Sons - The Age of Absurdity (2018) [MP3-320]/07 Dropping The Needle.mp3
/Users/MacMini/Working Folder/XLD/Phil Campbell And The Bastard Sons - The Age of Absurdity (2018) [MP3-V0]/07 Dropping The Needle.mp3
/Users/MacMini/Working Folder/XLD/Phil Campbell And The Bastard Sons - The Age of Absurdity (2018) [MP3-V2]/07 Dropping The Needle.mp3
Pre-gap length : 00:00:48

Track gain : -8.22 dB
Peak : 0.977295
CRC32 hash (test run) : F547F95B
CRC32 hash : F547F95B
CRC32 hash (skip zero) : 3CA7EF61
AccurateRip v1 signature : 204A9D23
AccurateRip v2 signature : C7C48067
->Track not present in AccurateRip database.
Statistics
Read error : 0
Jitter error (maybe fixed) : 0
Retry sector count : 0
Damaged sector count : 0

Track 08
Filename : /Users/MacMini/Working Folder/XLD/Phil Campbell And The Bastard Sons - The Age of Absurdity (2018) [FLAC]/08 Step Into The Fire.flac
/Users/MacMini/Working Folder/XLD/Phil Campbell And The Bastard Sons - The Age of Absurdity (2018) [MP3-320]/08 Step Into The Fire.mp3
/Users/MacMini/Working Folder/XLD/Phil Campbell And The Bastard Sons - The Age of Absurdity (2018) [MP3-V0]/08 Step Into The Fire.mp3
/Users/MacMini/Working Folder/XLD/Phil Campbell And The Bastard Sons - The Age of Absurdity (2018) [MP3-V2]/08 Step Into The Fire.mp3
Pre-gap length : 00:00:36

Track gain : -8.42 dB
Peak : 0.977295
CRC32 hash (test run) : 55D81883
CRC32 hash : 55D81883
CRC32 hash (skip zero) : 6EAAB064
AccurateRip v1 signature : 8F9114FE
AccurateRip v2 signature : 64EF67EE
->Track not present in AccurateRip database.
Statistics
Read error : 0
Jitter error (maybe fixed) : 0
Retry sector count : 0
Damaged sector count : 0

Track 09
Filename : /Users/MacMini/Working Folder/XLD/Phil Campbell And The Bastard Sons - The Age of Absurdity (2018) [FLAC]/09 Get On Your Knees.flac
/Users/MacMini/Working Folder/XLD/Phil Campbell And The Bastard Sons - The Age of Absurdity (2018) [MP3-320]/09 Get On Your Knees.mp3
/Users/MacMini/Working Folder/XLD/Phil Campbell And The Bastard Sons - The Age of Absurdity (2018) [MP3-V0]/09 Get On Your Knees.mp3
/Users/MacMini/Working Folder/XLD/Phil Campbell And The Bastard Sons - The Age of Absurdity (2018) [MP3-V2]/09 Get On Your Knees.mp3
Pre-gap length : 00:00:06

Track gain : -9.62 dB
Peak : 0.977295
CRC32 hash (test run) : 0009A356
CRC32 hash : 0009A356
CRC32 hash (skip zero) : D73A12D2
AccurateRip v1 signature : 626744F5
AccurateRip v2 signature : 1C239A68
->Track not present in AccurateRip database.
Statistics
Read error : 0
Jitter error (maybe fixed) : 0
Retry sector count : 0
Damaged sector count : 0

Track 10
Filename : /Users/MacMini/Working Folder/XLD/Phil Campbell And The Bastard Sons - The Age of Absurdity (2018) [FLAC]/10 High Rule.flac
/Users/MacMini/Working Folder/XLD/Phil Campbell And The Bastard Sons - The Age of Absurdity (2018) [MP3-320]/10 High Rule.mp3
/Users/MacMini/Working Folder/XLD/Phil Campbell And The Bastard Sons - The Age of Absurdity (2018) [MP3-V0]/10 High Rule.mp3
/Users/MacMini/Working Folder/XLD/Phil Campbell And The Bastard Sons - The Age of Absurdity (2018) [MP3-V2]/10 High Rule.mp3
Pre-gap length : 00:00:34

Track gain : -7.89 dB
Peak : 0.977295
CRC32 hash (test run) : F300554F
CRC32 hash : F300554F
CRC32 hash (skip zero) : 032C2CE3
AccurateRip v1 signature : 9B3C9FA1
AccurateRip v2 signature : 7FABCB8A
->Track not present in AccurateRip database.
Statistics
Read error : 0
Jitter error (maybe fixed) : 0
Retry sector count : 0
Damaged sector count : 0

Track 11
Filename : /Users/MacMini/Working Folder/XLD/Phil Campbell And The Bastard Sons - The Age of Absurdity (2018) [FLAC]/11 Into The Dark.flac
/Users/MacMini/Working Folder/XLD/Phil Campbell And The Bastard Sons - The Age of Absurdity (2018) [MP3-320]/11 Into The Dark.mp3
/Users/MacMini/Working Folder/XLD/Phil Campbell And The Bastard Sons - The Age of Absurdity (2018) [MP3-V0]/11 Into The Dark.mp3
/Users/MacMini/Working Folder/XLD/Phil Campbell And The Bastard Sons - The Age of Absurdity (2018) [MP3-V2]/11 Into The Dark.mp3
Pre-gap length : 00:00:60

Track gain : -8.29 dB
Peak : 0.977295
CRC32 hash (test run) : 5D8E52CE
CRC32 hash : 5D8E52CE
CRC32 hash (skip zero) : A96C6820
AccurateRip v1 signature : E977D0B0
AccurateRip v2 signature : D760EED6
->Track not present in AccurateRip database.
Statistics
Read error : 0
Jitter error (maybe fixed) : 0
Retry sector count : 0
Damaged sector count : 0

Track 12
Filename : /Users/MacMini/Working Folder/XLD/Phil Campbell And The Bastard Sons - The Age of Absurdity (2018) [FLAC]/12 Silver Machine (Bonus track).flac
/Users/MacMini/Working Folder/XLD/Phil Campbell And The Bastard Sons - The Age of Absurdity (2018) [MP3-320]/12 Silver Machine (Bonus track).mp3
/Users/MacMini/Working Folder/XLD/Phil Campbell And The Bastard Sons - The Age of Absurdity (2018) [MP3-V0]/12 Silver Machine (Bonus track).mp3
/Users/MacMini/Working Folder/XLD/Phil Campbell And The Bastard Sons - The Age of Absurdity (2018) [MP3-V2]/12 Silver Machine (Bonus track).mp3
Pre-gap length : 00:05:00

Track gain : -8.65 dB
Peak : 1.000000
CRC32 hash (test run) : 527DBEB4
CRC32 hash : 527DBEB4
CRC32 hash (skip zero) : 12D78038
AccurateRip v1 signature : ECA2048D
AccurateRip v2 signature : 0AF2C571
->Track not present in AccurateRip database.
Statistics
Read error : 0
Jitter error (maybe fixed) : 0
Retry sector count : 0
Damaged sector count : 0

No errors occurred

End of status report

––-BEGIN XLD SIGNATURE––-
h1FVgucM4tep2rd66XAfAXLwPu6xMkW9YJJtM5u52gYh4Ai.FgvkI2CXfezMHrPAV1Vvu0pFeneGC_ml9ZOK5OZfY7o3NzwFJkFA6jq
––-END XLD SIGNATURE––-

Thanks to the Original ripper swampsnake !