Subcategories

Phil Ochs - Farewells & Fantasies (1964-1975) {3D Box Set Elektra-Rhino R2 73518 rel 1997}

Posted By: ruskaval
Phil Ochs - Farewells & Fantasies (1964-1975) {3D Box Set Elektra-Rhino R2 73518 rel 1997}

Phil Ochs - Farewells & Fantasies (1964-1975) {3D Box Set Elektra-Rhino R2 73518 rel 1997}
EAC rip (secure mode) | FLAC (tracks)+CUE+LOG -> 1.32 Gb | MP3 @320 -> 546 Mb
Full Artwork @ 300 dpi (jpg) -> 177 Mb | 5% repair rar
© 1997 Elektra / A&M / Folkways / Rhino | R2 73518
Folk / Folk Rock / Political Folk / Psychedelic / Country / Singer-Songwriter / World

Among folk legends, the late Phil Ochs is nearly peerless. His dozen years as a ringing voice in the war against social and political injustice left the world with a wealth of music and lyrics that remain powerful and in some cases topical more than 30 years after he recorded them. Joined by the likes of Ry Cooder, Clydie King, Jack Elliott, Van Dyke Parks, Don Rich, and Tom Scott, Ochs created a legacy of words and music that continues to drive the spirit of social conscience in musicians like Billy Bragg, Natalie Merchant, and Ani DiFranco. This 3 CD set collects the work he did at Elektra, A&M, and Folkways between 1964 and 1975, as well as several previously unreleased tracks. It chronicles not just an era when music and politics often clashed, but also one spiritual man's sojourn from rebellion and activism to depression and despair.
Phil Ochs - Farewells & Fantasies (1964-1975) {3D Box Set Elektra-Rhino R2 73518 rel 1997}

This 53-song triple-CD set is the most comprehensive collection of Ochs' career that anyone with the cash is likely to see. This set largely supplants Ochs' Elektra discs. The 21-song first disc, steeped in the defiant, leftist politics of the early '60s – sort of a political time capsule – sums up his early career as a singing activist/journalist, filled with a mixture of seething outrage and youthful optimism, and sparked by the more than occasional turn of phrase and inventive topical allusion.

Phil Ochs - Farewells & Fantasies (1964-1975) {3D Box Set Elektra-Rhino R2 73518 rel 1997}


In addition to expected tracks like "I Ain't Marchin' Anymore," "The Bells," "The Power and the Glory," "Bound for Glory," and "The Highwayman" (from the Vancouver show), listeners get a pair of previously unreleased tracks, including "Morning," one of the very first songs Ochs wrote in New York. The second disc takes a more poetic turn and shows the first signs of maturation, as well the deepening despair and resignation that would ultimately destroy Ochs. Its 16 songs merge his later A&M material with the transitional songs present on his 1966 Elektra "live" album, along with a pair of 1964-vintage demos.

Phil Ochs - Farewells & Fantasies (1964-1975) {3D Box Set Elektra-Rhino R2 73518 rel 1997}


And the third disc sums up Ochs in his most daring musical guise, holding audiences spellbound with live performances of "Crucifixion" and his other epic compositions; venturing successfully into art rock with "Pleasures of the Harbor"; parodying his own style as he satirizes the country's foibles in "Outside of a Small Circle of Friends"; performing obituaries to his life ("Chords of Fame") and its purpose ("No More Songs"); and generally challenging even those who thought they knew and understood him. The 98-page booklet is richly annotated and impressively illustrated, and the sound is uniformly excellent.
Phil Ochs - Farewells & Fantasies (1964-1975) {3D Box Set Elektra-Rhino R2 73518 rel 1997}


tracklist:
CD1

01 - What's That I Hear
02 - The Bells
03 - Morning
04 - Bound For Glory
05 - The Highwayman
06 - Power And The Glory
07 - That's What I Want To Hear
08 - Links On The Chain
09 - Love Me, I'm A Liberal
10 - Too Many Martyrs
11 - In The Heat Of The Summer
12 - Here's To The State Of Mississippi
13 - I'm Going To Say It Now
14 - One More Parade
15 - Draft Dodger Rag
16 - I Ain't Marching Anymore
17 - We Seek No Wider War
18 - Ringing Of Revolution
19 - When I'm Gone
20 - Song Of My Returning
21 - There But For Fortune

Phil Ochs - Farewells & Fantasies (1964-1975) {3D Box Set Elektra-Rhino R2 73518 rel 1997}


CD2
01 - The War Is Over
02 - I Ain't Marching Anymore
03 - White Boots Marching In A Yellow Land
04 - Is There Anybody Here
05 - Santo Domingo
06 - Song Of A Soldier
07 - Cops Of The World
08 - Bracero
09 - Canons Of Christianity
10 - I Kill Therefore I Am
11 - The Confession
12 - William Butler Yeats Visits Lincoln Park And Escapes Unscathed
13 - A Toast To Those Who Are Gone
14 - Changes
15 - The Doll House
16 - When In Rome

Phil Ochs - Farewells & Fantasies (1964-1975) {3D Box Set Elektra-Rhino R2 73518 rel 1997}


CD3
01 - Pretty Smart On My Part
02 - The World Began In Eden And Ended In Los Angeles
03 - Tape From California
04 - Chords Of Fame
05 - Gas Station Woman
06 - Miranda
07 - Outside Of A Small Circle Of Friends
08 - Cross My Heart
09 - Flower Lady
10 - The Scorpion Departs But Never Returns
11 - Pleasures Of The Harbor
12 - Jim Dean Of Indiana
13 - Rehearsals For Retirement
14 - Doesn't Lenny Live Here Anymore
15 - No More Songs
16 - Crucifixion

Phil Ochs - Farewells & Fantasies (1964-1975) {3D Box Set Elektra-Rhino R2 73518 rel 1997}


Exact Audio Copy V1.0 beta 3 from 29. August 2011

EAC extraction logfile from 7. July 2012, 19:27

Phil Ochs / Farewells & Fantasies (disc 1)

Used drive : ATAPI DVD A DH16ABSH Adapter: 2 ID: 1

Read mode : Secure
Utilize accurate stream : Yes
Defeat audio cache : Yes
Make use of C2 pointers : No

Read offset correction : 6
Overread into Lead-In and Lead-Out : No
Fill up missing offset samples with silence : Yes
Delete leading and trailing silent blocks : No
Null samples used in CRC calculations : Yes
Used interface : Native Win32 interface for Win NT & 2000
Gap handling : Appended to previous track

Used output format : User Defined Encoder
Selected bitrate : 768 kBit/s
Quality : High
Add ID3 tag : No
Command line compressor : C:\Program Files (x86)\Exact Audio Copy\FLAC\FLAC.EXE
Additional command line options : -6 -V -T "ARTIST=%artist%" -T "TITLE=%title%" -T "ALBUM=%albumtitle%" -T "DATE=%year%" -T "TRACKNUMBER=%tracknr%" -T "GENRE=%genre%" -T "COMMENT=%comment%" -T "BAND=%albuminterpret%" -T "ALBUMARTIST=%albuminterpret%" -T "COMPOSER=%composer%" %haslyrics%–tag-from-file=LYRICS="%lyricsfile%"%haslyrics% -T "DISCNUMBER=%cdnumber%" -T "TOTALDISCS=%totalcds%" -T "TOTALTRACKS=%numtracks%" %hascover%–picture="%coverfile%"%hascover% %source% -o %dest%


TOC of the extracted CD

Track | Start | Length | Start sector | End sector
––––––––––––––––––––––––––––-
1 | 0:00.32 | 2:03.05 | 32 | 9261
2 | 2:03.37 | 3:09.00 | 9262 | 23436
3 | 5:12.37 | 2:29.05 | 23437 | 34616
4 | 7:41.42 | 3:20.45 | 34617 | 49661
5 | 11:02.12 | 6:47.23 | 49662 | 80209
6 | 17:49.35 | 2:19.00 | 80210 | 90634
7 | 20:08.35 | 3:10.57 | 90635 | 104941
8 | 23:19.17 | 4:23.00 | 104942 | 124666
9 | 27:42.17 | 4:31.20 | 124667 | 145011
10 | 32:13.37 | 2:50.03 | 145012 | 157764
11 | 35:03.40 | 3:06.55 | 157765 | 171769
12 | 38:10.20 | 5:57.12 | 171770 | 198556
13 | 44:07.32 | 2:57.00 | 198557 | 211831
14 | 47:04.32 | 3:21.15 | 211832 | 226921
15 | 50:25.47 | 2:12.70 | 226922 | 236891
16 | 52:38.42 | 2:35.45 | 236892 | 248561
17 | 55:14.12 | 4:22.18 | 248562 | 268229
18 | 59:36.30 | 7:05.65 | 268230 | 300169
19 | 66:42.20 | 4:01.65 | 300170 | 318309
20 | 70:44.10 | 5:15.25 | 318310 | 341959
21 | 75:59.35 | 2:46.40 | 341960 | 354449


Track 1

Filename C:\Users\owner\Uploads\Ex\Phil Ochs - Farewells & Fantasies (1997) [FLAC]\Disc 1\01 - What's That I Hear.wav

Pre-gap length 0:00:02.32

Peak level 98.5 %
Extraction speed 1.7 X
Track quality 99.8 %
Test CRC DC753E02
Copy CRC DC753E02
Accurately ripped (confidence 5) [DBB28A6E] (AR v1)
Copy OK

Track 2

Filename C:\Users\owner\Uploads\Ex\Phil Ochs - Farewells & Fantasies (1997) [FLAC]\Disc 1\02 - The Bells.wav

Pre-gap length 0:00:01.43

Peak level 99.9 %
Extraction speed 3.7 X
Track quality 100.0 %
Test CRC DA8EDAE7
Copy CRC DA8EDAE7
Accurately ripped (confidence 5) [A6847802] (AR v1)
Copy OK

Track 3

Filename C:\Users\owner\Uploads\Ex\Phil Ochs - Farewells & Fantasies (1997) [FLAC]\Disc 1\03 - Morning.wav

Pre-gap length 0:00:01.48

Peak level 99.1 %
Extraction speed 2.7 X
Track quality 99.9 %
Test CRC EF9632C6
Copy CRC EF9632C6
Accurately ripped (confidence 4) [0F792745] (AR v1)
Copy OK

Track 4

Filename C:\Users\owner\Uploads\Ex\Phil Ochs - Farewells & Fantasies (1997) [FLAC]\Disc 1\04 - Bound For Glory.wav

Pre-gap length 0:00:01.63

Peak level 99.9 %
Extraction speed 4.0 X
Track quality 100.0 %
Test CRC 6272BB93
Copy CRC 6272BB93
Accurately ripped (confidence 5) [D9CCEE93] (AR v1)
Copy OK

Track 5

Filename C:\Users\owner\Uploads\Ex\Phil Ochs - Farewells & Fantasies (1997) [FLAC]\Disc 1\05 - The Highwayman.wav

Pre-gap length 0:00:01.53

Peak level 84.3 %
Extraction speed 4.8 X
Track quality 100.0 %
Test CRC 323F48B7
Copy CRC 323F48B7
Accurately ripped (confidence 5) [915796DA] (AR v1)
Copy OK

Track 6

Filename C:\Users\owner\Uploads\Ex\Phil Ochs - Farewells & Fantasies (1997) [FLAC]\Disc 1\06 - Power And The Glory.wav

Pre-gap length 0:00:02.61

Peak level 99.9 %
Extraction speed 4.4 X
Track quality 100.0 %
Test CRC B9F1BBC1
Copy CRC B9F1BBC1
Accurately ripped (confidence 4) [1B9B4F60] (AR v1)
Copy OK

Track 7

Filename C:\Users\owner\Uploads\Ex\Phil Ochs - Farewells & Fantasies (1997) [FLAC]\Disc 1\07 - That's What I Want To Hear.wav

Pre-gap length 0:00:01.73

Peak level 99.8 %
Extraction speed 4.8 X
Track quality 100.0 %
Test CRC 674ADB14
Copy CRC 674ADB14
Accurately ripped (confidence 4) [003D1435] (AR v1)
Copy OK

Track 8

Filename C:\Users\owner\Uploads\Ex\Phil Ochs - Farewells & Fantasies (1997) [FLAC]\Disc 1\08 - Links On The Chain.wav

Pre-gap length 0:00:02.28

Peak level 99.9 %
Extraction speed 5.0 X
Track quality 100.0 %
Test CRC 4D3E7CA8
Copy CRC 4D3E7CA8
Accurately ripped (confidence 4) [B2DE5BB6] (AR v1)
Copy OK

Track 9

Filename C:\Users\owner\Uploads\Ex\Phil Ochs - Farewells & Fantasies (1997) [FLAC]\Disc 1\09 - Love Me, I'm A Liberal.wav

Pre-gap length 0:00:02.15

Peak level 99.9 %
Extraction speed 4.4 X
Track quality 99.9 %
Test CRC 22BE308C
Copy CRC 22BE308C
Accurately ripped (confidence 4) [B84B0417] (AR v1)
Copy OK

Track 10

Filename C:\Users\owner\Uploads\Ex\Phil Ochs - Farewells & Fantasies (1997) [FLAC]\Disc 1\10 - Too Many Martyrs.wav

Pre-gap length 0:00:02.00

Peak level 94.1 %
Extraction speed 5.7 X
Track quality 100.0 %
Test CRC D612E8B5
Copy CRC D612E8B5
Accurately ripped (confidence 4) [7BC03E4D] (AR v1)
Copy OK

Track 11

Filename C:\Users\owner\Uploads\Ex\Phil Ochs - Farewells & Fantasies (1997) [FLAC]\Disc 1\11 - In The Heat Of The Summer.wav

Pre-gap length 0:00:02.08

Peak level 97.8 %
Extraction speed 5.8 X
Track quality 100.0 %
Test CRC 5BC022EB
Copy CRC 5BC022EB
Accurately ripped (confidence 4) [C7C11508] (AR v1)
Copy OK

Track 12

Filename C:\Users\owner\Uploads\Ex\Phil Ochs - Farewells & Fantasies (1997) [FLAC]\Disc 1\12 - Here's To The State Of Mississippi.wav

Pre-gap length 0:00:01.48

Peak level 99.9 %
Extraction speed 6.6 X
Track quality 100.0 %
Test CRC 86A75375
Copy CRC 86A75375
Accurately ripped (confidence 5) [C9E37AE2] (AR v1)
Copy OK

Track 13

Filename C:\Users\owner\Uploads\Ex\Phil Ochs - Farewells & Fantasies (1997) [FLAC]\Disc 1\13 - I'm Going To Say It Now.wav

Pre-gap length 0:00:01.38

Peak level 99.9 %
Extraction speed 6.2 X
Track quality 100.0 %
Test CRC 53A5F54A
Copy CRC 53A5F54A
Accurately ripped (confidence 4) [9FB4AAB3] (AR v1)
Copy OK

Track 14

Filename C:\Users\owner\Uploads\Ex\Phil Ochs - Farewells & Fantasies (1997) [FLAC]\Disc 1\14 - One More Parade.wav

Pre-gap length 0:00:02.20

Peak level 99.9 %
Extraction speed 5.0 X
Track quality 99.9 %
Test CRC 4409DDCF
Copy CRC 4409DDCF
Accurately ripped (confidence 4) [D785CEA8] (AR v1)
Copy OK

Track 15

Filename C:\Users\owner\Uploads\Ex\Phil Ochs - Farewells & Fantasies (1997) [FLAC]\Disc 1\15 - Draft Dodger Rag.wav

Pre-gap length 0:00:02.43

Peak level 97.0 %
Extraction speed 5.7 X
Track quality 100.0 %
Test CRC F48C9909
Copy CRC F48C9909
Accurately ripped (confidence 5) [304E9338] (AR v1)
Copy OK

Track 16

Filename C:\Users\owner\Uploads\Ex\Phil Ochs - Farewells & Fantasies (1997) [FLAC]\Disc 1\16 - I Ain't Marching Anymore.wav

Pre-gap length 0:00:01.70

Peak level 99.9 %
Extraction speed 6.3 X
Track quality 100.0 %
Test CRC B6E4EFD8
Copy CRC B6E4EFD8
Accurately ripped (confidence 5) [42B98C7F] (AR v1)
Copy OK

Track 17

Filename C:\Users\owner\Uploads\Ex\Phil Ochs - Farewells & Fantasies (1997) [FLAC]\Disc 1\17 - We Seek No Wider War.wav

Pre-gap length 0:00:01.30

Peak level 99.9 %
Extraction speed 5.8 X
Track quality 99.9 %
Test CRC 1AE69050
Copy CRC 1AE69050
Accurately ripped (confidence 4) [1FA5D52F] (AR v1)
Copy OK

Track 18

Filename C:\Users\owner\Uploads\Ex\Phil Ochs - Farewells & Fantasies (1997) [FLAC]\Disc 1\18 - Ringing Of Revolution.wav

Pre-gap length 0:00:01.11

Peak level 96.7 %
Extraction speed 7.6 X
Track quality 100.0 %
Test CRC 5721C819
Copy CRC 5721C819
Accurately ripped (confidence 4) [D1922358] (AR v1)
Copy OK

Track 19

Filename C:\Users\owner\Uploads\Ex\Phil Ochs - Farewells & Fantasies (1997) [FLAC]\Disc 1\19 - When I'm Gone.wav

Pre-gap length 0:00:02.16

Peak level 97.2 %
Extraction speed 6.8 X
Track quality 100.0 %
Test CRC C6E38C01
Copy CRC C6E38C01
Accurately ripped (confidence 4) [64AEEBF1] (AR v1)
Copy OK

Track 20

Filename C:\Users\owner\Uploads\Ex\Phil Ochs - Farewells & Fantasies (1997) [FLAC]\Disc 1\20 - Song Of My Returning.wav

Pre-gap length 0:00:01.36

Peak level 98.7 %
Extraction speed 7.5 X
Track quality 100.0 %
Test CRC 7DCCA86D
Copy CRC 7DCCA86D
Accurately ripped (confidence 4) [D60D7BAA] (AR v1)
Copy OK

Track 21

Filename C:\Users\owner\Uploads\Ex\Phil Ochs - Farewells & Fantasies (1997) [FLAC]\Disc 1\21 - There But For Fortune.wav

Pre-gap length 0:00:01.63

Peak level 99.4 %
Extraction speed 6.4 X
Track quality 100.0 %
Test CRC ABA98C38
Copy CRC ABA98C38
Accurately ripped (confidence 4) [B89F4DE7] (AR v1)
Copy OK


All tracks accurately ripped

No errors occurred

End of status report

==== Log checksum 07C3B477B330B2FFF1CF24825D52E8710A71DCBC61C63E6617D9342725947CF1 ====

Exact Audio Copy V1.0 beta 3 from 29. August 2011

EAC extraction logfile from 7. July 2012, 20:00

Phil Ochs / Farewells & Fantasies (disc 2)

Used drive : ATAPI DVD A DH16ABSH Adapter: 2 ID: 1

Read mode : Secure
Utilize accurate stream : Yes
Defeat audio cache : Yes
Make use of C2 pointers : No

Read offset correction : 6
Overread into Lead-In and Lead-Out : No
Fill up missing offset samples with silence : Yes
Delete leading and trailing silent blocks : No
Null samples used in CRC calculations : Yes
Used interface : Native Win32 interface for Win NT & 2000
Gap handling : Appended to previous track

Used output format : User Defined Encoder
Selected bitrate : 768 kBit/s
Quality : High
Add ID3 tag : No
Command line compressor : C:\Program Files (x86)\Exact Audio Copy\FLAC\FLAC.EXE
Additional command line options : -6 -V -T "ARTIST=%artist%" -T "TITLE=%title%" -T "ALBUM=%albumtitle%" -T "DATE=%year%" -T "TRACKNUMBER=%tracknr%" -T "GENRE=%genre%" -T "COMMENT=%comment%" -T "BAND=%albuminterpret%" -T "ALBUMARTIST=%albuminterpret%" -T "COMPOSER=%composer%" %haslyrics%–tag-from-file=LYRICS="%lyricsfile%"%haslyrics% -T "DISCNUMBER=%cdnumber%" -T "TOTALDISCS=%totalcds%" -T "TOTALTRACKS=%numtracks%" %hascover%–picture="%coverfile%"%hascover% %source% -o %dest%


TOC of the extracted CD

Track | Start | Length | Start sector | End sector
––––––––––––––––––––––––––––-
1 | 0:00.32 | 4:24.03 | 32 | 19834
2 | 4:24.35 | 2:52.22 | 19835 | 32756
3 | 7:16.57 | 3:33.45 | 32757 | 48776
4 | 10:50.27 | 3:23.68 | 48777 | 64069
5 | 14:14.20 | 5:58.00 | 64070 | 90919
6 | 20:12.20 | 4:05.02 | 90920 | 109296
7 | 24:17.22 | 5:00.58 | 109297 | 131854
8 | 29:18.05 | 4:08.47 | 131855 | 150501
9 | 33:26.52 | 5:51.45 | 150502 | 176871
10 | 39:18.22 | 2:57.10 | 176872 | 190156
11 | 42:15.32 | 3:21.70 | 190157 | 205301
12 | 45:37.27 | 3:30.58 | 205302 | 221109
13 | 49:08.10 | 3:31.05 | 221110 | 236939
14 | 52:39.15 | 4:41.67 | 236940 | 258081
15 | 57:21.07 | 4:40.00 | 258082 | 279081
16 | 62:01.07 | 13:14.35 | 279082 | 338666


Track 1

Filename C:\Users\owner\Uploads\Ex\Phil Ochs - Farewells & Fantasies (1997) [FLAC]\Disc 2\01 - The War Is Over.wav

Pre-gap length 0:00:02.32

Peak level 99.9 %
Extraction speed 3.1 X
Track quality 99.9 %
Test CRC 422D6A7E
Copy CRC 422D6A7E
Accurately ripped (confidence 6) [AE3BBCF6] (AR v1)
Copy OK

Track 2

Filename C:\Users\owner\Uploads\Ex\Phil Ochs - Farewells & Fantasies (1997) [FLAC]\Disc 2\02 - I Ain't Marching Anymore.wav

Pre-gap length 0:00:01.62

Peak level 99.9 %
Extraction speed 2.8 X
Track quality 99.9 %
Test CRC AC7E5516
Copy CRC AC7E5516
Accurately ripped (confidence 6) [18DAB531] (AR v1)
Copy OK

Track 3

Filename C:\Users\owner\Uploads\Ex\Phil Ochs - Farewells & Fantasies (1997) [FLAC]\Disc 2\03 - White Boots Marching In A Yellow Land.wav

Pre-gap length 0:00:01.27

Peak level 99.9 %
Extraction speed 4.1 X
Track quality 100.0 %
Test CRC AA03EECA
Copy CRC AA03EECA
Accurately ripped (confidence 5) [B56CD4D5] (AR v1)
Copy OK

Track 4

Filename C:\Users\owner\Uploads\Ex\Phil Ochs - Farewells & Fantasies (1997) [FLAC]\Disc 2\04 - Is There Anybody Here.wav

Pre-gap length 0:00:01.72

Peak level 98.3 %
Extraction speed 4.5 X
Track quality 100.0 %
Test CRC 02EDFE26
Copy CRC 02EDFE26
Accurately ripped (confidence 5) [05C65954] (AR v1)
Copy OK

Track 5

Filename C:\Users\owner\Uploads\Ex\Phil Ochs - Farewells & Fantasies (1997) [FLAC]\Disc 2\05 - Santo Domingo.wav

Pre-gap length 0:00:02.27

Peak level 99.3 %
Extraction speed 5.0 X
Track quality 100.0 %
Test CRC 4B907100
Copy CRC 4B907100
Accurately ripped (confidence 5) [8AEC81E8] (AR v1)
Copy OK

Track 6

Filename C:\Users\owner\Uploads\Ex\Phil Ochs - Farewells & Fantasies (1997) [FLAC]\Disc 2\06 - Song Of A Soldier.wav

Pre-gap length 0:00:01.57

Peak level 99.2 %
Extraction speed 4.0 X
Track quality 99.9 %
Test CRC 7D2E6EAE
Copy CRC 7D2E6EAE
Accurately ripped (confidence 5) [31830B25] (AR v1)
Copy OK

Track 7

Filename C:\Users\owner\Uploads\Ex\Phil Ochs - Farewells & Fantasies (1997) [FLAC]\Disc 2\07 - Cops Of The World.wav

Pre-gap length 0:00:01.59

Peak level 99.9 %
Extraction speed 4.5 X
Track quality 99.9 %
Test CRC 97F1AEBF
Copy CRC 97F1AEBF
Accurately ripped (confidence 5) [0F10DD29] (AR v1)
Copy OK

Track 8

Filename C:\Users\owner\Uploads\Ex\Phil Ochs - Farewells & Fantasies (1997) [FLAC]\Disc 2\08 - Bracero.wav

Peak level 99.9 %
Extraction speed 4.1 X
Track quality 99.9 %
Test CRC 3A148B86
Copy CRC 3A148B86
Accurately ripped (confidence 5) [0FD97481] (AR v1)
Copy OK

Track 9

Filename C:\Users\owner\Uploads\Ex\Phil Ochs - Farewells & Fantasies (1997) [FLAC]\Disc 2\09 - Canons Of Christianity.wav

Peak level 99.9 %
Extraction speed 5.4 X
Track quality 99.9 %
Test CRC 4EA3999D
Copy CRC 4EA3999D
Accurately ripped (confidence 5) [7D561DE5] (AR v1)
Copy OK

Track 10

Filename C:\Users\owner\Uploads\Ex\Phil Ochs - Farewells & Fantasies (1997) [FLAC]\Disc 2\10 - I Kill Therefore I Am.wav

Pre-gap length 0:00:03.07

Peak level 95.5 %
Extraction speed 5.5 X
Track quality 100.0 %
Test CRC EDD4861C
Copy CRC EDD4861C
Accurately ripped (confidence 5) [8DDEBAF3] (AR v1)
Copy OK

Track 11

Filename C:\Users\owner\Uploads\Ex\Phil Ochs - Farewells & Fantasies (1997) [FLAC]\Disc 2\11 - The Confession.wav

Pre-gap length 0:00:01.72

Peak level 91.9 %
Extraction speed 5.9 X
Track quality 100.0 %
Test CRC 6E9AA590
Copy CRC 6E9AA590
Accurately ripped (confidence 5) [84FEF55D] (AR v1)
Copy OK

Track 12

Filename C:\Users\owner\Uploads\Ex\Phil Ochs - Farewells & Fantasies (1997) [FLAC]\Disc 2\12 - William Butler Yeats Visits Lincoln Park And Escapes Unscathed.wav

Pre-gap length 0:00:02.22

Peak level 98.5 %
Extraction speed 5.7 X
Track quality 100.0 %
Test CRC CC4E6A86
Copy CRC CC4E6A86
Accurately ripped (confidence 5) [27A861F2] (AR v1)
Copy OK

Track 13

Filename C:\Users\owner\Uploads\Ex\Phil Ochs - Farewells & Fantasies (1997) [FLAC]\Disc 2\13 - A Toast To Those Who Are Gone.wav

Pre-gap length 0:00:01.32

Peak level 69.8 %
Extraction speed 6.2 X
Track quality 100.0 %
Test CRC 3F5C93AD
Copy CRC 3F5C93AD
Accurately ripped (confidence 5) [F49E61D9] (AR v1)
Copy OK

Track 14

Filename C:\Users\owner\Uploads\Ex\Phil Ochs - Farewells & Fantasies (1997) [FLAC]\Disc 2\14 - Changes.wav

Pre-gap length 0:00:01.70

Peak level 83.0 %
Extraction speed 6.5 X
Track quality 100.0 %
Test CRC 8183CCD7
Copy CRC 8183CCD7
Accurately ripped (confidence 5) [743EB5D4] (AR v1)
Copy OK

Track 15

Filename C:\Users\owner\Uploads\Ex\Phil Ochs - Farewells & Fantasies (1997) [FLAC]\Disc 2\15 - The Doll House.wav

Pre-gap length 0:00:01.72

Peak level 99.9 %
Extraction speed 6.7 X
Track quality 100.0 %
Test CRC 0557AC48
Copy CRC 0557AC48
Accurately ripped (confidence 5) [F6EF9234] (AR v1)
Copy OK

Track 16

Filename C:\Users\owner\Uploads\Ex\Phil Ochs - Farewells & Fantasies (1997) [FLAC]\Disc 2\16 - When In Rome.wav

Pre-gap length 0:00:01.29

Peak level 99.9 %
Extraction speed 7.0 X
Track quality 99.9 %
Test CRC 448E4A80
Copy CRC 448E4A80
Accurately ripped (confidence 5) [BA4E6F72] (AR v1)
Copy OK


All tracks accurately ripped

No errors occurred

End of status report

==== Log checksum 0EEA702FEC5002BCF372E11C0A982E63D8ACBD70DEA01ACC6EFC49E5CA02AC1F ====

Exact Audio Copy V1.0 beta 3 from 29. August 2011

EAC extraction logfile from 7. July 2012, 20:33

Phil Ochs / Farewells & Fantasies (disc 3)

Used drive : ATAPI DVD A DH16ABSH Adapter: 2 ID: 1

Read mode : Secure
Utilize accurate stream : Yes
Defeat audio cache : Yes
Make use of C2 pointers : No

Read offset correction : 6
Overread into Lead-In and Lead-Out : No
Fill up missing offset samples with silence : Yes
Delete leading and trailing silent blocks : No
Null samples used in CRC calculations : Yes
Used interface : Native Win32 interface for Win NT & 2000
Gap handling : Appended to previous track

Used output format : User Defined Encoder
Selected bitrate : 768 kBit/s
Quality : High
Add ID3 tag : No
Command line compressor : C:\Program Files (x86)\Exact Audio Copy\FLAC\FLAC.EXE
Additional command line options : -6 -V -T "ARTIST=%artist%" -T "TITLE=%title%" -T "ALBUM=%albumtitle%" -T "DATE=%year%" -T "TRACKNUMBER=%tracknr%" -T "GENRE=%genre%" -T "COMMENT=%comment%" -T "BAND=%albuminterpret%" -T "ALBUMARTIST=%albuminterpret%" -T "COMPOSER=%composer%" %haslyrics%–tag-from-file=LYRICS="%lyricsfile%"%haslyrics% -T "DISCNUMBER=%cdnumber%" -T "TOTALDISCS=%totalcds%" -T "TOTALTRACKS=%numtracks%" %hascover%–picture="%coverfile%"%hascover% %source% -o %dest%


TOC of the extracted CD

Track | Start | Length | Start sector | End sector
––––––––––––––––––––––––––––-
1 | 0:00.32 | 3:18.53 | 32 | 14934
2 | 3:19.10 | 3:27.17 | 14935 | 30476
3 | 6:46.27 | 3:50.05 | 30477 | 47731
4 | 10:36.32 | 3:33.13 | 47732 | 63719
5 | 14:09.45 | 3:31.67 | 63720 | 79611
6 | 17:41.37 | 5:19.03 | 79612 | 103539
7 | 23:00.40 | 3:43.72 | 103540 | 120336
8 | 26:44.37 | 4:28.73 | 120337 | 140509
9 | 31:13.35 | 6:04.72 | 140510 | 167881
10 | 37:18.32 | 4:17.33 | 167882 | 187189
11 | 41:35.65 | 8:09.35 | 187190 | 223899
12 | 49:45.25 | 5:04.27 | 223900 | 246726
13 | 54:49.52 | 4:12.68 | 246727 | 265694
14 | 59:02.45 | 6:14.12 | 265695 | 293756
15 | 65:16.57 | 4:19.60 | 293757 | 313241
16 | 69:36.42 | 7:40.15 | 313242 | 347756


Track 1

Filename C:\Users\owner\Uploads\Ex\Phil Ochs - Farewells & Fantasies (1997) [FLAC]\Disc 3\01 - Pretty Smart On My Part.wav

Pre-gap length 0:00:02.32

Peak level 98.4 %
Extraction speed 3.5 X
Track quality 100.0 %
Test CRC 21F518FC
Copy CRC 21F518FC
Accurately ripped (confidence 5) [0C2D397A] (AR v1)
Copy OK

Track 2

Filename C:\Users\owner\Uploads\Ex\Phil Ochs - Farewells & Fantasies (1997) [FLAC]\Disc 3\02 - The World Began In Eden And Ended In Los Angeles.wav

Pre-gap length 0:00:01.33

Peak level 98.6 %
Extraction speed 4.0 X
Track quality 100.0 %
Test CRC 7DA78A1B
Copy CRC 7DA78A1B
Accurately ripped (confidence 5) [20E89A29] (AR v1)
Copy OK

Track 3

Filename C:\Users\owner\Uploads\Ex\Phil Ochs - Farewells & Fantasies (1997) [FLAC]\Disc 3\03 - Tape From California.wav

Pre-gap length 0:00:02.10

Peak level 99.9 %
Extraction speed 3.5 X
Track quality 99.9 %
Test CRC 064179BB
Copy CRC 064179BB
Accurately ripped (confidence 5) [B0125885] (AR v1)
Copy OK

Track 4

Filename C:\Users\owner\Uploads\Ex\Phil Ochs - Farewells & Fantasies (1997) [FLAC]\Disc 3\04 - Chords Of Fame.wav

Pre-gap length 0:00:01.52

Peak level 99.9 %
Extraction speed 4.5 X
Track quality 100.0 %
Test CRC ABDB10B8
Copy CRC ABDB10B8
Accurately ripped (confidence 5) [259BA558] (AR v1)
Copy OK

Track 5

Filename C:\Users\owner\Uploads\Ex\Phil Ochs - Farewells & Fantasies (1997) [FLAC]\Disc 3\05 - Gas Station Woman.wav

Pre-gap length 0:00:01.38

Peak level 93.4 %
Extraction speed 4.6 X
Track quality 100.0 %
Test CRC 10873AAF
Copy CRC 10873AAF
Accurately ripped (confidence 5) [F49F6FE6] (AR v1)
Copy OK

Track 6

Filename C:\Users\owner\Uploads\Ex\Phil Ochs - Farewells & Fantasies (1997) [FLAC]\Disc 3\06 - Miranda.wav

Pre-gap length 0:00:01.17

Peak level 99.9 %
Extraction speed 4.2 X
Track quality 99.9 %
Test CRC 7F8D4BEE
Copy CRC 7F8D4BEE
Accurately ripped (confidence 6) [90E13A56] (AR v1)
Copy OK

Track 7

Filename C:\Users\owner\Uploads\Ex\Phil Ochs - Farewells & Fantasies (1997) [FLAC]\Disc 3\07 - Outside Of A Small Circle Of Friends.wav

Pre-gap length 0:00:01.13

Peak level 99.9 %
Extraction speed 5.4 X
Track quality 100.0 %
Test CRC CB6A0DC9
Copy CRC CB6A0DC9
Accurately ripped (confidence 6) [D7EE7E7E] (AR v1)
Copy OK

Track 8

Filename C:\Users\owner\Uploads\Ex\Phil Ochs - Farewells & Fantasies (1997) [FLAC]\Disc 3\08 - Cross My Heart.wav

Pre-gap length 0:00:01.42

Peak level 99.9 %
Extraction speed 5.4 X
Track quality 100.0 %
Test CRC 037F32BE
Copy CRC 037F32BE
Accurately ripped (confidence 5) [767A550B] (AR v1)
Copy OK

Track 9

Filename C:\Users\owner\Uploads\Ex\Phil Ochs - Farewells & Fantasies (1997) [FLAC]\Disc 3\09 - Flower Lady.wav

Pre-gap length 0:00:00.48

Peak level 99.9 %
Extraction speed 6.0 X
Track quality 100.0 %
Test CRC 237901A5
Copy CRC 237901A5
Accurately ripped (confidence 5) [49592A87] (AR v1)
Copy OK

Track 10

Filename C:\Users\owner\Uploads\Ex\Phil Ochs - Farewells & Fantasies (1997) [FLAC]\Disc 3\10 - The Scorpion Departs But Never Returns.wav

Pre-gap length 0:00:01.67

Peak level 99.9 %
Extraction speed 6.3 X
Track quality 100.0 %
Test CRC 1F93F7DD
Copy CRC 1F93F7DD
Accurately ripped (confidence 5) [EB460621] (AR v1)
Copy OK

Track 11

Filename C:\Users\owner\Uploads\Ex\Phil Ochs - Farewells & Fantasies (1997) [FLAC]\Disc 3\11 - Pleasures Of The Harbor.wav

Pre-gap length 0:00:01.65

Peak level 87.1 %
Extraction speed 6.8 X
Track quality 100.0 %
Test CRC C565BDAA
Copy CRC C565BDAA
Accurately ripped (confidence 6) [84BDF159] (AR v1)
Copy OK

Track 12

Filename C:\Users\owner\Uploads\Ex\Phil Ochs - Farewells & Fantasies (1997) [FLAC]\Disc 3\12 - Jim Dean Of Indiana.wav

Pre-gap length 0:00:01.60

Peak level 72.3 %
Extraction speed 6.7 X
Track quality 100.0 %
Test CRC D77BF503
Copy CRC D77BF503
Accurately ripped (confidence 5) [C46B8CB6] (AR v1)
Copy OK

Track 13

Filename C:\Users\owner\Uploads\Ex\Phil Ochs - Farewells & Fantasies (1997) [FLAC]\Disc 3\13 - Rehearsals For Retirement.wav

Pre-gap length 0:00:02.02

Peak level 92.1 %
Extraction speed 6.6 X
Track quality 100.0 %
Test CRC E28D9F0B
Copy CRC E28D9F0B
Accurately ripped (confidence 5) [522E121F] (AR v1)
Copy OK

Track 14

Filename C:\Users\owner\Uploads\Ex\Phil Ochs - Farewells & Fantasies (1997) [FLAC]\Disc 3\14 - Doesn't Lenny Live Here Anymore.wav

Pre-gap length 0:00:01.40

Peak level 99.9 %
Extraction speed 6.6 X
Track quality 99.9 %
Test CRC F8DF4510
Copy CRC F8DF4510
Accurately ripped (confidence 5) [0BB31F2B] (AR v1)
Copy OK

Track 15

Filename C:\Users\owner\Uploads\Ex\Phil Ochs - Farewells & Fantasies (1997) [FLAC]\Disc 3\15 - No More Songs.wav

Pre-gap length 0:00:02.07

Peak level 99.9 %
Extraction speed 7.0 X
Track quality 100.0 %
Test CRC ECD6E753
Copy CRC ECD6E753
Accurately ripped (confidence 5) [396E82E1] (AR v1)
Copy OK

Track 16

Filename C:\Users\owner\Uploads\Ex\Phil Ochs - Farewells & Fantasies (1997) [FLAC]\Disc 3\16 - Crucifixion.wav

Pre-gap length 0:00:01.00

Peak level 99.9 %
Extraction speed 8.3 X
Track quality 100.0 %
Test CRC E668D6E2
Copy CRC E668D6E2
Accurately ripped (confidence 4) [E28F998D] (AR v1)
Copy OK


All tracks accurately ripped

No errors occurred

End of status report

==== Log checksum EBC404FB1C2553CB615E6E43367B8CB68A5C8D9E3CC650E646262383F8B7B1CA ====


Phil Ochs - Farewells & Fantasies (1964-1975) {3D Box Set Elektra-Rhino R2 73518 rel 1997}


All thanks goes to the original releaser!