Subcategories

Primal Scream - Chaosmosis (2016) {First International SCRMCD008}

Posted By: ruskaval
Primal Scream - Chaosmosis (2016) {First International SCRMCD008}

Primal Scream - Chaosmosis (2016) {First International SCRMCD008}
EAC rip (secure mode) | FLAC (tracks)+CUE+LOG -> 260 Mb | MP3 @320 -> 89 Mb
Full Artwork @ 300 dpi (png) -> 71 Mb | 5% repair rar
© 2016 First International | SCRMCD008
Rock / Alternative / Alternative Dance / Dance-Rock

From the outside, Primal Scream seem suitably chaotic, flitting between noise-skronk explorations and dub operas, but there's one truism that applies to the bulk of their career: if they delivered a good album last time around, they'll stumble on the next. More Light, the messy, candy-colored, psychedelic opus they delivered in 2013, found the band at something near their best, so it only follows that 2016's Chaosmosis would be something of a mess – and it is, only in an unexpected fashion.

Similar to how Evil Heat represented a diminishment of XTRMNTR – the back-to-back highlights Vanishing Point and XTRMNTR being the exceptions that proves the Primal Scream rule – Chaosmosis finds the band scaling back its predecessor, narrowing its vistas so drastically it often seems as if the group cobbled it together on an old Casio. Often, there's a hint of something intriguing here – a rhythm that starts to kick, a texture that seduces – but these elements aren't developed; they simply lie there, pulsating in neon. Primal Scream can summon enough skill to turn this kaleidoscope of color into something resembling pleasing background music, but the cloistered aggression of "When the Blackout Meets the Fallout" and jazz overtones of "Golden Rope" make it clear that electronic easy listening was never Primal Scream's intention. That's just where Chaosmosis happened to end up.

Tracklist

1 Trippin' On Your Love
2 (Feeling Like A) Demon Again
3 I Can Change
4 100% Or Nothing
5 Private Wars
6 Where The Light Gets In
7 When The Blackout Meets The Fallout
8 Carnival Of Fools
9 Golden Rope
10 Autumn In Paradise

Exact Audio Copy V1.2 from 12. August 2016

EAC extraction logfile from 13. January 2017, 17:39

Primal Scream / Chaosmosis

Used drive : TSSTcorpCDDVDW SH-224DB Adapter: 1 ID: 0

Read mode : Secure
Utilize accurate stream : Yes
Defeat audio cache : Yes
Make use of C2 pointers : No

Read offset correction : 6
Overread into Lead-In and Lead-Out : No
Fill up missing offset samples with silence : Yes
Delete leading and trailing silent blocks : No
Null samples used in CRC calculations : Yes
Used interface : Native Win32 interface for Win NT & 2000
Gap handling : Appended to previous track

Used output format : User Defined Encoder
Selected bitrate : 896 kBit/s
Quality : High
Add ID3 tag : No
Command line compressor : C:\Program Files (x86)\Exact Audio Copy\Flac\flac.exe
Additional command line options : -8 -V -T "ARTIST=%artist%" -T "TITLE=%title%" -T "ALBUM=%albumtitle%" -T "DATE=%year%" -T "TRACKNUMBER=%tracknr%" -T "TOTALTRACKS=%numtracks%" -T "GENRE=%genre%" -T "ALBUMARTIST=%albumartist%" -T "ALBUM ARTIST=%albumartist%" -T "COMMENT=EAC Secure Mode, Test & Copy, AccurateRip, FLAC -8" %source%


TOC of the extracted CD

Track | Start | Length | Start sector | End sector
––––––––––––––––––––––––––––-
1 | 0:00.00 | 3:30.47 | 0 | 15796
2 | 3:30.47 | 4:35.17 | 15797 | 36438
3 | 8:05.64 | 3:17.15 | 36439 | 51228
4 | 11:23.04 | 3:54.13 | 51229 | 68791
5 | 15:17.17 | 2:30.58 | 68792 | 80099
6 | 17:48.00 | 3:47.64 | 80100 | 97188
7 | 21:35.64 | 1:48.70 | 97189 | 105358
8 | 23:24.59 | 3:41.32 | 105359 | 121965
9 | 27:06.16 | 5:37.19 | 121966 | 147259
10 | 32:43.35 | 5:04.26 | 147260 | 170085


Track 1

Filename E:\Musica\Primal Scream\Primal Scream - Chaosmosis (2016) [FLAC]\01 - Trippin' On Your Love.wav

Pre-gap length 0:00:02.00

Peak level 98.8 %
Extraction speed 4.0 X
Track quality 100.0 %
Test CRC 872F671B
Copy CRC 872F671B
Accurately ripped (confidence 23) [848254F0] (AR v2)
Copy OK

Track 2

Filename E:\Musica\Primal Scream\Primal Scream - Chaosmosis (2016) [FLAC]\02 - (Feeling Like A) Demon Again.wav

Peak level 98.8 %
Extraction speed 3.8 X
Track quality 99.9 %
Test CRC 8C49C4FD
Copy CRC 8C49C4FD
Accurately ripped (confidence 23) [66B4AD1F] (AR v2)
Copy OK

Track 3

Filename E:\Musica\Primal Scream\Primal Scream - Chaosmosis (2016) [FLAC]\03 - I Can Change.wav

Peak level 98.8 %
Extraction speed 3.7 X
Track quality 99.9 %
Test CRC E2FF4B17
Copy CRC E2FF4B17
Accurately ripped (confidence 23) [A423EA0C] (AR v2)
Copy OK

Track 4

Filename E:\Musica\Primal Scream\Primal Scream - Chaosmosis (2016) [FLAC]\04 - 100% Or Nothing.wav

Peak level 98.8 %
Extraction speed 5.4 X
Track quality 100.0 %
Test CRC 29E392B8
Copy CRC 29E392B8
Accurately ripped (confidence 23) [6600D5E3] (AR v2)
Copy OK

Track 5

Filename E:\Musica\Primal Scream\Primal Scream - Chaosmosis (2016) [FLAC]\05 - Private Wars.wav

Peak level 98.8 %
Extraction speed 5.3 X
Track quality 100.0 %
Test CRC D003BEA3
Copy CRC D003BEA3
Accurately ripped (confidence 23) [6F8400C0] (AR v2)
Copy OK

Track 6

Filename E:\Musica\Primal Scream\Primal Scream - Chaosmosis (2016) [FLAC]\06 - Where The Light Gets In.wav

Peak level 98.8 %
Extraction speed 5.8 X
Track quality 100.0 %
Test CRC 1B8E0F10
Copy CRC 1B8E0F10
Accurately ripped (confidence 23) [11010312] (AR v2)
Copy OK

Track 7

Filename E:\Musica\Primal Scream\Primal Scream - Chaosmosis (2016) [FLAC]\07 - When The Blackout Meets The Fallout.wav

Peak level 98.8 %
Extraction speed 5.2 X
Track quality 100.0 %
Test CRC ACDB2C99
Copy CRC ACDB2C99
Accurately ripped (confidence 23) [BBC619BD] (AR v2)
Copy OK

Track 8

Filename E:\Musica\Primal Scream\Primal Scream - Chaosmosis (2016) [FLAC]\08 - Carnival Of Fools.wav

Peak level 98.8 %
Extraction speed 4.8 X
Track quality 99.9 %
Test CRC 64572E8D
Copy CRC 64572E8D
Accurately ripped (confidence 23) [2B38789B] (AR v2)
Copy OK

Track 9

Filename E:\Musica\Primal Scream\Primal Scream - Chaosmosis (2016) [FLAC]\09 - Golden Rope.wav

Peak level 98.8 %
Extraction speed 6.8 X
Track quality 100.0 %
Test CRC F8AB0EEC
Copy CRC F8AB0EEC
Accurately ripped (confidence 23) [00E8745B] (AR v2)
Copy OK

Track 10

Filename E:\Musica\Primal Scream\Primal Scream - Chaosmosis (2016) [FLAC]\10 - Autumn In Paradise.wav

Peak level 98.8 %
Extraction speed 7.1 X
Track quality 100.0 %
Test CRC F272E48B
Copy CRC F272E48B
Accurately ripped (confidence 22) [207FCE4C] (AR v2)
Copy OK


All tracks accurately ripped

No errors occurred

End of status report

–– CUETools DB Plugin V2.1.6

[CTDB TOCID: ZmylDzMjo7Wh3O4QfZ55E1BSO0I-] found
Submit result: ZmylDzMjo7Wh3O4QfZ55E1BSO0I- has been confirmed
Track | CTDB Status
1 | (63/65) Accurately ripped
2 | (63/65) Accurately ripped
3 | (63/65) Accurately ripped
4 | (63/65) Accurately ripped
5 | (63/65) Accurately ripped
6 | (63/65) Accurately ripped
7 | (63/65) Accurately ripped
8 | (63/65) Accurately ripped
9 | (63/65) Accurately ripped
10 | (63/65) Accurately ripped


==== Log checksum DA9481AB8495B0D5CB7AEA53F0CB17062095744BEDA66D7102FC8E2D84C62D36 ====


Primal Scream - Chaosmosis (2016) {First International SCRMCD008}

Primal Scream - Chaosmosis (2016) {First International SCRMCD008}



===