Primoz Grasic - Introducing (trio) (1995)

Posted By: bumbo
Primoz Grasic - Introducing (trio) (1995)

Primoz Grasic - Introducing (trio) (1995)
Jazz | EAC (APE+CUE+LOG) | Full 300dpi scans | 323 MB
Jazzette Records | 1995 | BPCD 041 | rar files | 3% recovery

So maybe the most important thing that jazz preserves is the right for any individual to express himself in his on terms. I think Primoz is doing just that! (N. H. 0. Pedersen)

1 Oleo / S. rollins
2 Loverman / R. Ramirez
3 I'll Remember April / G. De Paul
4 What's New / B. Hoggart
5 Just Friends / J. Klenner
6 Stella By Starlight / V. Young
7 Billy's Bounce - Au Privave / Ch. Parker
8 Late, Late B.P. Club Blues / P. Grasic


Primoz Grasic, guitar
N.H.O. Pedersen, bass
Martin Drew, drums

Let me start this short liner note with a very simple statement: in the whole history of jazz in Slovenia, there has never been greater talent than Primoz Grasic-period! Although young /born in 1968/. Primoz has a built-in sense for jazz tradition and blues, and is a good technician with a good sense of timing and above all a nice personality! In short,a really swinging cat! This CD was recorded one morning at the B. P. Club during the Springtime Jazz Fever '95 festival. All the tunes were one-takers, and the material was completed in less than three hours! Note also the fantastic sound quality of the recording-another miracle from "Chach Productions!" And let's not forget that, like me, Primoz also loves a romantic taste of Mr. Hloopich's wines-maybe that's the secret!?
Bosko Petrovic, Zagreb, May 1995.

Recording with the young guitar player Primoz Grasic remainds me that in this world some positive things can still happen between people. On this CD, for instance, you have an English drummer, a Danish bass player, and a Slovenian guitarist and we all just concentrate on what we are good at, namely playing our music together, so everything went fine.
Jazz for me is an international languaage that can be spoken by any natioon as such, but most importantly, by any individual. I think that this is very important because today it's so easy to become in trend or exclusive-or even nationalistic-by demanding to play "like this or like that, otherwise you're out!"
So maybe the most important thing that jazz preserves is the right for any individual to express himself in his on terms. I think Primoz is doing just that!
N. H. 0. Pedersen, Copenhagen, April 1995

I first met Primoz Grasic in 1993 at Bosko Petrovic's B. P. Club in Zagreb and was immediately impressed when I heard him play with the magnificent local musicians. In 1994 I played with Primoz in Ljubljana Radio Orchestra and then at the B. P. Club in Zagreb. I was knocked out with how he was able to play really great whether it was with a big band or in a small group situation. This year (1995), with Primoz, Neils Pedersen and myself, we made this CD using the B. P. Club as a studio. Although he has been a sideman on many albums, this I believe, is a debut album for Primoz under his own name. It is certainly one of the best albums that I have been involved with and shows the musical maturity and excellence that Primoz has at his command given the right circumstances. I firmly believe that this is a landmark album for Primoz Grasic the artist musician, Bosko the producer, and "Chach" sound engineer, whose expertise played a vital part in the production of this album. There is musical greatness in Croatia and Slovenia, and Primoz Grasic is a prime example of it. Here's to the next album perhaps with the amazing B. P. All Star Super Bend!!??
Martin Drew, London, April 1995

Exact Audio Copy V0.99 prebeta 4 from 23. January 2008

EAC extraction logfile from 22. October 2008, 21:58

Primoz Grasic / Introducing (trio)

Used drive : PLEXTOR DVDR PX-750A Adapter: 3 ID: 0

Read mode : Secure
Utilize accurate stream : Yes
Defeat audio cache : Yes
Make use of C2 pointers : No

Read offset correction : 102
Overread into Lead-In and Lead-Out : No
Fill up missing offset samples with silence : Yes
Delete leading and trailing silent blocks : No
Null samples used in CRC calculations : Yes
Used interface : Installed external ASPI interface

Used output format : Internal WAV Routines
Sample format : 44.100 Hz; 16 Bit; Stereo

TOC of the extracted CD

Track | Start | Length | Start sector | End sector
1 | 0:00.00 | 6:04.00 | 0 | 27299
2 | 6:04.00 | 10:39.10 | 27300 | 75234
3 | 16:43.10 | 9:00.07 | 75235 | 115741
4 | 25:43.17 | 10:58.25 | 115742 | 165116
5 | 36:41.42 | 7:57.03 | 165117 | 200894
6 | 44:38.45 | 7:18.25 | 200895 | 233769
7 | 51:56.70 | 5:29.57 | 233770 | 258501
8 | 57:26.52 | 7:58.45 | 258502 | 294396

Range status and errors

Selected range

Filename D:\Moji ripovi\Primoz Grasic - Introducing (trio).wav

Peak level 99.9 %
Range quality 100.0 %
Copy CRC 26140988
Copy OK

No errors occurred

AccurateRip summary

Track 1 not present in database
Track 2 not present in database
Track 3 not present in database
Track 4 not present in database
Track 5 not present in database
Track 6 not present in database
Track 7 not present in database
Track 8 not present in database

None of the tracks are present in the AccurateRip database

End of status report