Subcategories

Princess Chelsea - The Loneliest Girl (2018)

Posted By: delpotro
Princess Chelsea - The Loneliest Girl (2018)

Princess Chelsea - The Loneliest Girl (2018)
EAC Rip | FLAC (tracks+log+.cue) - 276 Mb | MP3 CBR 320 kbps - 102 Mb | 00:44:31
Indie Pop, Dreampop, Baroque Pop, Female Vocal | Label: Lil' Chief Record

The Loneliest Girl is the third studio album by New Zealand musician Chelsea Nikkel, better known as Princess Chelsea. It was recorded by Chelsea between 2016 and 2017 in her home studio in West Auckland, New Zealand.

The Loneliest Girl examines the loneliness and ultimately the artistic satisfaction a strong work ethic can bring, the result of which is this eclectic collection of pop songs. As a studio based artist Chelsea was conscious of not wanting to fall too deep into a production hole for her third album and wanted to more than ever before capture moments of inspiration, madness and spontaneity on record.
Tracklist:
1. The Deer with the Golden Lights (01:17)
2. Good Enough (04:42)
3. The Pretty Ones (05:50)
4. I Love My Boyfriend (04:06)
5. Wasting Time (03:01)
6. The Loneliest Girl (03:54)
7. I Miss My Man (04:52)
8. It's Nothing (03:42)
9. Respect the Labourers (04:13)
10. Cigarette (01:16)
11. Growing Older (04:37)
12. All I Need to Do (02:35)

Exact Audio Copy V1.3 from 2. September 2016

EAC extraction logfile from 9. June 2019, 9:33

Princess Chelsea / The Loneliest Girl

Used drive : ATAPI iHAS124 B Adapter: 1 ID: 0

Read mode : Secure
Utilize accurate stream : Yes
Defeat audio cache : Yes
Make use of C2 pointers : No

Read offset correction : 6
Overread into Lead-In and Lead-Out : No
Fill up missing offset samples with silence : Yes
Delete leading and trailing silent blocks : No
Null samples used in CRC calculations : Yes
Used interface : Native Win32 interface for Win NT & 2000
Gap handling : Appended to previous track

Used output format : User Defined Encoder
Selected bitrate : 896 kBit/s
Quality : High
Add ID3 tag : No
Command line compressor : C:\Program Files (x86)\Exact Audio Copy\FLAC\FLAC.EXE
Additional command line options : -8 -V -T "ARTIST=%artist%" -T "TITLE=%title%" -T "ALBUM=%albumtitle%" -T "DATE=%year%" -T "TRACKNUMBER=%tracknr%" -T "GENRE=%genre%" -T "PERFORMER=%albuminterpret%" -T "COMPOSER=%composer%" %haslyrics%–tag-from-file=LYRICS="%lyricsfile%"%haslyrics% -T "ALBUMARTIST=%albumartist%" -T "DISCNUMBER=%cdnumber%" -T "TOTALDISCS=%totalcds%" -T "TOTALTRACKS=%numtracks%" -T "COMMENT=%comment%" %source% -o %dest%


TOC of the extracted CD

Track | Start | Length | Start sector | End sector
––––––––––––––––––––––––––––-
1 | 0:00.00 | 1:17.47 | 0 | 5821
2 | 1:17.47 | 4:42.47 | 5822 | 27018
3 | 6:00.19 | 5:51.66 | 27019 | 53409
4 | 11:52.10 | 4:06.66 | 53410 | 71925
5 | 15:59.01 | 3:03.73 | 71926 | 85723
6 | 19:02.74 | 4:00.47 | 85724 | 103770
7 | 23:03.46 | 4:53.10 | 103771 | 125755
8 | 27:56.56 | 3:46.07 | 125756 | 142712
9 | 31:42.63 | 4:14.03 | 142713 | 161765
10 | 35:56.66 | 1:16.47 | 161766 | 167512
11 | 37:13.38 | 4:42.23 | 167513 | 188685
12 | 41:55.61 | 2:35.48 | 188686 | 200358


Track 1

Filename C:\EAC\01 - The Deer With the Golden Lights.wav

Pre-gap length 0:00:02.00

Peak level 99.2 %
Extraction speed 2.4 X
Track quality 100.0 %
Test CRC 44BA7EA1
Copy CRC 44BA7EA1
Accurately ripped (confidence 5) [8654C485] (AR v2)
Copy OK

Track 2

Filename C:\EAC\02 - Good Enough.wav

Peak level 98.9 %
Extraction speed 3.6 X
Track quality 100.0 %
Test CRC 1717F33D
Copy CRC 1717F33D
Accurately ripped (confidence 4) [3E423D36] (AR v2)
Copy OK

Track 3

Filename C:\EAC\03 - The Pretty Ones.wav

Peak level 99.3 %
Extraction speed 4.2 X
Track quality 100.0 %
Test CRC 4CA46615
Copy CRC 4CA46615
Accurately ripped (confidence 4) [584E6CBA] (AR v2)
Copy OK

Track 4

Filename C:\EAC\04 - I Love My Boyfriend.wav

Pre-gap length 0:00:01.00

Peak level 100.0 %
Extraction speed 4.4 X
Track quality 100.0 %
Test CRC 6CCC984C
Copy CRC 6CCC984C
Accurately ripped (confidence 5) [8DF8C828] (AR v2)
Copy OK

Track 5

Filename C:\EAC\05 - Wasting Time.wav

Peak level 100.0 %
Extraction speed 4.4 X
Track quality 100.0 %
Test CRC 0B4D2E63
Copy CRC 0B4D2E63
Accurately ripped (confidence 5) [4C7CC587] (AR v2)
Copy OK

Track 6

Filename C:\EAC\06 - The Loneliest Girl.wav

Pre-gap length 0:00:02.35

Peak level 100.0 %
Extraction speed 4.8 X
Track quality 100.0 %
Test CRC 342F4EA3
Copy CRC 342F4EA3
Accurately ripped (confidence 4) [A4B42B8E] (AR v2)
Copy OK

Track 7

Filename C:\EAC\07 - I Miss My Man.wav

Pre-gap length 0:00:07.00

Peak level 100.0 %
Extraction speed 4.3 X
Track quality 99.9 %
Test CRC 317797F7
Copy CRC 317797F7
Accurately ripped (confidence 5) [CA9B7BA4] (AR v2)
Copy OK

Track 8

Filename C:\EAC\08 - It's Nothing.wav

Peak level 100.0 %
Extraction speed 4.2 X
Track quality 99.9 %
Test CRC 0EED23FD
Copy CRC 0EED23FD
Accurately ripped (confidence 5) [87475C89] (AR v2)
Copy OK

Track 9

Filename C:\EAC\09 - Respect the Labourers.wav

Pre-gap length 0:00:03.35

Peak level 100.0 %
Extraction speed 5.6 X
Track quality 100.0 %
Test CRC 34132F76
Copy CRC 34132F76
Accurately ripped (confidence 5) [E35F66F8] (AR v2)
Copy OK

Track 10

Filename C:\EAC\10 - Cigarette.wav

Peak level 90.2 %
Extraction speed 4.4 X
Track quality 100.0 %
Test CRC 70D97050
Copy CRC 70D97050
Accurately ripped (confidence 5) [EDEDD2BE] (AR v2)
Copy OK

Track 11

Filename C:\EAC\11 - Growing Older.wav

Peak level 99.5 %
Extraction speed 6.0 X
Track quality 100.0 %
Test CRC BE84052F
Copy CRC BE84052F
Accurately ripped (confidence 5) [1707E2FA] (AR v2)
Copy OK

Track 12

Filename C:\EAC\12 - All I Need to Do.wav

Pre-gap length 0:00:05.00

Peak level 96.2 %
Extraction speed 5.6 X
Track quality 100.0 %
Test CRC 3FB0B187
Copy CRC 3FB0B187
Accurately ripped (confidence 5) [6EC7B622] (AR v2)
Copy OK


All tracks accurately ripped

No errors occurred

End of status report

–– CUETools DB Plugin V2.1.6

[CTDB TOCID: CuXNlDUtUCONMLAx4a0QB_9J1ig-] found
Submit result: CuXNlDUtUCONMLAx4a0QB_9J1ig- has been confirmed
Track | CTDB Status
1 | (4/4) Accurately ripped
2 | (4/4) Accurately ripped
3 | (4/4) Accurately ripped
4 | (4/4) Accurately ripped
5 | (4/4) Accurately ripped
6 | (4/4) Accurately ripped
7 | (4/4) Accurately ripped
8 | (4/4) Accurately ripped
9 | (4/4) Accurately ripped
10 | (4/4) Accurately ripped
11 | (4/4) Accurately ripped
12 | (4/4) Accurately ripped


==== Log checksum 5F89DC680A8E0E78785D223DBF40FBD3C829D3F18191B9748049D1C09B1F3E85 ====

Thanks to the Original ripper foxmawdler !