Subcategories

V.A. - Putumayo Presents Music From Africa (6CD, 1993-2012) [Repost & new]

Posted By: Speedyclick
V.A. - Putumayo Presents Music From Africa (6CD, 1993-2012) [Repost & new]

V.A. - Putumayo Presents Music From Africa (6CD, 1993-2012)
EAC Rip | FLAC (tracks & cue & log) & mp3 @ 320 kbps | tracks: 68 | Covers | 4:37:37 | ~ 1,90 Gb & 737 Mb
Label: Putumayo World Music | 5% recovery record | World, folk

Putumayo celebrates the musical heritage of Africa with collections as rich and versatile as the continent itself. From the great number of albums released since early 90's, enjoy a nice pack of six CD with a variety of African music presented with chronological order: The Best of World Music: African (1993), South African Legends (2000), Acoustic Africa (2006), South Africa (2010), African Beat (2011) and African Blues (2012). More than four and a half hours of wonderful world music in lossless.

V.A. - Putumayo Presents Music From Africa (6CD, 1993-2012) [Repost & new]

V.A. - Putumayo Presents The Best of World Music African (1993)
EAC Rip | FLAC (tracks & cue & log) & mp3 @ 320 kbps | tracks: 13 | Covers | 56:42 | ~ 393 Mb & 135 Mb

An excellent 14-cut anthology offering a fine helping of contemporary African music from the mid-'80s to the early '90s. They have also avoided too many names, with the exception of Johnny Clegg & Juluka, Toure Kunda, Mory Kante and Thomas Mapfumo. The other ten cuts include entertaining Nigerian band Kotoja and South African vocalist extraordinaire Sipho Mabuse, artists who have not recorded with rock stars or gone on highly publicized world tours but have made superior music with little fanfare. It is their inclusion on this project, plus even lesser-known acts like Zaire's Embowassa and Abeti and Tanzania's Orchestra Makassy, that makes this a truly representative sampler rather than just another marketing ploy.
Ron Wynn, CD Universe
TRACKLIST
01. John Chibadura - Zuva Rekufa Kwangu
02. Angelique Kidjo - Batonga
03. Toure Kunda - Santhiaba Silo
04. Embowassa - Tshanga
05. Abeti - Je Suis Fache
06. Pierre Akendengue - Epuguzu
07. Mory Kante - Bankiero
08. Kotoja - Ejiro Oghene
09. Johnny Clegg & Juluka - Umfazi Omdala
10. Thomas Mapfumo - Nyama Yekugocha
11. Orchestre Makassy - Mambo Bado
12. Sipho Mabuse - Jika Jive
13. O' Yaba - Thube

AUDIOCHECKER v2.0 beta (build 457) - by Dester - opdester@freemail.hu
~~~~~~~~~~~~~~~~~~~~~~~~~~~~~~~~~~


Started at: Saturday, 21. 05. 2011. - 20:17.09
13 files found

01 -===- D:\Torrents\Putumayo\The Best of World Music - African (1993)\01. John Chibadura - Zuva Rekufa Kwangu - (The Best of World Music - African).flac
Extracted successfully
Conclusion: this track is MPEG with probability 95%
Tempfile successfully deleted.

02 -===- D:\Torrents\Putumayo\The Best of World Music - African (1993)\02. Angelique Kidjo - Batonga - (The Best of World Music - African).flac
Extracted successfully
Conclusion: this track is CDDA with probability 76%
Tempfile successfully deleted.

03 -===- D:\Torrents\Putumayo\The Best of World Music - African (1993)\03. Toure Kunda - Santhiaba Silo - (The Best of World Music - African).flac
Extracted successfully
Conclusion: this track is CDDA with probability 100%
Tempfile successfully deleted.

04 -===- D:\Torrents\Putumayo\The Best of World Music - African (1993)\04. Embowassa - Tshanga - (The Best of World Music - African).flac
Extracted successfully
Conclusion: this track is CDDA with probability 99%
Tempfile successfully deleted.

05 -===- D:\Torrents\Putumayo\The Best of World Music - African (1993)\05. Abeti - Je Suis Fache - (The Best of World Music - African).flac
Extracted successfully
Conclusion: this track is CDDA with probability 100%
Tempfile successfully deleted.

06 -===- D:\Torrents\Putumayo\The Best of World Music - African (1993)\06. Pierre Akendengue - Epuguzu - (The Best of World Music - African).flac
Extracted successfully
Conclusion: this track is CDDA with probability 99%
Tempfile successfully deleted.

07 -===- D:\Torrents\Putumayo\The Best of World Music - African (1993)\07. Mory Kante - Bankiero - (The Best of World Music - African).flac
Extracted successfully
Conclusion: this track is CDDA with probability 99%
Tempfile successfully deleted.

08 -===- D:\Torrents\Putumayo\The Best of World Music - African (1993)\08. Kotoja - Ejiro Oghene - (The Best of World Music - African).flac
Extracted successfully
Conclusion: this track is CDDA with probability 100%
Tempfile successfully deleted.

09 -===- D:\Torrents\Putumayo\The Best of World Music - African (1993)\09. Johnny Clegg & Juluka - Umfazi Omdala - (The Best of World Music - African).flac
Extracted successfully
Conclusion: this track is CDDA with probability 100%
Tempfile successfully deleted.

10 -===- D:\Torrents\Putumayo\The Best of World Music - African (1993)\10. Thomas Mapfumo - Nyama Yekugocha - (The Best of World Music - African).flac
Extracted successfully
Conclusion: this track is CDDA with probability 100%
Tempfile successfully deleted.

11 -===- D:\Torrents\Putumayo\The Best of World Music - African (1993)\11. Orchestre Makassy - Mambo Bado - (The Best of World Music - African).flac
Extracted successfully
Conclusion: this track is CDDA with probability 100%
Tempfile successfully deleted.

12 -===- D:\Torrents\Putumayo\The Best of World Music - African (1993)\12. Sipho Mabuse - Jika Jive - (The Best of World Music - African).flac
Extracted successfully
Conclusion: this track is CDDA with probability 100%
Tempfile successfully deleted.

13 -===- D:\Torrents\Putumayo\The Best of World Music - African (1993)\13. O' Yaba - Thube - (The Best of World Music - African).flac
Extracted successfully
Conclusion: this track is CDDA with probability 100%
Tempfile successfully deleted.


Finished at: Saturday, 21. 05. 2011. - 20:23.44 (operation time: 0:06.35)

V.A. - Putumayo Presents Music From Africa (6CD, 1993-2012) [Repost & new]

V.A. - Putumayo Presents African Legends (2000)
EAC Rip | FLAC (tracks & cue & log) & mp3 @ 320 kbps | tracks: 10 | Covers | 47:45 | ~ 322 Mb & 112 Mb

A surprisingly comprehensive collection, this album from Putumayo really does cover nearly every South African musical legend that's made a name for themselves (with the only really obvious exceptions being Dorothy Masuka and Dave Matthews, though the latter's music isn't as rooted in African tradition in the first place). The album opens with some nice jive courtesy of the Soul Brothers. The great groaner Mahlathini combines with his favorites the Mahotella Queens for a bouncing, lilting number that shows off his deep, deep delivery. Vusi Mahlasela shows off his guitar style on a newer track, and the Mahotellas return for the classic "Mbube" (which really kicked off the recognition of African music in the Western world). More jive comes from the great West Nkosi, whose saxophone also leads the way into South African jazz in its modern form, as realized by Hugh Masekela in the next track. Lucky Dube evokes Marley and Tosh in his light reggae, and the cross-cultural Johnny Clegg presents a number. The album closes with two of the biggest stars of South Africa – Miriam Makeba and a metaphorical song of exile, and Ladysmith Black Mambazo with their classic iscathamiya sound. Just about every sound that someone may have heard in recent years (or in years past) coming from South Africa is represented here. For a listener curious about the sounds of the country and its strong musical history, this makes for an outstanding introduction. For those already taken with South African music, it will still provide an enjoyable listen, and may even remind you to go look up someone you've forgotten about.
Adam Greenberg, All Music
TRACKLIST
01. Soul Brothers - Idlozi
02. Mahlathini & The Mahotella Queens - Mbaqanga
03. Vusi Mahlasela - Kuyobanjani Na-
04. The Mahotella Queens - Mbube
05. West Nkosi - Mazuzu
06. Hugh Masekela - Chileshe
07. Lucky Dube - My Game
08. Johnny Clegg & Juluka - Gijim 'beke
09. Miriam Makeba - Umhome
10. Ladysmith Black Mambazo - Abantwana Basethempeleni

Exact Audio Copy V0.99 prebeta 5 from 4. May 2009

EAC extraction logfile from 16. October 2009, 17:53

Various / Putumayo Presents: South African Legends

Used drive : SAMSUNG CDRW/DVD SN-324S Adapter: 1 ID: 0

Read mode : Secure
Utilize accurate stream : Yes
Defeat audio cache : Yes
Make use of C2 pointers : No

Read offset correction : 6
Overread into Lead-In and Lead-Out : No
Fill up missing offset samples with silence : Yes
Delete leading and trailing silent blocks : No
Null samples used in CRC calculations : Yes
Used interface : Installed external ASPI interface
Gap handling : Appended to previous track

Used output format : User Defined Encoder
Selected bitrate : 768 kBit/s
Quality : High
Add ID3 tag : No
Command line compressor : C:\Programfiler\Exact Audio Copy\FLAC\FLAC.EXE
Additional command line options : -V -8 -T "artist=%a" -T "title=%t" -T "album=%g" -T "date=%y" -T "tracknumber=%n" -T "genre=%m" %s


TOC of the extracted CD

Track | Start | Length | Start sector | End sector
––––––––––––––––––––––––––––-
1 | 0:00.00 | 4:22.45 | 0 | 19694
2 | 4:22.45 | 4:35.27 | 19695 | 40346
3 | 8:57.72 | 3:21.25 | 40347 | 55446
4 | 12:19.22 | 3:30.03 | 55447 | 71199
5 | 15:49.25 | 4:48.40 | 71200 | 92839
6 | 20:37.65 | 6:18.25 | 92840 | 121214
7 | 26:56.15 | 6:16.67 | 121215 | 149481
8 | 33:13.07 | 3:36.43 | 149482 | 165724
9 | 36:49.50 | 5:08.50 | 165725 | 188874
10 | 41:58.25 | 5:47.42 | 188875 | 214941


Track 1

Filename C:\EAC rips\Putumayo Presents- South African Legends (2000)\01 - Soul Brothers - Idlozi .wav

Pre-gap length 0:00:02.00

Peak level 100.0 %
Track quality 100.0 %
Test CRC 2C66F908
Copy CRC 2C66F908
Cannot be verified as accurate (confidence 7) [58943950], AccurateRip returned [CBAEB5A3]
Copy OK

Track 2

Filename C:\EAC rips\Putumayo Presents- South African Legends (2000)\02 - Mahlathini & The Mahotella Queens - Mbaqanga .wav

Pre-gap length 0:00:01.06

Peak level 96.6 %
Track quality 100.0 %
Test CRC 57B0788F
Copy CRC 57B0788F
Cannot be verified as accurate (confidence 7) [9E7B0547], AccurateRip returned [DC6DD76C]
Copy OK

Track 3

Filename C:\EAC rips\Putumayo Presents- South African Legends (2000)\03 - Vusi Mahlasela - Kuyobanjani Na .wav

Pre-gap length 0:00:01.69

Peak level 100.0 %
Track quality 100.0 %
Test CRC A7508C89
Copy CRC A7508C89
Cannot be verified as accurate (confidence 7) [92C8C966], AccurateRip returned [ABBCD436]
Copy OK

Track 4

Filename C:\EAC rips\Putumayo Presents- South African Legends (2000)\04 - The Mahotella Queens - Mbube .wav

Pre-gap length 0:00:02.16

Peak level 93.3 %
Track quality 100.0 %
Test CRC D618AB2B
Copy CRC D618AB2B
Cannot be verified as accurate (confidence 7) [7CA681B4], AccurateRip returned [8D01E457]
Copy OK

Track 5

Filename C:\EAC rips\Putumayo Presents- South African Legends (2000)\05 - West Nkosi - Mazuzu .wav

Pre-gap length 0:00:01.24

Peak level 100.0 %
Track quality 99.9 %
Test CRC 4328D971
Copy CRC 4328D971
Cannot be verified as accurate (confidence 7) [888B49B1], AccurateRip returned [3D211D6F]
Copy OK

Track 6

Filename C:\EAC rips\Putumayo Presents- South African Legends (2000)\06 - Hugh Masekela - Chileshe .wav

Pre-gap length 0:00:01.84

Peak level 100.0 %
Track quality 100.0 %
Test CRC 1C501B67
Copy CRC 1C501B67
Cannot be verified as accurate (confidence 7) [D6802103], AccurateRip returned [9C3866E7]
Copy OK

Track 7

Filename C:\EAC rips\Putumayo Presents- South African Legends (2000)\07 - Lucky Dube - My Game .wav

Pre-gap length 0:00:01.44

Peak level 100.0 %
Track quality 99.9 %
Test CRC 68A5EBCB
Copy CRC 68A5EBCB
Cannot be verified as accurate (confidence 7) [59AAA69F], AccurateRip returned [A341DCAC]
Copy OK

Track 8

Filename C:\EAC rips\Putumayo Presents- South African Legends (2000)\08 - Johnny Clegg & Juluka - Gijim 'beke .wav

Pre-gap length 0:00:02.06

Peak level 100.0 %
Track quality 99.9 %
Test CRC D683D004
Copy CRC D683D004
Cannot be verified as accurate (confidence 7) [B7946090], AccurateRip returned [8AD73815]
Copy OK

Track 9

Filename C:\EAC rips\Putumayo Presents- South African Legends (2000)\09 - Miriam Makeba - Umhome .wav

Pre-gap length 0:00:02.13

Peak level 100.0 %
Track quality 100.0 %
Test CRC 4CF12BC6
Copy CRC 4CF12BC6
Cannot be verified as accurate (confidence 7) [E76D5BD0], AccurateRip returned [B3C9A387]
Copy OK

Track 10

Filename C:\EAC rips\Putumayo Presents- South African Legends (2000)\10 - Ladysmith Black Mambazo - Abantwana Basethempeleni .wav

Pre-gap length 0:00:01.66

Peak level 100.0 %
Track quality 100.0 %
Test CRC 4D1E9DDD
Copy CRC 4D1E9DDD
Cannot be verified as accurate (confidence 7) [8A9C6E1B], AccurateRip returned [0C27CD2B]
Copy OK


No tracks could be verified as accurate
You may have a different pressing from the one(s) in the database

No errors occurred

End of status report

V.A. - Putumayo Presents Music From Africa (6CD, 1993-2012) [Repost & new]

V.A. - Putumayo Presents Acoustic Africa (2006)
EAC Rip | FLAC (tracks & cue & log) & mp3 @ 320 kbps | tracks: 12 | Covers | 45:14 | ~ 308 Mb & 107 Mb

Every so often, an album comes along that reminds us why we are so moved by song: the melody, the rhythm, and the message. Putumayo has presented a variety of world music CDs, but African music has been the consistent heart and soul of its offerings. Putumayo World Music is pleased to present Acoustic Africa, a captivating collection showcasing some of Africa’s greatest singer-songwriters in beautifully stripped down displays of acoustic mastery. These artists are helping to spearhead an acoustic revolution in stark contrast to the studio-based, synthesized dance music that became the standard for African pop-stars of the 1980’s and 90’s. On Acoustic Africa, you’ll discover gentle folk songs from Senegal, a protest song from South Africa, blues-tinged ballads from Mali and much more. The performers on this album are social activists, building awareness of the current conditions in Africa that affect the region and the world. They sing of love and faith, pain and oppression, and their ability to unite people.

Vusi Mahlasela is an active social commentator who often addresses issues of social and political significance in his homeland. His gripping lyrics and lovely melodies on "Basimanyana" demonstrate why Mahlasela is also a leading figure in the contemporary South African music scene. One of Africa’s most world-renowned performers, Habib Koité has shared the stage with some of the world’s best-known artists. On the track "Baro," Koité’s wistful vocals with swirling rhythms and intertwined harmonies demonstrate his distinctive sound. Koité’s music video for "Wari" is a bonus enhancement on the CD, as well as one of Koité’s best-loved songs. Other artists of note include Diogal Sakho, Laye Sow, Angelique Kidjo, and Eneida Marta.

A portion of Putumayo’s proceeds from the sale of this CD will be donated to Mercy Corps in support of their efforts to help AIDS victims and the victims of the civil war in Darfur.
Putumayo site
TRACKLIST
01. Diogal - Sore
02. Eneida Marta - Mindjer Doce Mel
03. Rajery - Misahotaka Ny Akama
04. Angelique Kidjo - Sedjedo
05. Vusi Mahlasela - Basimanyana
06. Faya Tess & Lokua Kanza - Bana
07. Laye Sow - Mauritania
08. Gabriela Mendes - Tradicao
09. Habib Koite - Baro
10. Dobet Gnahore - Palea
11. Manescas Costa - Antonia
12. Djelimady Tounkara - Fanta Bourama

EAC extraction logfile from 9. May 2007, 6:06 for CD
Putumayo Presents / Acoustic Africa

Used drive : ASUS CRW-4832AX Adapter: 0 ID: 0
Read mode : Secure with NO C2, accurate stream, disable cache
Read offset correction : 6
Overread into Lead-In and Lead-Out : No

Used output format : C:\Program Files\FLAC\flac.exe (User Defined Encoder)
128 kBit/s
Additional command line options : -V -8 -T "artist=%a" -T "title=%t" -T "album=%g" -T "date=%y" -T "tracknumber=%n" -T "genre=%m" %s

Other options :
Fill up missing offset samples with silence : Yes
Delete leading and trailing silent blocks : No
Native Win32 interface for Win NT & 2000


Track 1
Filename C:\Torrent Stuff\01 - Putumayo Presents , Diogal - Sore (Senegal).wav

Pre-gap length 0:00:02.00

Peak level 94.4 %
Track quality 99.9 %
Test CRC EC335644
Copy CRC EC335644
Copy OK

Track 2
Filename C:\Torrent Stuff\02 - Eneida Marta - Mindjer Dτce Mel (Guinea-Bissau).wav

Peak level 94.4 %
Track quality 100.0 %
Test CRC 83219A20
Copy CRC 83219A20
Copy OK

Track 3
Filename C:\Torrent Stuff\03 - Rajery - Misahotaka Ny Akama (Madagascar).wav

Peak level 99.9 %
Track quality 100.0 %
Test CRC CB90989E
Copy CRC CB90989E
Copy OK

Track 4
Filename C:\Torrent Stuff\04 - Angιlique Kidjo - Sedjedo (Benin).wav

Pre-gap length 0:00:00.14

Peak level 99.9 %
Track quality 100.0 %
Test CRC 47E61615
Copy CRC 47E61615
Copy OK

Track 5
Filename C:\Torrent Stuff\05 - Vusi Mahlasela - Basimanyana (South Africa).wav

Pre-gap length 0:00:00.05

Peak level 90.3 %
Track quality 100.0 %
Test CRC 3F1E6951
Copy CRC 3F1E6951
Copy OK

Track 6
Filename C:\Torrent Stuff\06 - Faya Tess & Lokua Kanza - Bana (Congo).wav

Pre-gap length 0:00:00.09

Peak level 94.4 %
Track quality 100.0 %
Test CRC 097EE554
Copy CRC 097EE554
Copy OK

Track 7
Filename C:\Torrent Stuff\07 - Laye Sow - Mauritania (Senegal).wav

Peak level 93.3 %
Track quality 100.0 %
Test CRC EFD6BE72
Copy CRC EFD6BE72
Copy OK

Track 8
Filename C:\Torrent Stuff\08 - Gabriela Mendes - Tradiηao (Cape Verde).wav

Pre-gap length 0:00:01.05

Peak level 92.2 %
Track quality 100.0 %
Test CRC 9C4697B9
Copy CRC 9C4697B9
Copy OK

Track 9
Filename C:\Torrent Stuff\09 - Habib Koitι - Baro (Mali).wav

Pre-gap length 0:00:00.70

Peak level 94.4 %
Track quality 100.0 %
Test CRC 6FB121ED
Copy CRC 6FB121ED
Copy OK

Track 10
Filename C:\Torrent Stuff\10 - Dobet Gnahorι - Palea (Ivory Coast).wav

Peak level 100.0 %
Track quality 100.0 %
Test CRC B7D1E19F
Copy CRC B7D1E19F
Copy OK

Track 11
Filename C:\Torrent Stuff\11 - Manescas Costa - Antonia (Guinea-Bissau).wav

Pre-gap length 0:00:00.88

Peak level 99.9 %
Track quality 100.0 %
Test CRC E66B4DCF
Copy CRC E66B4DCF
Copy OK

Track 12
Filename C:\Torrent Stuff\12 - Djιlimady Tounkara - Fanta Bourama (Mali).wav

Peak level 99.5 %
Track quality 100.0 %
Test CRC 5A6F1B45
Copy CRC 5A6F1B45
Copy OK

No errors occured


End of status report

V.A. - Putumayo Presents Music From Africa (6CD, 1993-2012) [Repost & new]

V.A. - Putumayo Presents South Africa (2010)
XLD Rip | FLAC (tracks & cue & log) & mp3 @ 320 kbps | tracks: 12 | Covers | 43:39 | ~ 292 Mb & 105 Mb

It's so easy to underestimate these Putumayo compilations. They have that little hint of smugness about them, that whiff of Starbucks multiculturalism – the kind that suggests you're a slightly bad person if you fail to buy. You see the faux-naïve cover art, the simplistic representations of other cultures, the faintly imperialist "Putumayo Presents" album title, and you think "This collection is going to consist of nothing but touristy ethno-pop." But then, as often as not, you end up surprised. Putumayo Presents: South Africa is one of the best entries in this long series of compilations. Yes, there are some familiar names: Miriam Makeba is here (singing something other than "Pata Pata," to the compilers' credit) and so are mbaqanga pioneers the Soul Brothers. But there are also fine contributions from the up-and-coming Swaziland crooner Bholoja (whose "Mbombela" is a lovely example of the emerging "Swazi soul" sound), anti-apartheid folksinger Johannes Kerkorrel, soul-reggae artist Zoro, and rapper/beatboxer Blk Sonshine. Inevitably, there are some clunkers: Nibs van der Spuy's "Beautiful Feet" is anemic acoustic reggae, and Steve Dyer's "Mananga" is pleasant but boring three-chord jazz. The album's 44-minute length also feels skimpy, and in a few cases seems to have been achieved by premature fadeouts (why give us only 2:40 of Makeba singing the wonderful "Orlando"?). But overall, this album is much more triumph than failure.
Rick Anderson, All Music

Putumayo's "South Africa" celebrates the recent FIFA World Cup in Johannesburg, and a musically rich country. It's a spicy and delicious compilation, blending Afropop with jazz and acoustic guitar. There's something for everyone. A portion of the profits goes to ANSA (Artists for a New South Africa) combating HIV/AIDS through the arts, as well as for human rights. To top off it, there's a recipe for vegetarian bobotie,a traditional South African casserole that combines lentils with chutney and a creamy top.

"South Africa" opens with the powerful "Ujaheni" from the Soul Brothers. Bhojola sings in the traditional language of Swaziland. Mahube's "Oxam" is about a fraudulent healer;considering the seriousness of the material, it's a joyous song. Nibs Van Der Spuy's "Beautiful Feet" is gentle acoustic folk. Steve Dyer's "Mananga" is beautiful township jazz. The late Miriam Makeba, who passed away in 2008 after a concert (Homeland), has the jazzy "Orlando" (it's about a Soweto township, NOT Lovin' Bloom: The Unauthorized Story of Orlando Bloom) Johannes Kerkorrel, the flamboyant, openly gay Afrikaan singer who challenged apartheid and tragically committed suicide in 2002, profiles African history in the bittersweet "Halala Africa." The album closes with the Soweto Gospel Choir's "Ngahlulele." Of course, the Soweto Gospel Choir recently gained international fame thanks to the bestselling Songs Around The World (CD + DVD).

"South Africa" is a beautiful musical trip to the Rainbow Nation!
Amazon customer
TRACKLIST
01. Soul Brothers - Ujaheni
02. Bholoja - Mbombela
03. Mahube - Oxam
04. Blk Sonshine - Nkosi
05. Nibs van der Spuy - Beautiful Feet
06. Steve Dyer - Mananga
07. Miriam Makeba - Orlando
08. Phinda - Tiki Tiki
09. Johannes Kerkorrel - Halala Afrika
10. Zoro - Work
11. Kaya - Vulamasango
12. Soweto Gospel Choir - Ngahlulele

X Lossless Decoder version 20100926 (123.1)

XLD extraction logfile from 2010-10-07 13:20:47 -0400

Various / South Africa

Used drive : HL-DT-ST DVDRAM GE20LU10 (revision FE05)

Use cdparanoia mode : YES (CDParanoia III 10.2 engine)
Disable audio cache : OK for the drive with cache less than 2750KB
Make use of C2 pointers : NO
Read offset correction : 667
Max retry count : 100
Gap status : Analyzed, Appended

TOC of the extracted CD
Track | Start | Length | Start sector | End sector
––––––––––––––––––––––––––––-
1 | 00:00:00 | 03:25:40 | 0 | 15414
2 | 03:25:40 | 05:13:13 | 15415 | 38902
3 | 08:38:53 | 03:30:58 | 38903 | 54710
4 | 12:09:36 | 03:29:11 | 54711 | 70396
5 | 15:38:47 | 03:40:42 | 70397 | 86938
6 | 19:19:14 | 03:42:70 | 86939 | 103658
7 | 23:02:09 | 02:45:62 | 103659 | 116095
8 | 25:47:71 | 03:36:59 | 116096 | 132354
9 | 29:24:55 | 03:18:36 | 132355 | 147240
10 | 32:43:16 | 04:47:32 | 147241 | 168797
11 | 37:30:48 | 03:14:60 | 168798 | 183407
12 | 40:45:33 | 02:53:58 | 183408 | 196440


All Tracks
Album gain : -5.40 dB
Peak : 0.977875

Track 01
Filename : /Volumes/big 1/FLAC/Putumayo - South Africa/01 - Soul Brothers.flac
/Volumes/big 1/FLAC/Putumayo - South Africa/01 - Soul Brothers.mp3
Pre-gap length : 00:02:00

Track gain : -5.79 dB
Peak : 0.871674
CRC32 hash (test run) : 81DB28DB
CRC32 hash : 81DB28DB
CRC32 hash (skip zero) : DA847014
AccurateRip signature : 757108A9
->Accurately ripped! (confidence 11)
Statistics
Read error : 0
Skipped (treated as error) : 0
Edge jitter error (maybe fixed) : 0
Atom jitter error (maybe fixed) : 0
Drift error (maybe fixed) : 0
Dropped bytes error (maybe fixed) : 0
Duplicated bytes error (maybe fixed) : 0
Inconsistency in error sectors : 0

Track 02
Filename : /Volumes/big 1/FLAC/Putumayo - South Africa/02 - Bholoja.flac
/Volumes/big 1/FLAC/Putumayo - South Africa/02 - Bholoja.mp3

Track gain : -2.80 dB
Peak : 0.977875
CRC32 hash (test run) : D3DA7E3D
CRC32 hash : D3DA7E3D
CRC32 hash (skip zero) : 47E84160
AccurateRip signature : A7EDCE1E
->Accurately ripped! (confidence 11)
Statistics
Read error : 0
Skipped (treated as error) : 0
Edge jitter error (maybe fixed) : 0
Atom jitter error (maybe fixed) : 0
Drift error (maybe fixed) : 0
Dropped bytes error (maybe fixed) : 0
Duplicated bytes error (maybe fixed) : 0
Inconsistency in error sectors : 0

Track 03
Filename : /Volumes/big 1/FLAC/Putumayo - South Africa/03 - Mahube.flac
/Volumes/big 1/FLAC/Putumayo - South Africa/03 - Mahube.mp3
Pre-gap length : 00:01:57

Track gain : -3.97 dB
Peak : 0.847992
CRC32 hash (test run) : D1BCE18D
CRC32 hash : D1BCE18D
CRC32 hash (skip zero) : DEDA1646
AccurateRip signature : 894AB013
->Accurately ripped! (confidence 11)
Statistics
Read error : 0
Skipped (treated as error) : 0
Edge jitter error (maybe fixed) : 0
Atom jitter error (maybe fixed) : 0
Drift error (maybe fixed) : 0
Dropped bytes error (maybe fixed) : 0
Duplicated bytes error (maybe fixed) : 0
Inconsistency in error sectors : 0

Track 04
Filename : /Volumes/big 1/FLAC/Putumayo - South Africa/04 - Blk Sonshine.flac
/Volumes/big 1/FLAC/Putumayo - South Africa/04 - Blk Sonshine.mp3
Pre-gap length : 00:02:22

Track gain : -3.38 dB
Peak : 0.977631
CRC32 hash (test run) : 3C92206D
CRC32 hash : 3C92206D
CRC32 hash (skip zero) : 7CAB6208
AccurateRip signature : DE6F4BC3
->Accurately ripped! (confidence 11)
Statistics
Read error : 0
Skipped (treated as error) : 0
Edge jitter error (maybe fixed) : 0
Atom jitter error (maybe fixed) : 0
Drift error (maybe fixed) : 0
Dropped bytes error (maybe fixed) : 0
Duplicated bytes error (maybe fixed) : 0
Inconsistency in error sectors : 0

Track 05
Filename : /Volumes/big 1/FLAC/Putumayo - South Africa/05 - Nibs van der Spuy.flac
/Volumes/big 1/FLAC/Putumayo - South Africa/05 - Nibs van der Spuy.mp3
Pre-gap length : 00:00:14

Track gain : -4.86 dB
Peak : 0.638885
CRC32 hash (test run) : 8C81BADD
CRC32 hash : 8C81BADD
CRC32 hash (skip zero) : 4803C594
AccurateRip signature : 65AB064D
->Accurately ripped! (confidence 11)
Statistics
Read error : 0
Skipped (treated as error) : 0
Edge jitter error (maybe fixed) : 0
Atom jitter error (maybe fixed) : 0
Drift error (maybe fixed) : 0
Dropped bytes error (maybe fixed) : 0
Duplicated bytes error (maybe fixed) : 0
Inconsistency in error sectors : 0

Track 06
Filename : /Volumes/big 1/FLAC/Putumayo - South Africa/06 - Steve Dyer.flac
/Volumes/big 1/FLAC/Putumayo - South Africa/06 - Steve Dyer.mp3
Pre-gap length : 00:02:06

Track gain : -4.78 dB
Peak : 0.977234
CRC32 hash (test run) : 4CFDD62B
CRC32 hash : 4CFDD62B
CRC32 hash (skip zero) : 63B7C741
AccurateRip signature : B08A50B7
->Accurately ripped! (confidence 11)
Statistics
Read error : 0
Skipped (treated as error) : 0
Edge jitter error (maybe fixed) : 0
Atom jitter error (maybe fixed) : 0
Drift error (maybe fixed) : 0
Dropped bytes error (maybe fixed) : 0
Duplicated bytes error (maybe fixed) : 0
Inconsistency in error sectors : 0

Track 07
Filename : /Volumes/big 1/FLAC/Putumayo - South Africa/07 - Miriam Makeba.flac
/Volumes/big 1/FLAC/Putumayo - South Africa/07 - Miriam Makeba.mp3
Pre-gap length : 00:01:72

Track gain : -6.65 dB
Peak : 0.754578
CRC32 hash (test run) : F263CB53
CRC32 hash : F263CB53
CRC32 hash (skip zero) : 2793EA49
AccurateRip signature : 565BCAC1
->Accurately ripped! (confidence 11)
Statistics
Read error : 0
Skipped (treated as error) : 0
Edge jitter error (maybe fixed) : 0
Atom jitter error (maybe fixed) : 0
Drift error (maybe fixed) : 0
Dropped bytes error (maybe fixed) : 0
Duplicated bytes error (maybe fixed) : 0
Inconsistency in error sectors : 0

Track 08
Filename : /Volumes/big 1/FLAC/Putumayo - South Africa/08 - Phinda.flac
/Volumes/big 1/FLAC/Putumayo - South Africa/08 - Phinda.mp3
Pre-gap length : 00:01:02

Track gain : -4.90 dB
Peak : 0.944244
CRC32 hash (test run) : 5C14685A
CRC32 hash : 5C14685A
CRC32 hash (skip zero) : BA84F951
AccurateRip signature : BC98CE03
->Accurately ripped! (confidence 11)
Statistics
Read error : 0
Skipped (treated as error) : 0
Edge jitter error (maybe fixed) : 0
Atom jitter error (maybe fixed) : 0
Drift error (maybe fixed) : 0
Dropped bytes error (maybe fixed) : 0
Duplicated bytes error (maybe fixed) : 0
Inconsistency in error sectors : 0

Track 09
Filename : /Volumes/big 1/FLAC/Putumayo - South Africa/09 - Johannes Kerkorrel.flac
/Volumes/big 1/FLAC/Putumayo - South Africa/09 - Johannes Kerkorrel.mp3
Pre-gap length : 00:01:43

Track gain : -5.40 dB
Peak : 0.776337
CRC32 hash (test run) : 74484E85
CRC32 hash : 74484E85
CRC32 hash (skip zero) : 9C5E50EA
AccurateRip signature : 035F0A75
->Accurately ripped! (confidence 11)
Statistics
Read error : 0
Skipped (treated as error) : 0
Edge jitter error (maybe fixed) : 0
Atom jitter error (maybe fixed) : 0
Drift error (maybe fixed) : 0
Dropped bytes error (maybe fixed) : 0
Duplicated bytes error (maybe fixed) : 0
Inconsistency in error sectors : 0

Track 10
Filename : /Volumes/big 1/FLAC/Putumayo - South Africa/10 - Zoro.flac
/Volumes/big 1/FLAC/Putumayo - South Africa/10 - Zoro.mp3
Pre-gap length : 00:02:28

Track gain : -5.88 dB
Peak : 0.750488
CRC32 hash (test run) : 59544828
CRC32 hash : 59544828
CRC32 hash (skip zero) : BCEF0246
AccurateRip signature : A744B5DE
->Accurately ripped! (confidence 11)
Statistics
Read error : 0
Skipped (treated as error) : 0
Edge jitter error (maybe fixed) : 0
Atom jitter error (maybe fixed) : 0
Drift error (maybe fixed) : 0
Dropped bytes error (maybe fixed) : 0
Duplicated bytes error (maybe fixed) : 0
Inconsistency in error sectors : 0

Track 11
Filename : /Volumes/big 1/FLAC/Putumayo - South Africa/11 - Kaya.flac
/Volumes/big 1/FLAC/Putumayo - South Africa/11 - Kaya.mp3
Pre-gap length : 00:02:43

Track gain : -6.30 dB
Peak : 0.902008
CRC32 hash (test run) : 1D4E50E0
CRC32 hash : 1D4E50E0
CRC32 hash (skip zero) : 6552DDFB
AccurateRip signature : 50D9E50D
->Accurately ripped! (confidence 11)
Statistics
Read error : 0
Skipped (treated as error) : 0
Edge jitter error (maybe fixed) : 0
Atom jitter error (maybe fixed) : 0
Drift error (maybe fixed) : 0
Dropped bytes error (maybe fixed) : 0
Duplicated bytes error (maybe fixed) : 0
Inconsistency in error sectors : 0

Track 12
Filename : /Volumes/big 1/FLAC/Putumayo - South Africa/12 - Soweto Gospel Choir.flac
/Volumes/big 1/FLAC/Putumayo - South Africa/12 - Soweto Gospel Choir.mp3
Pre-gap length : 00:01:54

Track gain : -5.96 dB
Peak : 0.768524
CRC32 hash (test run) : AAD8C093
CRC32 hash : AAD8C093
CRC32 hash (skip zero) : 3AADB1AE
AccurateRip signature : 85F1A9D2
->Accurately ripped! (confidence 11)
Statistics
Read error : 0
Skipped (treated as error) : 0
Edge jitter error (maybe fixed) : 0
Atom jitter error (maybe fixed) : 0
Drift error (maybe fixed) : 0
Dropped bytes error (maybe fixed) : 0
Duplicated bytes error (maybe fixed) : 0
Inconsistency in error sectors : 0

No errors occurred

End of status report

V.A. - Putumayo Presents Music From Africa (6CD, 1993-2012) [Repost & new]

V.A. - Putumayo Presents African Beat (2011)
EAC Rip | FLAC (tracks & cue & log) & mp3 @ 320 kbps | tracks: 11 | Full Scans | 42:26 | ~ 326 Mb & 135 Mb

Re-release featuring 3 new tracks. African beats and Western rhythms unite on these contemporary tunes from Cape Town to Bamako. On African Beat, Putumayo features artists who are as likely to have traditional African drumming, soukous and mbaqanga on their iPods as they are the latest European dubstep and US hip-hop. These tracks reveal that even in this globalized, hi-tech world, the divide between the past and the future is not as great as it may seem. Songs by musicians with deep connections to their roots, including Les Barons, are remixed and reworked by Western DJs. The music of Senegal's Lëk Sèn reveals how hip-hop, electronica and other urban musical styles have been incorporated into traditional African music, taking it in surprising new directions.
Putumayo site

I own several music CDs from Putamayo and have always been very pleased with them. They have a knack of creating excellent music compilations. African Beat is no exception. This is a compilation of songs from Western Africa including the countries of South Africa, Senegal, Nigeria, Mali, Ivory Coast, and both Congos. Listening to this CD one can hear the traditional music fused with modern instruments, rhythms, and techniques as well as some influences from other continents.

For example the third track - Alapomeji Anthem by 9ice - fuses a traditional Asian rhythm with hop hip and rap beats to create a very modern sound. The Asian rhythm does take over the song a bit too much and I wish the vocals were more in the foreground. The song has a familiar sound but yet remains fresh. This is a song I would expect to hear my teenage daughter listening to. Kalan Nege, the fourth track, also has some Asian influence, but it is handled better than in Alapomeji Anthem by keeping it in the background. Sometimes a little bit goes a long way. Another influence in some of the songs is Reggae. Reggae is very popular in Africa so it isn't surprising to find a song on this CD with a reggae influence. Track 8 titled Africa is that song. Without the reggae beat this song would be a more traditional song. The last track, Wosoubour (Chris Annibell Remix) by Vieux Farka Toure, immediately reminded me of Stevie Wonder's Higher Ground. The opening of this song is very similar to Higher Ground and then blends with a reggae styled beat. There are more traditionally styled songs like Quel Est Mon Pays? and Mogoya on this CD.

To get a feel for the modern and diverse music of Africa, I would certainly recommend this CD from Putumayo to begin discovering some new artists.
Amazon customer
TRACKLIST
01. Busi Mhlongo - Yehlisan' Umoya Ma-Afrika
02. Lek Sen - Rebel Blues
03. 9Ice - Alapomeji Anthem
04. Issa Bagayogo - Kalan Nege
05. Fredy Massamba - Zonza
06. Yode & Siro - Quel est Mon Pays
07. Donso - Mogoya
08. Adama Yolamba - Africa
09. Afro-Fiesta - Baweli
10. Vieux farka Toure - Wosoubour
11. Les Barons - Lagos Sound System

Exact Audio Copy V0.99 prebeta 5 from 4. May 2009

EAC extraction logfile from 11. November 2011, 17:20

Various Artists / African Beat

Used drive : Optiarc DVD RW AD-7700H Adapter: 0 ID: 1

Read mode : Secure
Utilize accurate stream : Yes
Defeat audio cache : Yes
Make use of C2 pointers : No

Read offset correction : 48
Overread into Lead-In and Lead-Out : No
Fill up missing offset samples with silence : Yes
Delete leading and trailing silent blocks : No
Null samples used in CRC calculations : Yes
Used interface : Native Win32 interface for Win NT & 2000
Gap handling : Appended to previous track

Used output format : User Defined Encoder
Selected bitrate : 32 kBit/s
Quality : High
Add ID3 tag : No
Command line compressor : C:\Program Files (x86)\Exact Audio Copy\FLAC\FLAC.EXE
Additional command line options : -8 -V -T "ARTIST=%a" -T "TITLE=%t" -T "ALBUM=%g" -T "DATE=%y" -T "TRACKNUMBER=%n" -T "GENRE=%m" -T "COMMENT=EAC FLAC -8" %s


TOC of the extracted CD

Track | Start | Length | Start sector | End sector
––––––––––––––––––––––––––––-
1 | 0:00.00 | 3:24.07 | 0 | 15306
2 | 3:24.07 | 2:53.19 | 15307 | 28300
3 | 6:17.26 | 5:09.20 | 28301 | 51495
4 | 11:26.46 | 4:06.27 | 51496 | 69972
5 | 15:32.73 | 3:13.19 | 69973 | 84466
6 | 18:46.17 | 4:26.46 | 84467 | 104462
7 | 23:12.63 | 3:16.08 | 104463 | 119170
8 | 26:28.71 | 4:08.12 | 119171 | 137782
9 | 30:37.08 | 4:26.21 | 137783 | 157753
10 | 35:03.29 | 3:10.05 | 157754 | 172008
11 | 38:13.34 | 4:12.50 | 172009 | 190958


Track 1

Filename C:\Users\sony\Music\Rutracker_Seeds\01 - Yehlisan' Umoya Ma-Afrika (Busi Mhlongo).wav

Pre-gap length 0:00:02.00

Peak level 99.9 %
Track quality 100.0 %
Test CRC EF4B7626
Copy CRC EF4B7626
Cannot be verified as accurate (confidence 1) [2E854F40], AccurateRip returned [152B893F]
Copy OK

Track 2

Filename C:\Users\sony\Music\Rutracker_Seeds\02 - Rebel Blues (Lek Sen).wav

Pre-gap length 0:00:00.56

Peak level 86.6 %
Track quality 100.0 %
Test CRC DF73603B
Copy CRC DF73603B
Cannot be verified as accurate (confidence 1) [C18648DD], AccurateRip returned [8C879356]
Copy OK

Track 3

Filename C:\Users\sony\Music\Rutracker_Seeds\03 - Alapomeji Anthem (9Ice).wav

Pre-gap length 0:00:01.09

Peak level 61.7 %
Track quality 100.0 %
Test CRC 5CEA32A7
Copy CRC 5CEA32A7
Cannot be verified as accurate (confidence 1) [634A9DB7], AccurateRip returned [9DE78A9E]
Copy OK

Track 4

Filename C:\Users\sony\Music\Rutracker_Seeds\04 - Kalan Nege (Issa Bagayogo).wav

Pre-gap length 0:00:01.02

Peak level 90.2 %
Track quality 99.9 %
Test CRC 7676E156
Copy CRC 7676E156
Cannot be verified as accurate (confidence 1) [58942D96], AccurateRip returned [AEFAE87D]
Copy OK

Track 5

Filename C:\Users\sony\Music\Rutracker_Seeds\05 - Zonza (Fredy Massamba).wav

Pre-gap length 0:00:01.06

Peak level 97.7 %
Track quality 99.9 %
Test CRC AA283E8A
Copy CRC AA283E8A
Track not present in AccurateRip database
Copy OK

Track 6

Filename C:\Users\sony\Music\Rutracker_Seeds\06 - Quel est Mon Pays (Yode & Siro).wav

Pre-gap length 0:00:02.16

Peak level 60.3 %
Track quality 99.9 %
Test CRC 20154557
Copy CRC 20154557
Cannot be verified as accurate (confidence 1) [A9AF2DA8], AccurateRip returned [86D89EA7]
Copy OK

Track 7

Filename C:\Users\sony\Music\Rutracker_Seeds\07 - Mogoya (Donso).wav

Pre-gap length 0:00:02.01

Peak level 84.1 %
Track quality 100.0 %
Test CRC F358BEBD
Copy CRC F358BEBD
Cannot be verified as accurate (confidence 1) [0774514B], AccurateRip returned [2E5BFEC5]
Copy OK

Track 8

Filename C:\Users\sony\Music\Rutracker_Seeds\08 - Africa (Adama Yolamba).wav

Pre-gap length 0:00:01.69

Peak level 83.1 %
Track quality 100.0 %
Test CRC 5D85F0A3
Copy CRC 5D85F0A3
Cannot be verified as accurate (confidence 1) [D9B96C63], AccurateRip returned [D2EFB5AA]
Copy OK

Track 9

Filename C:\Users\sony\Music\Rutracker_Seeds\09 - Baweli (Afro-Fiesta).wav

Pre-gap length 0:00:01.11

Peak level 90.5 %
Track quality 99.9 %
Test CRC 73A87E8D
Copy CRC 73A87E8D
Cannot be verified as accurate (confidence 1) [C41D677A], AccurateRip returned [4EC17A1B]
Copy OK

Track 10

Filename C:\Users\sony\Music\Rutracker_Seeds\10 - Wosoubour (Vieux farka Toure).wav

Pre-gap length 0:00:01.06

Peak level 88.3 %
Track quality 100.0 %
Test CRC 6507DDE2
Copy CRC 6507DDE2
Track not present in AccurateRip database
Copy OK

Track 11

Filename C:\Users\sony\Music\Rutracker_Seeds\11 - Lagos Sound System (Les Barons).wav

Pre-gap length 0:00:02.03

Peak level 97.7 %
Track quality 100.0 %
Test CRC 2BCBE390
Copy CRC 2BCBE390
Cannot be verified as accurate (confidence 1) [BB8E6202], AccurateRip returned [7BDD112E]
Copy OK


9 track(s) could not be verified as accurate
2 track(s) not present in the AccurateRip database

No tracks could be verified as accurate
You may have a different pressing from the one(s) in the database

No errors occurred

End of status report

V.A. - Putumayo Presents Music From Africa (6CD, 1993-2012) [Repost & new]

V.A. - Putumayo Presents African Blues (2012)
EAC Rip | FLAC (tracks & cue & log) & mp3 @ 320 kbps | tracks: 10 | Full Scans | 41:51 | ~ 300 Mb & 143 Mb

Powerful African voices and rhythms demonstrate the deep connection of the blues to its African roots. The blues has long been about storytelling, about raising a voice from the margins and edges of American life. As it spread from the Deep South to Chicago and beyond, the blues incorporated a powerful musical groove which has influenced music around the world. Now, musicians are reaching across the Atlantic and finding that they have a common story to tell in shades of blue.
Putumayo’s African Blues chronicles the return of the blues to its African motherland. It also demonstrates the burgeoning connections between West and East African musicians and performers from the blues’ traditional heartland in the U.S., as well as converts in Europe—and shows how these connections are revolutionizing traditions on both continents.
Taj Mahal, together with the Culture Musical Club of Zanzibar, gets down and deep in a slow-burning meditation on the beauties of Dhow Countries. Mali’s Issa Babayogo brings his characteristic, sparkling knack for gritty, melodic grooves. The ever-evolving Playing for Change band—this time featuring hip desert rockers Tinariwen and Keb Mo—reveals how globally malleable a good old 12-bar blues can be. And as always, the collection is filled with engaging new discoveries like hard-hitting Tuareg singer-songwriter Amar Sundy, unfolding and grooving collaborations like the Belgian-Malian project Kalaban Coura and the unexpected blend of Mali Latino.
“It’s like two halves of a circle,” muses Putumayo head Dan Storper, a passionate collector of music from around the world. “The blues’ roots are in Africa but emerged and evolved as a powerful musical style in America. Now they’re reuniting in new and exciting ways. When we worked on Mali to Memphis, we recognized the powerful connection between the bluesy music of West Africa and the Mississippi Delta,” explains Dan “That began my search for American and African blues and blues-influenced music and led to a series of successful CDs including Mississippi Blues, American Blues and Blues Around the World.”
Storper, a blues fan who lives in New Orleans and his staff found a growing number of collaborative projects based on close musical friendships British guitarist Ramon Goose teamed up with kora (West African bridge-harp) whiz Diabel Cissokho (“Totoumo”), while respected Latin keyboard player and producer Alex Wilson found the sweet spot where Afro-Latin beats and roaring organ lines jive with kora, percussion, and other sounds from West Africa (Mali Latino’s “Ni Koh Bedy”).
Putumayo site
TRACKLIST
01. Mali Latino - Ni Koh Bedy
02. Adama Yalomba - Djamakoyo
03. Diabel Cissokho & Ramon Goose - Totoumo
04. Amar Sundy - Camel Shuffle
05. Issa Bagayogo - Djigui
06. Taj Mahal Meets the Culture Musical Club of Zanzibar - Dhow Countries
07. Kalaban Coura - Mali
08. Koudede - Alam'i
09. Playing For Change featuring Tinariwen - Groove in G
10. Muntu Valdo - Timba

Exact Audio Copy V1.0 beta 3 from 29. August 2011

EAC extraction logfile from 9. January 2013, 22:06

Various Artists / Putumayo Presents African Blues

Used drive : Optiarc DVD RW AD-7700H Adapter: 0 ID: 1

Read mode : Secure
Utilize accurate stream : Yes
Defeat audio cache : Yes
Make use of C2 pointers : No

Read offset correction : 48
Overread into Lead-In and Lead-Out : No
Fill up missing offset samples with silence : Yes
Delete leading and trailing silent blocks : No
Null samples used in CRC calculations : Yes
Used interface : Native Win32 interface for Win NT & 2000
Gap handling : Appended to previous track

Used output format : User Defined Encoder
Selected bitrate : 32 kBit/s
Quality : High
Add ID3 tag : No
Command line compressor : C:\Program Files (x86)\Exact Audio Copy\Flac\flac.exe
Additional command line options : -8 -V -T "ARTIST=%artist%" -T "TITLE=%title%" -T "ALBUM=%albumtitle%" -T "DATE=%year%" -T "TRACKNUMBER=%tracknr%" -T "GENRE=%genre%" -T "COMMENT=%comment%" -T "BAND=%albuminterpret%" -T "COMPOSER=%composer%" %haslyrics%–tag-from-file=LYRICS="%lyricsfile%"%haslyrics% -T "DISCNUMBER=%cdnumber%" -T "TOTALDISCS=%totalcds%" -T "TOTALTRACKS=%numtracks%" %hascover%–picture="%coverfile%"%hascover% %source% -o %dest%


TOC of the extracted CD

Track | Start | Length | Start sector | End sector
––––––––––––––––––––––––––––-
1 | 0:00.00 | 3:34.51 | 0 | 16100
2 | 3:34.51 | 4:26.39 | 16101 | 36089
3 | 8:01.15 | 4:18.25 | 36090 | 55464
4 | 12:19.40 | 2:51.59 | 55465 | 68348
5 | 15:11.24 | 3:26.63 | 68349 | 83861
6 | 18:38.12 | 7:47.56 | 83862 | 118942
7 | 26:25.68 | 5:25.70 | 118943 | 143387
8 | 31:51.63 | 2:21.42 | 143388 | 154004
9 | 34:13.30 | 4:27.00 | 154005 | 174029
10 | 38:40.30 | 3:11.28 | 174030 | 188382


Track 1

Filename C:\Users\sony\Music\Rutracker_Seeds\01 - Ni Koh Bedy (Mali Latino).wav

Pre-gap length 0:00:02.00

Peak level 92.1 %
Extraction speed 1.1 X
Track quality 100.0 %
Test CRC 6202AA01
Copy CRC 6202AA01
Track not present in AccurateRip database
Copy OK

Track 2

Filename C:\Users\sony\Music\Rutracker_Seeds\02 - Djamakoyo (Adama Yalomba).wav

Pre-gap length 0:00:00.15

Peak level 87.1 %
Extraction speed 1.2 X
Track quality 100.0 %
Test CRC A6E8EFB7
Copy CRC A6E8EFB7
Track not present in AccurateRip database
Copy OK

Track 3

Filename C:\Users\sony\Music\Rutracker_Seeds\03 - Totoumo (Diabel Cissokho & Ramon Goose).wav

Pre-gap length 0:00:01.52

Peak level 68.4 %
Extraction speed 1.4 X
Track quality 100.0 %
Test CRC 4D654F7B
Copy CRC 4D654F7B
Track not present in AccurateRip database
Copy OK

Track 4

Filename C:\Users\sony\Music\Rutracker_Seeds\04 - Camel Shuffle (Amar Sundy).wav

Pre-gap length 0:00:02.23

Peak level 55.6 %
Extraction speed 1.4 X
Track quality 100.0 %
Test CRC B09E1544
Copy CRC B09E1544
Track not present in AccurateRip database
Copy OK

Track 5

Filename C:\Users\sony\Music\Rutracker_Seeds\05 - Djigui (Issa Bagayogo).wav

Pre-gap length 0:00:01.64

Peak level 97.7 %
Extraction speed 1.3 X
Track quality 99.9 %
Test CRC 44D88685
Copy CRC 44D88685
Track not present in AccurateRip database
Copy OK

Track 6

Filename C:\Users\sony\Music\Rutracker_Seeds\06 - Dhow Countries (Taj Mahal Meets the Culture Musical Club of Zanzibar).wav

Pre-gap length 0:00:02.32

Peak level 81.2 %
Extraction speed 1.7 X
Track quality 99.9 %
Test CRC 71292F2F
Copy CRC 71292F2F
Track not present in AccurateRip database
Copy OK

Track 7

Filename C:\Users\sony\Music\Rutracker_Seeds\07 - Mali (Kalaban Coura).wav

Pre-gap length 0:00:01.67

Peak level 77.6 %
Extraction speed 1.9 X
Track quality 100.0 %
Test CRC 91ED6F14
Copy CRC 91ED6F14
Track not present in AccurateRip database
Copy OK

Track 8

Filename C:\Users\sony\Music\Rutracker_Seeds\08 - Alam'i (Koudede).wav

Pre-gap length 0:00:00.36

Peak level 77.3 %
Extraction speed 1.7 X
Track quality 100.0 %
Test CRC 17125C84
Copy CRC 17125C84
Track not present in AccurateRip database
Copy OK

Track 9

Filename C:\Users\sony\Music\Rutracker_Seeds\09 - Groove in G (Playing For Change featuring Tinariwen).wav

Pre-gap length 0:00:02.17

Peak level 78.5 %
Extraction speed 2.0 X
Track quality 100.0 %
Test CRC 08420D3A
Copy CRC 08420D3A
Track not present in AccurateRip database
Copy OK

Track 10

Filename C:\Users\sony\Music\Rutracker_Seeds\10 - Timba (Muntu Valdo).wav

Pre-gap length 0:00:02.01

Peak level 59.0 %
Extraction speed 2.0 X
Track quality 100.0 %
Test CRC 229AC6FF
Copy CRC 229AC6FF
Track not present in AccurateRip database
Copy OK


None of the tracks are present in the AccurateRip database

No errors occurred

End of status report

==== Log checksum 3F039BB1CBDBC202DCE8DCBA8675510397C4D467B93ACF760023D504D6017A74 ====

Many thanks and all credits to the initial rippers / uploaders of these albums
Quality lossless (Flac)
Download FilePost: Best | Legends | Acoustic
Download FilePost: South | Beat | Blues
Download Uploaded: Best | Legends | Acoustic
Download Uploaded: South | Beat | Blues
Download GoldBytez: Best | Legends | Acoustic
Download GoldBytez: South | Beat | Blues
Download JunoCloud: Best | Legends | Acoustic
Download JunoCloud: South | Beat | Blues
Download FileFactory: Best | Legends | Acoustic
Download FileFactory: South | Beat | Blues

Quality lossy (mp3 @ 320 kbps)
Download FilePost: Best | Legends | Acoustic
Download FilePost: South | Beat | Blues
Download Uploaded: Best | Legends | Acoustic
Download Uploaded: South | Beat | Blues
Download GoldBytez: Best | Legends | Acoustic
Download GoldBytez: South | Beat | Blues
Download JunoCloud: Best | Legends | Acoustic
Download JunoCloud: South | Beat | Blues
Download FileFactory: Best | Legends | Acoustic
Download FileFactory: South | Beat | Blues