Subcategories

Queen - Queen Greatest Karaoke Hits (2CD, 1998) RE-UPPED

Posted By: Shar'EmAll
Queen - Queen Greatest Karaoke Hits (2CD, 1998) RE-UPPED

Queen - Queen Greatest Karaoke Hits (2CD, 1998) [Japan]
EAC | FLAC-IMG+CUE+LOG > 758 MB | Full Scans | MP3 CBR 320 Kbps > 289 MB
Karaoke | 121:54 mins | Label: Toshiba-EMI Limited, Japan | Cat.# 65061~2
Japanese Release | Featuring The Original QUEEN Hit Recordings

"Who wants to live forever?" is an appropriate title for one of the songs on this CD. Queen are the ones who will live forever and this recording is immortal despite the fact the band don't utter a single word. This is in fact a Karaoke CD and the only thing better than listening to this legendary band is (trying) to sing along to 31 of their greatest and timeless classics.

Queen just doesn't get the credit they deserve. There's only a handful of reviews for this CD which is surprising since Queen are up there with the Beatles, Led Zeppelin, the Rolling Stones and Pink Floyd as one of the greatest bands of all time. They basically reinvented the word "immortality".

You'd be hard pressed to find a more (costly) CD than this but its well worth it. These are the original studio backing tracks as opposed to some studio dropkick banging the keys of a cheap (money) synthesizer. This is quality music at its best and well worth its weight in gold! A truly exceptional purchase!

– Customer's review on amazon.com
Tracklist:

CD1:
01. Bohemian Rhapsody
02. You're My Best Friend
03. Somebody To Love
04. Tie Your Mother Down
05. We Are The Champions
06. We Will Rock You
07. Spread Your Wings
08. Bicycle Race
09. Fat Bottomed Girls
10. Don't Stop Me Now
11. Crazy Little Thing Called Love
12. Save Me
13. Play The Game
14. Another One Bites The Dust
15. Flash
16. Keep Yourself Alive

CD2:
01. A Kind Of Magic
02. Under Pressure
03. Radio Ga Ga
04. I Want It All
05. I Want To Break Free
06. It's A Hard Life
07. Breakthru
08. Who Wants To Live Forever
09. The Miracle
10. I'm Going Slightly Mad
11. The Invisible Man
12. Hammer To Fall
13. Friends Will Be Friends
14. The Show Must Go On
15. One Vision

Thanks to Pretender!

Exact Audio Copy V0.99 prebeta 5 from 4. May 2009

EAC extraction logfile from 3. September 2012, 17:50

Queen / Queen Greatest Karaoke Hits [TOCP-65061]

Used drive : ASUS DRW-22B3L Adapter: 0 ID: 1

Read mode : Secure
Utilize accurate stream : Yes
Defeat audio cache : Yes
Make use of C2 pointers : No

Read offset correction : 6
Overread into Lead-In and Lead-Out : No
Fill up missing offset samples with silence : Yes
Delete leading and trailing silent blocks : No
Null samples used in CRC calculations : Yes
Used interface : Native Win32 interface for Win NT & 2000

Used output format : Internal WAV Routines
Sample format : 44.100 Hz; 16 Bit; Stereo


TOC of the extracted CD

Track | Start | Length | Start sector | End sector
––––––––––––––––––––––––––––-
1 | 0:00.00 | 6:00.02 | 0 | 27001
2 | 6:00.02 | 2:55.00 | 27002 | 40126
3 | 8:55.02 | 4:52.38 | 40127 | 62064
4 | 13:47.40 | 3:39.07 | 62065 | 78496
5 | 17:26.47 | 3:04.73 | 78497 | 92369
6 | 20:31.45 | 2:05.45 | 92370 | 101789
7 | 22:37.15 | 4:24.45 | 101790 | 121634
8 | 27:01.60 | 3:05.62 | 121635 | 135571
9 | 30:07.47 | 3:20.08 | 135572 | 150579
10 | 33:27.55 | 3:32.47 | 150580 | 166526
11 | 37:00.27 | 2:44.38 | 166527 | 178864
12 | 39:44.65 | 3:53.42 | 178865 | 196381
13 | 43:38.32 | 3:31.28 | 196382 | 212234
14 | 47:09.60 | 3:36.02 | 212235 | 228436
15 | 50:45.62 | 2:45.58 | 228437 | 240869
16 | 53:31.45 | 3:15.67 | 240870 | 255561


Range status and errors

Selected range

Filename D:\Queen - Queen Greatest Karaoke Hits [TOCP-65061].wav

Peak level 100.0 %
Range quality 100.0 %
Test CRC B82B5515
Copy CRC B82B5515
Copy OK

No errors occurred


AccurateRip summary

Track 1 not present in database
Track 2 not present in database
Track 3 not present in database
Track 4 not present in database
Track 5 not present in database
Track 6 not present in database
Track 7 not present in database
Track 8 not present in database
Track 9 not present in database
Track 10 not present in database
Track 11 not present in database
Track 12 not present in database
Track 13 not present in database
Track 14 not present in database
Track 15 not present in database
Track 16 not present in database

None of the tracks are present in the AccurateRip database

End of status report

***************************

Exact Audio Copy V0.99 prebeta 5 from 4. May 2009

EAC extraction logfile from 3. September 2012, 18:41

Queen / Queen Greatest Karaoke Hits [TOCP-65062]

Used drive : ASUS DRW-22B3L Adapter: 0 ID: 1

Read mode : Secure
Utilize accurate stream : Yes
Defeat audio cache : Yes
Make use of C2 pointers : No

Read offset correction : 6
Overread into Lead-In and Lead-Out : No
Fill up missing offset samples with silence : Yes
Delete leading and trailing silent blocks : No
Null samples used in CRC calculations : Yes
Used interface : Native Win32 interface for Win NT & 2000

Used output format : Internal WAV Routines
Sample format : 44.100 Hz; 16 Bit; Stereo


TOC of the extracted CD

Track | Start | Length | Start sector | End sector
––––––––––––––––––––––––––––-
1 | 0:00.00 | 4:18.25 | 0 | 19374
2 | 4:18.25 | 3:55.02 | 19375 | 37001
3 | 8:13.27 | 5:39.03 | 37002 | 62429
4 | 13:52.30 | 4:05.67 | 62430 | 80871
5 | 17:58.22 | 4:12.33 | 80872 | 99804
6 | 22:10.55 | 4:08.15 | 99805 | 118419
7 | 26:18.70 | 4:14.22 | 118420 | 137491
8 | 30:33.17 | 4:03.00 | 137492 | 155716
9 | 34:36.17 | 5:15.15 | 155717 | 179356
10 | 39:51.32 | 4:26.65 | 179357 | 199371
11 | 44:18.22 | 4:20.10 | 199372 | 218881
12 | 48:38.32 | 3:41.45 | 218882 | 235501
13 | 52:20.02 | 4:20.43 | 235502 | 255044
14 | 56:40.45 | 4:18.40 | 255045 | 274434
15 | 60:59.10 | 4:07.47 | 274435 | 293006


Range status and errors

Selected range

Filename D:\Queen - Queen Greatest Karaoke Hits [TOCP-65062].wav

Peak level 98.9 %
Range quality 100.0 %
Test CRC 05FCEF69
Copy CRC 05FCEF69
Copy OK

No errors occurred


AccurateRip summary

Track 1 not present in database
Track 2 not present in database
Track 3 not present in database
Track 4 not present in database
Track 5 not present in database
Track 6 not present in database
Track 7 not present in database
Track 8 not present in database
Track 9 accurately ripped (confidence 1) [446C852E]
Track 10 not present in database
Track 11 not present in database
Track 12 not present in database
Track 13 not present in database
Track 14 not present in database
Track 15 not present in database

1 track(s) accurately ripped
14 track(s) not present in the AccurateRip database

Some tracks could not be verified as accurate

End of status report


>
NF
FLAC
MP3 320
>
BF
FLAC
MP3 320

All covers & recovery info included.