Subcategories

Ravi Shankar - Incredible Ravi Shankar - Raga Charukauns (1986) {Chhanda Dhara SNCD 2286}

Posted By: ruskaval
Ravi Shankar - Incredible Ravi Shankar - Raga Charukauns (1986) {Chhanda Dhara SNCD 2286}

Ravi Shankar - Incredible Ravi Shankar - Raga Charukauns (1986) {Chhanda Dhara SNCD 2286}
EAC rip (secure mode) | FLAC (tracks)+CUE+LOG -> 346 Mb | MP3 @320 -> 159 Mb
Full Artwork @ 300 dpi (png) -> 34 Mb | 5% repair rar
© 1986 Chhanda Dhara | SNCD 2286
Indian Classical / World Music / Hindustani / Indian Subcontinent Traditions / Raga / Sitar

As a performer, composer, teacher and writer, Ravi Shankar has arguably done more to popularize Indian music than any other Indian musician. Indeed, his greatest legacy may be his ability to make Indian classical music more accessible to Western audiences without compromising the idiom itself. Mainly a practitioner of the north Indian Hindustani style of music, Ravi Shankar has nonetheless also experimented with styles from other areas of the continent.

Since the 1950s, Shankar popularized a number of ragas from southern India; charukeshi is one of them. In 1978, in a combination of charukeshi with malkauns, a style of music from Hindustan, he created a new raga: charukauns. The romanticism and pathos of charukeshi mingle with the depth, grandeur and dignity of malkauns, establishing a truly unique musical atmosphere. Of the two sections heard here, section one consists of "Alap" "Jod," and "Jhala," which features the sitar solo, while section two consists of a slow rhythm in 16 beats, and a faster rhythm in 12 beats which features sitar with tabla drums.

Personnel:
Pandit Ravi Shankar - sitar
Ustad Alla Rakha - tabla
Narendra Kotiyan, Prodyot Sen - tanpuras

Recorded at the BBC Transcription Unit, London

tracklist:
Raga Charukauns

01 - Alap, Jod and Jhala
02 - Gat in Teental and Ektal
03 - Dhun in Chanchar and Teental

Exact Audio Copy V1.0 beta 3 from 29. August 2011

EAC extraction logfile from 17. December 2012, 22:15

Ravi Shankar / Incredible Ravi Shankar - Raga Charukauns

Used drive : HL-DT-STDVDRAM GH22NS50 Adapter: 3 ID: 1

Read mode : Secure
Utilize accurate stream : Yes
Defeat audio cache : Yes
Make use of C2 pointers : No

Read offset correction : 667
Overread into Lead-In and Lead-Out : No
Fill up missing offset samples with silence : Yes
Delete leading and trailing silent blocks : No
Null samples used in CRC calculations : Yes
Used interface : Installed external ASPI interface
Gap handling : Appended to previous track

Used output format : User Defined Encoder
Selected bitrate : 1024 kBit/s
Quality : High
Add ID3 tag : No
Command line compressor : C:\Program Files (x86)\Exact Audio Copy\Flac\flac.exe
Additional command line options : -8 -V -T "ARTIST=%artist%" -T "TITLE=%title%" -T "ALBUM=%albumtitle%" -T "DATE=%year%" -T "TRACKNUMBER=%tracknr%" -T "TOTALTRACKS=%numtracks%" -T "GENRE=%genre%" -T "ALBUMARTIST=%albumartist%" -T "ALBUM ARTIST=%albumartist%" -T "COMMENT=EAC, FLAC -8" %source%


TOC of the extracted CD

Track | Start | Length | Start sector | End sector
––––––––––––––––––––––––––––-
1 | 0:00.00 | 25:05.37 | 0 | 112911
2 | 25:05.37 | 24:09.00 | 112912 | 221586
3 | 49:14.37 | 17:58.38 | 221587 | 302474


Track 1

Filename D:\Music Indian Classical\Ravi Shankar - Incredible Ravi Shankar - Raga Charukauns (1986) [FLAC]\01 - Alap, Jod and Jhala.wav

Pre-gap length 0:00:02.00

Peak level 100.0 %
Extraction speed 1.6 X
Track quality 100.0 %
Test CRC 3BB59698
Copy CRC 3BB59698
Cannot be verified as accurate (confidence 2) [06F8A63D], AccurateRip returned [C1709B5B] (AR v2)
Copy OK

Track 2

Filename D:\Music Indian Classical\Ravi Shankar - Incredible Ravi Shankar - Raga Charukauns (1986) [FLAC]\02 - Gat in Teental and Ektal.wav

Pre-gap length 0:00:03.37

Peak level 100.0 %
Extraction speed 2.2 X
Track quality 100.0 %
Test CRC FB7562DA
Copy CRC FB7562DA
Cannot be verified as accurate (confidence 3) [E6ABAC8B], AccurateRip returned [D390A63D] (AR v2)
Copy OK

Track 3

Filename D:\Music Indian Classical\Ravi Shankar - Incredible Ravi Shankar - Raga Charukauns (1986) [FLAC]\03 - Dhun in Chanchar and Teental.wav

Pre-gap length 0:00:03.62

Peak level 100.0 %
Extraction speed 2.6 X
Track quality 100.0 %
Test CRC DD020DB4
Copy CRC DD020DB4
Cannot be verified as accurate (confidence 3) [18EAE84B], AccurateRip returned [9859B653] (AR v2)
Copy OK


No tracks could be verified as accurate
You may have a different pressing from the one(s) in the database

No errors occurred

End of status report

–– CUETools DB Plugin V2.1.3

[CTDB TOCID: _LV7YFJ35ZS4ItW43ycTHf9mOo0-] disk not present in database, Submit result: _LV7YFJ35ZS4ItW43ycTHf9mOo0- has been uploaded


==== Log checksum 3607ED6AF1A9363A808A284BBA0B2002D3AD931D5F7F15867C29634DD66CBA20 ====


Ravi Shankar - Incredible Ravi Shankar - Raga Charukauns (1986) {Chhanda Dhara SNCD 2286}

Ravi Shankar - Incredible Ravi Shankar - Raga Charukauns (1986) {Chhanda Dhara SNCD 2286}


see more indian classical…

All thanks goes to the original releaser!


===