Subcategories

Fields Of The Nephilim - Revelations (1993)

Posted By: rd
Fields Of The Nephilim - Revelations (1993)

Fields Of The Nephilim - Revelations (1993)
EAC Rip | APE + CUE + LOG | 460 Mb | MP3 320 CBR | 180 Mb | Covers | 75:00
Genre: Gothic rock

REVELATIONS is a best-of collection which highlights the Fields Of The Nephilim's recording history. It features tracks from DAWNRAZOR, rare single mixes and b-sides, and a previously unreleased live version of "Dawnrazor."


Label: Soyuz / Beggars

Official Website
Wikipedia
Wikipedia
MySpace Music

Band:

Carl McCoy (vocals); Paul Wright, Peter Yates (guitar); Gary Whisker (saxophone); Tony Pettitt (bass); Nod Wright (drums).

Tracklist:

1. Moonchild
2. Chord of Souls
3. Last Exit For the Lost
4. Preacher Man
5. Love Under Will
6. Power
7. Psychonaut Lib 111
8. For Her Light
9. Blue Water
10. Vet For the Insane
11. Watchman
12. Dawnrazor

MP3

Part 1

или / or

Part 1

APE

Part 1
Part 2

или / or

Part 1
Part 2

В каждом архиве инфа для восстановления! Сканы в комплекте. Части взаимозаменяемые.

Each archive contains information for recovery! Covers included. All parts are interchangeable


Exact Audio Copy V0.99 prebeta 5 from 4. May 2009

EAC extraction logfile from 10. October 2010, 17:49

Fields Of The Nephilim / Revelations (Disc I)

Used drive : PLEXTOR DVDR PX-860A Adapter: 0 ID: 0

Read mode : Secure
Utilize accurate stream : Yes
Defeat audio cache : Yes
Make use of C2 pointers : No

Read offset correction : 96
Overread into Lead-In and Lead-Out : No
Fill up missing offset samples with silence : Yes
Delete leading and trailing silent blocks : No
Null samples used in CRC calculations : Yes
Used interface : Installed external ASPI interface

Used output format : Monkey's Audio Lossless Encoder
Selected bitrate : High Lossless Compression
Quality : High
Add ID3 tag : Yes
Command line compressor : C:\Program Files\Monkey's Audio\MAC.exe


TOC of the extracted CD

Track | Start | Length | Start sector | End sector
––––––––––––––––––––––––––––-
1 | 0:00.32 | 5:40.63 | 32 | 25594
2 | 5:41.20 | 5:10.02 | 25595 | 48846
3 | 10:51.22 | 9:31.73 | 48847 | 91744
4 | 20:23.20 | 4:54.12 | 91745 | 113806
5 | 25:17.32 | 6:10.70 | 113807 | 141626
6 | 31:28.27 | 4:22.33 | 141627 | 161309
7 | 35:50.60 | 9:13.22 | 161310 | 202806
8 | 45:04.07 | 4:16.10 | 202807 | 222016
9 | 49:20.17 | 5:51.53 | 222017 | 248394
10 | 55:11.70 | 6:01.37 | 248395 | 275506
11 | 61:13.32 | 5:20.33 | 275507 | 299539
12 | 66:33.65 | 8:26.37 | 299540 | 337526


Range status and errors

Selected range

Filename J:\MUSIC\Fields Of The Nephilim - Revelations (Disc I).wav

Peak level 95.6 %
Range quality 100.0 %
Copy CRC 385DEE5A
Copy OK

No errors occurred


AccurateRip summary

Track 1 cannot be verified as accurate (confidence 5) [A4774B72], AccurateRip returned [48C073DA]
Track 2 cannot be verified as accurate (confidence 6) [AA1B5287], AccurateRip returned [024A060F]
Track 3 cannot be verified as accurate (confidence 6) [2E84AEE6], AccurateRip returned [4C4CBB70]
Track 4 cannot be verified as accurate (confidence 5) [72709EF2], AccurateRip returned [89963CA8]
Track 5 cannot be verified as accurate (confidence 6) [3B61EF5A], AccurateRip returned [8E09F88A]
Track 6 cannot be verified as accurate (confidence 6) [09BB4945], AccurateRip returned [EDC477D5]
Track 7 cannot be verified as accurate (confidence 6) [7FD2E3E1], AccurateRip returned [D44AE1F5]
Track 8 cannot be verified as accurate (confidence 6) [D8AB26B2], AccurateRip returned [566B5702]
Track 9 cannot be verified as accurate (confidence 6) [7083069F], AccurateRip returned [E3913E8F]
Track 10 cannot be verified as accurate (confidence 6) [20792E62], AccurateRip returned [53A62692]
Track 11 cannot be verified as accurate (confidence 6) [93FA7F8B], AccurateRip returned [2A192143]
Track 12 cannot be verified as accurate (confidence 5) [D5F5058E], AccurateRip returned [A88F9606]

No tracks could be verified as accurate
You may have a different pressing from the one(s) in the database

End of status report


Прошу обратить внимание на то, что весь материал, представленный выше, предназначен исключительно для ознакомления! Приобретайте, пожалуйста, легальные диски, которые вне всякого сомнения станут достойным украшением вашей коллекции!