Subcategories

Babylon A.D. - Babylon A.D. (1989)

Posted By: rd
Babylon A.D. - Babylon A.D. (1989)

Babylon A.D. - Babylon A.D. (1989)
EAC Rip | APE + CUE + LOG | 320 Mb | MP3 320 CBR | 130 Mb | Covers | 44:58
Genre: Hard Rock/Heavy Metal

Дебютник


Label: Pirate Label

Wikipedia

Band:

Derek Davis - vocals
Dan De La Rosa - guitar
Ron Freschi - guitar
Robb Reid - bass
Jamey Pacheco - drums

Additional musicians
Rick Seratte - keyboards, programming

Tracklist:

"Bang Go the Bells" (Derek Davis, Ron Freschi) - 4:15
"Hammer Swings Down" (D. Davis, Jack Ponti) - 3:27
"Caught in the Crossfire" (D. Davis, J. Ponti) - 3:33
"Desperate" (D. Davis, J. Ponti) - 5:23
"The Kid Goes Wild" (D. Davis, J. Ponti, Vic Pepe) - 4:52
"Shot o' Love" (D. Davis) - 5:47
"Maryanne" (D. Davis, J. Ponti) - 3:41
"Back in Babylon" (D. Davis, R. Freschi) (4:10)
"Sweet Temptation" (D. Davis, John Mathews) - 3:40)
"Sally Danced" (D. Davis) - 5:53

MP3

FSonic

или / or

FServe

APE

FSonic 1 FSonic 2

или / or

FServe 1 FServe 2

Инфа для восстановления и сканы в комплекте. Части взаимозаменяемы.
Information for recovery & covers included. All parts are interchangeable


Exact Audio Copy V0.99 prebeta 5 from 4. May 2009

EAC extraction logfile from 3. April 2011, 9:37

Babylon A.D. / Babylon A.D.

Used drive : MATSHITABD-CMB UJ242AS Adapter: 0 ID: 1

Read mode : Secure
Utilize accurate stream : Yes
Defeat audio cache : Yes
Make use of C2 pointers : No

Read offset correction : 103
Overread into Lead-In and Lead-Out : No
Fill up missing offset samples with silence : Yes
Delete leading and trailing silent blocks : No
Null samples used in CRC calculations : Yes
Used interface : Native Win32 interface for Win NT & 2000

Used output format : Monkey's Audio Lossless Encoder
Selected bitrate : Normal Lossless Compression
Quality : High
Add ID3 tag : Yes
Command line compressor : C:\Program Files (x86)\Exact Audio Copy\MAC.exe


TOC of the extracted CD

Track | Start | Length | Start sector | End sector
––––––––––––––––––––––––––––-
1 | 0:00.00 | 4:17.30 | 0 | 19304
2 | 4:17.30 | 3:27.15 | 19305 | 34844
3 | 7:44.45 | 3:34.45 | 34845 | 50939
4 | 11:19.15 | 5:25.55 | 50940 | 75369
5 | 16:44.70 | 4:50.45 | 75370 | 97164
6 | 21:35.40 | 5:47.50 | 97165 | 123239
7 | 27:23.15 | 3:43.60 | 123240 | 140024
8 | 31:07.00 | 4:09.60 | 140025 | 158759
9 | 35:16.60 | 3:40.25 | 158760 | 175284
10 | 38:57.10 | 6:01.05 | 175285 | 202364


Range status and errors

Selected range

Filename C:\EACrip\Babylon A.D. - Babylon A.D..wav

Peak level 98.8 %
Range quality 100.0 %
Copy CRC C15EE3F6
Copy OK

No errors occurred


AccurateRip summary

Track 1 not present in database
Track 2 not present in database
Track 3 not present in database
Track 4 not present in database
Track 5 not present in database
Track 6 not present in database
Track 7 not present in database
Track 8 not present in database
Track 9 not present in database
Track 10 not present in database

None of the tracks are present in the AccurateRip database

End of status report


Прошу обратить внимание на то, что весь материал, представленный выше, предназначен исключительно для ознакомления! Приобретайте, пожалуйста, легальные диски, которые вне всякого сомнения станут достойным украшением вашей коллекции!