Subcategories

Riverside - Love Fear And The Time Machine (2015) [2016, DVD+CD EDITION]

Posted By: michuu66
Riverside - Love Fear And The Time Machine (2015) [2016, DVD+CD EDITION]

Riverside - Love Fear And The Time Machine (2015) [2016, DVD+CD EDITION]
EAC Rip | FLAC Image + Cue + Log | 368 MB | Total Time: 1:00:30 l Complete Scans | 58 MB
DVD9 NTSC 16:9 720x480 | Runtime: 1:27:43 | ISO Image | DTS 5.1, PCM 24-bit stereo | 5.42 GB
Rock | Label: InsideOut Music | No subtitles


Love, Fear and the Time Machine is the sixth album by Polish progressive rock band Riverside. The album was released on 4 September 2015 through InsideOut Music. It was their final album to feature guitarist Piotr Grudziński before his death on 21 February 2016. Illustration, design and layout by Travis Smith. The album has been recorded, mixed and mastered at Serakos Studio in Warsaw, Poland between November 2014 and June 2015 by Magda and Robert Srzedniccy.
Here is 2016 edition with 5.1 mix of the album

Tracklist:
CD
1. Lost (Why Should I Be Frightened By a Hat?)
2. Under the Pillow
3. #Addicted
4. Caterpillar and the Barbed Wire
5. Saturate Me
6. Afloat
7. Discard Your Fear
8. Towards the Blue Horizon
9. Time Travellers
10. Found (The Unexpected Flaw of Searching)

Exact Audio Copy V1.3 from 2. September 2016

EAC extraction logfile from 25. October 2016, 22:09

Riverside / Love, Fear and the Time Machine

Used drive : MATSHITADVD-RAM UJ8D1 Adapter: 1 ID: 0

Read mode : Secure
Utilize accurate stream : Yes
Defeat audio cache : Yes
Make use of C2 pointers : No

Read offset correction : 6
Overread into Lead-In and Lead-Out : No
Fill up missing offset samples with silence : Yes
Delete leading and trailing silent blocks : No
Null samples used in CRC calculations : Yes
Used interface : Native Win32 interface for Win NT & 2000

Used output format : User Defined Encoder
Selected bitrate : 768 kBit/s
Quality : High
Add ID3 tag : No
Command line compressor : C:\Program Files (x86)\Exact Audio Copy\FLAC\FLAC.EXE
Additional command line options : -6 -V -T "ARTIST=%artist%" -T "TITLE=%title%" -T "ALBUM=%albumtitle%" -T "DATE=%year%" -T "TRACKNUMBER=%tracknr%" -T "GENRE=%genre%" -T "COMMENT=%comment%" -T "BAND=%albuminterpret%" -T "ALBUMARTIST=%albuminterpret%" -T "COMPOSER=%composer%" %haslyrics%–tag-from-file=LYRICS="%lyricsfile%"%haslyrics% -T "DISCNUMBER=%cdnumber%" -T "TOTALDISCS=%totalcds%" -T "TOTALTRACKS=%numtracks%" %hascover%–picture="%coverfile%"%hascover% %source% -o %dest%


TOC of the extracted CD

Track | Start | Length | Start sector | End sector
––––––––––––––––––––––––––––-
1 | 0:00.00 | 5:52.49 | 0 | 26448
2 | 5:52.49 | 6:47.04 | 26449 | 56977
3 | 12:39.53 | 4:53.38 | 56978 | 78990
4 | 17:33.16 | 6:56.20 | 78991 | 110210
5 | 24:29.36 | 7:09.37 | 110211 | 142422
6 | 31:38.73 | 3:12.66 | 142423 | 156888
7 | 34:51.64 | 6:42.67 | 156889 | 187105
8 | 41:34.56 | 8:09.38 | 187106 | 223818
9 | 49:44.19 | 6:42.59 | 223819 | 254027
10 | 56:27.03 | 4:03.04 | 254028 | 272256


Range status and errors

Selected range

Filename D:\muzyka\upload\Riverside - Love, Fear and the Time Machine.wav

Peak level 98.7 %
Extraction speed 4.7 X
Range quality 99.9 %
Copy CRC 13DF0410
Copy OK

No errors occurred


AccurateRip summary

Track 1 accurately ripped (confidence 65) [BEDB502E] (AR v2)
Track 2 accurately ripped (confidence 67) [0CE183E8] (AR v2)
Track 3 accurately ripped (confidence 66) [E118B85F] (AR v2)
Track 4 accurately ripped (confidence 66) [F083F157] (AR v2)
Track 5 accurately ripped (confidence 66) [907E4D65] (AR v2)
Track 6 accurately ripped (confidence 66) [70C1D7D0] (AR v2)
Track 7 accurately ripped (confidence 67) [40182421] (AR v2)
Track 8 accurately ripped (confidence 67) [942C421F] (AR v2)
Track 9 accurately ripped (confidence 66) [AE9013D5] (AR v2)
Track 10 accurately ripped (confidence 67) [D36A29FE] (AR v2)

All tracks accurately ripped

End of status report

–– CUETools DB Plugin V2.1.6

[CTDB TOCID: tOPuIMi24fADRiUp3ufRvL1WJ8A-] found
Submit result: already submitted
Track | CTDB Status
1 | (405/405) Accurately ripped
2 | (405/405) Accurately ripped
3 | (405/405) Accurately ripped
4 | (404/405) Accurately ripped
5 | (405/405) Accurately ripped
6 | (405/405) Accurately ripped
7 | (403/405) Accurately ripped
8 | (404/405) Accurately ripped
9 | (403/405) Accurately ripped
10 | (401/405) Accurately ripped


==== Log checksum 4E93D7238E74736B4EA1628D0D08AB999CDC3453CCEE4C5E54DC95C97ECB6491 ====

DVD:
Love, Fear and the Time Machine" (DTS 5.1 & LPCM 24-bit Stereo) + "Day Session" + Video Clips
"Day Session":
1. Heavenland
2. Return
3. Aether
4. Machines
5. Promise
Video Clips:
1. Love (Trailer) (01:38)
2. Fear (Trailer) (01:58)
3. Time Machine (Trailer) (01:07)
4. Found (Video Clip) (04:06)