Subcategories

R.L. Burnside - Mr. Wizard (1997)

Posted By: plonker
R.L. Burnside - Mr. Wizard (1997)

R.L. Burnside - Mr. Wizard (1997)
Electric blues | EAC rip | WavPack: IMG+CUE+EAC/log -> 274 MB | mp3@VBR V0 (269kbps) -> 80 MB
39:32 min | covers | RAR inc. 3% recovery | Fat Possum/Epitaph 0301-2

AMG review by Thom Owens:
While it's not quite as relentlessly exciting as Ass Pocket of Whiskey, primarily because the Jon Spencer Blues Explosion isn't along to provide support, Mr. Wizard is another set of blistering electric blues from R.L. Burnside, highlighted by his stomping guitar, powerful voice and cheerfully vulgar lyrics.
Tracklist:
01 Over The Hill (04:19)
02 Alice Mae (03:29)
03 Georgia Women (03:47)
04 Snake Drive (06:54)
05 Rollin' & Tumblin' (04:39)
06 Out On The Road (03:57)
07 Highway 7 (06:02)
08 Tribute To Fred (03:33)
09 You Gotta Move (02:53)

Exact Audio Copy V0.99 prebeta 5 from 4. May 2009

EAC extraction logfile from 15. October 2009, 8:57

R. L. Burnside / Mr. Wizard

Used drive : HL-DT-STDVD-RAM GH22NP20 Adapter: 1 ID: 0

Read mode : Secure
Utilize accurate stream : Yes
Defeat audio cache : No
Make use of C2 pointers : No

Read offset correction : 102
Overread into Lead-In and Lead-Out : Yes
Fill up missing offset samples with silence : Yes
Delete leading and trailing silent blocks : No
Null samples used in CRC calculations : Yes
Used interface : Installed external ASPI interface

Used output format : Internal WAV Routines
Sample format : 44.100 Hz; 16 Bit; Stereo


TOC of the extracted CD

Track | Start | Length | Start sector | End sector
––––––––––––––––––––––––––––-
1 | 0:00.00 | 4:18.74 | 0 | 19423
2 | 4:18.74 | 3:29.24 | 19424 | 35122
3 | 7:48.23 | 3:46.62 | 35123 | 52134
4 | 11:35.10 | 6:53.35 | 52135 | 83144
5 | 18:28.45 | 4:38.38 | 83145 | 104032
6 | 23:07.08 | 3:56.69 | 104033 | 121801
7 | 27:04.02 | 6:02.15 | 121802 | 148966
8 | 33:06.17 | 3:32.68 | 148967 | 164934
9 | 36:39.10 | 2:52.47 | 164935 | 177881


Range status and errors

Selected range

Filename I:\R. L. Burnside - Mr. Wizard.wav

Peak level 89.1 %
Range quality 100.0 %
Test CRC BA99B486
Copy CRC BA99B486
Copy OK

No errors occurred


AccurateRip summary

Track 1 accurately ripped (confidence 3) [B967D359]
Track 2 accurately ripped (confidence 2) [2B06A61A]
Track 3 accurately ripped (confidence 2) [8C4B4418]
Track 4 accurately ripped (confidence 2) [A37FF466]
Track 5 accurately ripped (confidence 3) [4F5A4770]
Track 6 accurately ripped (confidence 2) [FCC577AA]
Track 7 accurately ripped (confidence 2) [B774EEE0]
Track 8 accurately ripped (confidence 2) [DC645DD4]
Track 9 accurately ripped (confidence 3) [E9B8144D]

All tracks accurately ripped

End of status report



************ download ************