Subcategories

Robert Fripp & The League Of Gentlemen - God Save The King (1985) {Caroline Records-EG EEGCD9}

Posted By: ruskaval
Robert Fripp & The League Of Gentlemen - God Save The King (1985) {Caroline Records-EG EEGCD9}

Robert Fripp & The League Of Gentlemen - God Save The King (1985) {Caroline Records-EG EEGCD9}
EAC rip (secure mode) | FLAC (tracks)+CUE+LOG -> 278 Mb | MP3 @320 -> 103 Mb
Full Artwork @ 300 dpi (jpg) -> 9 Mb | 5% repair rar
© 1985 Caroline Records / EG | EEGCD9
Art Rock / Progressive Rock / Instrumental

God Save the King is actually a split release and/or a Robert Fripp compilation, depending on how you look at it. In 1980, Robert Fripp released something of a split disc himself, called God Save the Queen/Under Heavy Manners, consisting of a side of Frippertronics and a side of Discotronics, the latter being Frippertronics with a "dance-oriented" (according to Fripp) rhythm section. Also in 1980, Fripp formed a new group, borrowing the name from his early-'60s band, the League of Gentlemen.

This "new" League of Gentlemen toured for much of 1980, releasing The League of Gentlemen in 1981. In 1985, Fripp took a couple of the Discotronics tunes and a bunch of The League of Gentlemen tracks, and created a compilation of Frippian "dance music," which was then entitled God Save the King. It's a fine offering, but fans would still like to see both albums issued in their entirety.
Robert Fripp & The League Of Gentlemen - God Save The King (1985) {Caroline Records-EG EEGCD9}


tracklist & personnel:
This is essentially a compilation from two of Robert Fripp's early 80's bands, and this version is the 1989 remaster.

The first two tracks were recorded in 1979, released on the 1980 album "God Save The Queen/Under Heavy Manners". Track 1 was over-dubbed in 1983, renamed, and was formerly known as "The Zero Of The Signified" on the 1980 album.

Tracks 1-2 - Robert Fripp

Robert Fripp (guitar)
Buster Jones (bass}
Paul Duskins (drums)
David Byrne (voice on "Under Heavy Manners")

The rest of the tracks on this release were recorded in 1980 by the League Of Gentlemen, and first appeared in the self-titled 1981 album.

Tracks 3-9 - League Of Gentlemen

Robert Fripp (guitar)
Barry Andrews (organ)
Sara Lee (bass)
Kevin Wilkinson (drums)
Johnny Toobad (drums on tracks 3 and 6)

Exact Audio Copy V0.99 prebeta 4 from 23. January 2008

EAC extraction logfile from 5. October 2009, 14:34

Robert Fripp - The League of Gentlemen / God Save the King

Used drive : HL-DT-STDVD-RAM GH22NP20 Adapter: 1 ID: 0

Read mode : Secure
Utilize accurate stream : Yes
Defeat audio cache : Yes
Make use of C2 pointers : No

Read offset correction : 102
Overread into Lead-In and Lead-Out : No
Fill up missing offset samples with silence : Yes
Delete leading and trailing silent blocks : No
Null samples used in CRC calculations : Yes
Used interface : Native Win32 interface for Win NT & 2000
Gap handling : Appended to previous track

Used output format : User Defined Encoder
Selected bitrate : 1024 kBit/s
Quality : High
Add ID3 tag : No
Command line compressor : C:\Program Files\Exact Audio Copy\FLAC\FLAC.EXE
Additional command line options : -8 -V -T "ARTIST=%a" -T "TITLE=%t" -T "ALBUM=%g" -T "DATE=%y" -T "TRACKNUMBER=%n" -T "GENRE=%m" -T "COMMENT=EAC FLAC -8" %s


TOC of the extracted CD

Track | Start | Length | Start sector | End sector
––––––––––––––––––––––––––––-
1 | 0:00.50 | 13:15.57 | 50 | 59731
2 | 13:16.32 | 4:55.33 | 59732 | 81889
3 | 18:11.65 | 2:05.67 | 81890 | 91331
4 | 20:17.57 | 4:38.00 | 91332 | 112181
5 | 24:55.57 | 2:57.43 | 112182 | 125499
6 | 27:53.25 | 4:36.45 | 125500 | 146244
7 | 32:29.70 | 3:28.55 | 146245 | 161899
8 | 35:58.50 | 3:15.55 | 161900 | 176579
9 | 39:14.30 | 4:41.20 | 176580 | 197674


Track 1

Filename E:\Robert Fripp - The League Of Gentlemen - God Save The King (1985) [FLAC]\01 - God Save The King.wav

Pre-gap length 0:00:02.66

Peak level 94.0 %
Track quality 100.0 %
Test CRC A988CE82
Copy CRC A988CE82
Accurately ripped (confidence 3) [EAFD987C]
Copy OK

Track 2

Filename E:\Robert Fripp - The League Of Gentlemen - God Save The King (1985) [FLAC]\02 - Under Heavy Manners.wav

Peak level 100.0 %
Track quality 100.0 %
Test CRC BDF97B21
Copy CRC BDF97B21
Accurately ripped (confidence 3) [1B90D9D3]
Copy OK

Track 3

Filename E:\Robert Fripp - The League Of Gentlemen - God Save The King (1985) [FLAC]\03 - Heptaparaparshinokh.wav

Peak level 82.2 %
Track quality 100.0 %
Test CRC 4FE2D1A0
Copy CRC 4FE2D1A0
Accurately ripped (confidence 3) [202418B6]
Copy OK

Track 4

Filename E:\Robert Fripp - The League Of Gentlemen - God Save The King (1985) [FLAC]\04 - Inductive Resonance.wav

Peak level 85.8 %
Track quality 100.0 %
Test CRC 0790B71E
Copy CRC 0790B71E
Accurately ripped (confidence 3) [3975B9C9]
Copy OK

Track 5

Filename E:\Robert Fripp - The League Of Gentlemen - God Save The King (1985) [FLAC]\05 - Cognitive Dissonance.wav

Peak level 77.2 %
Track quality 100.0 %
Test CRC 2580FA33
Copy CRC 2580FA33
Accurately ripped (confidence 3) [97E4E9EF]
Copy OK

Track 6

Filename E:\Robert Fripp - The League Of Gentlemen - God Save The King (1985) [FLAC]\06 - Dislocated.wav

Peak level 84.6 %
Track quality 99.9 %
Test CRC 5D18822B
Copy CRC 5D18822B
Accurately ripped (confidence 3) [D8B2CB97]
Copy OK

Track 7

Filename E:\Robert Fripp - The League Of Gentlemen - God Save The King (1985) [FLAC]\07 - H. G. Wells.wav

Peak level 100.0 %
Track quality 100.0 %
Test CRC 8F5C1F02
Copy CRC 8F5C1F02
Accurately ripped (confidence 3) [C1178B84]
Copy OK

Track 8

Filename E:\Robert Fripp - The League Of Gentlemen - God Save The King (1985) [FLAC]\08 - Eye Needles.wav

Peak level 84.9 %
Track quality 100.0 %
Test CRC 1131C679
Copy CRC 1131C679
Accurately ripped (confidence 3) [3D6A908F]
Copy OK

Track 9

Filename E:\Robert Fripp - The League Of Gentlemen - God Save The King (1985) [FLAC]\09 - Trap.wav

Peak level 100.0 %
Track quality 99.9 %
Test CRC B023CA91
Copy CRC B023CA91
Accurately ripped (confidence 3) [55B20688]
Copy OK


All tracks accurately ripped

No errors occurred

End of status report


Robert Fripp & The League Of Gentlemen - God Save The King (1985) {Caroline Records-EG EEGCD9}

Robert Fripp & The League Of Gentlemen - God Save The King (1985) {Caroline Records-EG EEGCD9}


===