Subcategories

Robin Kenyatta - Stompin' At The Savoy (1974) {Atlantic - Wounded Bird WOU 1658 rel 2008}

Posted By: ruskaval
Robin Kenyatta - Stompin' At The Savoy (1974) {Atlantic - Wounded Bird WOU 1658 rel 2008}

Robin Kenyatta - Stompin' At The Savoy (1974) {Atlantic - Wounded Bird WOU 1658 rel 2008}
EAC rip (secure mode) | FLAC (tracks)+CUE+LOG -> 265 Mb | MP3 @320 -> 88 Mb
Full Artwork @ 300 dpi (jpg) -> 10 Mb | 5% repair rar
© 1974, 2008 Atlantic / Wounded Bird Records | WOU 1658 (Atlantic SD 1656)
Jazz / Hard Bop / Jazz Blues / Soul Jazz / Jazz Funk

Alto saxophonist and composer Robin Kenyatta made a slew of records in the 1970s that have been terribly misunderstood, to say the least. It was obvious by the time that Kenyatta released Terra Nova in 1973 that he was revisioning jazz as the perfect integration point for many – if not all – forms of popular music; Terra Nova had explored Caribbean rhythms (in particular reggae and calypso). But on his 1974 album Stompin' at the Savoy, Kenyatta took the revered jazz tradition and inserted it right into the heart of then contemporary styles of funk, soul, and pop, and even early club disco.

Produced by Michael Cuscuna for Atlantic Records, there is a dazzling array of musicians present here in various groupings: Billy Harper, Dr. John, Ron Carter, Chuck Rainey, Lew Soloff, Alphonse Mouzon, Ralph MacDonald, Jimmy Knepper, Bernard Purdie, Sonelius Smith, Larry Willis, Walter Booker, Lewis Worrell, and more. The title cut is radically rearranged to include a female backing chorus doing a stepped up version of the Andrews Sisters-LaBelle style – percussionists, a four-piece horn section, electric bass, Rhodes piano – that walks the line between breezy funk and disco. It may sound like a mess but it works beautifully. This preps the listener for Arnett Cobb's Texas R&B nugget "Smooth Sailing," that sticks closer to the vest but is still ruled by a fingerpopping stroll of an electric bassline, electric guitars, and congas. The feel is entirely natural and the groove is easy. But juxtapose this with pianist Smith (known better to the jazz vanguard than the mainstream) whose beautifully mysterious "The Need to Smile," is a ten-minute jam where Willis' Rhodes, Smith's acoustic piano, and Kenyatta on soprano introduce a ballad as they slip and glide over Carter's upright bass, Guilherme Franco's percussion, and Mouzon's skittering drums for half the tune until it opens up into a full-on exploratory post-bop tune. Smith also lent his brief but beautiful "Mellow in the Park," to this set with fine flute work by Kenyatta. The real shockers, however, are wonderfully empathic readings of two pop hits of the day: a faux-reggae version of "Neither One of Us," (right, the Jim Weatherly number that scored big for Gladys Knight), and a downright freaky read of the Dickey Betts-penned Allman Brothers hit "Jessica," with an Afro-Cuban montuno rhythm played by Dwight Brewster's Rhodes piano against Rainey's funked up bassline and Winston Grennan's breakbeats. The set closes with a reggae read of Allen Toussaint's "River Boat," in place of the New Orleans second line rhythm – even though it is evoked here by MacDonald. In 2008 – the year this date finally appeared on CD – with all the innovations brought to popular music, and yes, jazz too, by culture jamming and breakbeat science, this set feels right on time.
Robin Kenyatta - Stompin' At The Savoy (1974) {Atlantic - Wounded Bird WOU 1658 rel 2008}


Personnel:
Robin Kenyatta - Flute, Saxophone
Billy Harper - Saxophone
Lew Soloff - Trumpet
Jimmy Knepper - Trombone
David Spinozza - Guitar
Dr. John - Piano
Ron Carter - Bass
Bernard Purdie - Drums
Gilmore Digap - Congas, Tambourine
Tasha Thomas - Vocals
Carl Hall - Vocals
Robin Clark - Vocals
Sonelius Smith - Piano
Larry Willis - Electric Piano
Alphonse Mouzon - Drums
Guilherme Franco - Percussion
Walter Booker - Bass
Lewis Worrell - Bass
Dwight Brewster - Electric Piano
Huks Brown - Guitar
Radcliff "Dougie" Bryan - Guitar
Gladstone (Gladdy) Anderson - Piano
Winston Wright - Organ
Jackie Jackson - Bass
Winston Grennan - Drums
Chuck Rainey - Bass
Joгo Palma - Percussion
Neville Hinds - Piano
Ralph MacDonald - Percussion

tracklist:
01 - Stompin At The Savoy
02 - Smooth Sailing
03 - The Need To Smile
04 - Two Bass Blues
05 - Neither One Of Us
06 - Mellow In The Park
07 - Jessica
08 - River Boat

Exact Audio Copy V1.1 from 23. June 2015

EAC extraction logfile from 30. August 2016, 21:46

Robin Kenyatta / Stompin At The Savoy

Used drive : MATSHITADVD+-RW SW830 Adapter: 1 ID: 0

Read mode : Secure
Utilize accurate stream : Yes
Defeat audio cache : Yes
Make use of C2 pointers : No

Read offset correction : 6
Overread into Lead-In and Lead-Out : No
Fill up missing offset samples with silence : Yes
Delete leading and trailing silent blocks : No
Null samples used in CRC calculations : Yes
Used interface : Native Win32 interface for Win NT & 2000
Gap handling : Appended to previous track

Used output format : User Defined Encoder
Selected bitrate : 896 kBit/s
Quality : High
Add ID3 tag : No
Command line compressor : C:\Program Files (x86)\Exact Audio Copy\Flac\flac.exe
Additional command line options : -8 -V -T "ARTIST=%artist%" -T "TITLE=%title%" -T "ALBUM=%albumtitle%" -T "DATE=%year%" -T "TRACKNUMBER=%tracknr%" -T "TOTALTRACKS=%numtracks%" -T "GENRE=%genre%" -T "ALBUMARTIST=%albumartist%" -T "ALBUM ARTIST=%albumartist%" -T "COMMENT=EAC Secure Mode, Test & Copy, AccurateRip, FLAC -8" %source%


TOC of the extracted CD

Track | Start | Length | Start sector | End sector
––––––––––––––––––––––––––––-
1 | 0:00.00 | 2:28.63 | 0 | 11162
2 | 2:28.63 | 3:07.07 | 11163 | 25194
3 | 5:35.70 | 9:59.42 | 25195 | 70161
4 | 15:35.37 | 2:29.41 | 70162 | 81377
5 | 18:05.03 | 5:23.57 | 81378 | 105659
6 | 23:28.60 | 4:32.53 | 105660 | 126112
7 | 28:01.38 | 3:59.17 | 126113 | 144054
8 | 32:00.55 | 5:37.32 | 144055 | 169361


Track 1

Filename G:\New Rips\Robin Kenyatta - Stompin At The Savoy (1974) [FLAC]\01 - Stompin At The Savoy.wav

Pre-gap length 0:00:02.00

Peak level 96.2 %
Extraction speed 1.6 X
Track quality 100.0 %
Test CRC 83F0DD29
Copy CRC 83F0DD29
Track not present in AccurateRip database
Copy OK

Track 2

Filename G:\New Rips\Robin Kenyatta - Stompin At The Savoy (1974) [FLAC]\02 - Smooth Sailing.wav

Pre-gap length 0:00:02.00

Peak level 96.2 %
Extraction speed 1.8 X
Track quality 100.0 %
Test CRC A4375745
Copy CRC A4375745
Track not present in AccurateRip database
Copy OK

Track 3

Filename G:\New Rips\Robin Kenyatta - Stompin At The Savoy (1974) [FLAC]\03 - The Need To Smile.wav

Pre-gap length 0:00:02.00

Peak level 96.2 %
Extraction speed 2.1 X
Track quality 99.9 %
Test CRC 739772DA
Copy CRC 739772DA
Track not present in AccurateRip database
Copy OK

Track 4

Filename G:\New Rips\Robin Kenyatta - Stompin At The Savoy (1974) [FLAC]\04 - Two Bass Blues.wav

Pre-gap length 0:00:02.00

Peak level 96.2 %
Extraction speed 2.2 X
Track quality 100.0 %
Test CRC 5B09E6FE
Copy CRC 5B09E6FE
Track not present in AccurateRip database
Copy OK

Track 5

Filename G:\New Rips\Robin Kenyatta - Stompin At The Savoy (1974) [FLAC]\05 - Neither One Of Us.wav

Pre-gap length 0:00:02.00

Peak level 96.2 %
Extraction speed 2.7 X
Track quality 100.0 %
Test CRC 2D05FCFD
Copy CRC 2D05FCFD
Track not present in AccurateRip database
Copy OK

Track 6

Filename G:\New Rips\Robin Kenyatta - Stompin At The Savoy (1974) [FLAC]\06 - Mellow In The Park.wav

Pre-gap length 0:00:02.00

Peak level 96.2 %
Extraction speed 2.8 X
Track quality 100.0 %
Test CRC C882B380
Copy CRC C882B380
Track not present in AccurateRip database
Copy OK

Track 7

Filename G:\New Rips\Robin Kenyatta - Stompin At The Savoy (1974) [FLAC]\07 - Jessica.wav

Pre-gap length 0:00:02.00

Peak level 96.2 %
Extraction speed 2.9 X
Track quality 100.0 %
Test CRC B82248B2
Copy CRC B82248B2
Track not present in AccurateRip database
Copy OK

Track 8

Filename G:\New Rips\Robin Kenyatta - Stompin At The Savoy (1974) [FLAC]\08 - River Boat.wav

Pre-gap length 0:00:02.00

Peak level 96.2 %
Extraction speed 3.1 X
Track quality 100.0 %
Test CRC BC17E2A0
Copy CRC BC17E2A0
Track not present in AccurateRip database
Copy OK


None of the tracks are present in the AccurateRip database

No errors occurred

End of status report

–– CUETools DB Plugin V2.1.6

[CTDB TOCID: 73swKaF3YV.K5dVXlYa11KpZij0-] found
Submit result: 73swKaF3YV.K5dVXlYa11KpZij0- has been confirmed
Track | CTDB Status
1 | (1/1) Accurately ripped
2 | (1/1) Accurately ripped
3 | (1/1) Accurately ripped
4 | (1/1) Accurately ripped
5 | (1/1) Accurately ripped
6 | (1/1) Accurately ripped
7 | (1/1) Accurately ripped
8 | (1/1) Accurately ripped


==== Log checksum C6A6996190C2F94CBD38A51463900709B730695EC36A8CD9DAC3FABAAF229CF1 ====


Robin Kenyatta - Stompin' At The Savoy (1974) {Atlantic - Wounded Bird WOU 1658 rel 2008}

Robin Kenyatta - Stompin' At The Savoy (1974) {Atlantic - Wounded Bird WOU 1658 rel 2008}


===