Subcategories

Robin Trower - Bridge Of Sighs {MFSL Gold CD, 1996} (1974)

Posted By: stfine
Robin Trower - Bridge Of Sighs {MFSL Gold CD, 1996} (1974)

Robin Trower - Bridge Of Sighs {MFSL Gold CD, 1996} (1974)
EAC rip | FLAC image + cue + log + scans | 00:40:24 | 243 MB (3% rec.)
Blues, Rock | Label: MFSL, UDCD 684

The second and the most famous album by the English guitarist and songwriter Robin Trower. After leaving Procol Harum, this album was a breakthrough, and songs such as "Bridge of Sighs", "Too Rolling Stoned", "Day of the Eagle", and "Little Bit of Sympathy" have become live concert staples for Trower. The album was produced by his former Procol Harum bandmate, organist Matthew Fisher, and engineered by acclaimed Beatles engineer Geoff Emerick.
Amazon product page

Tracklist

1. Day Of The Eagle [05:02]
2. Bridge Of Sighs [05:01]
3. In This Place [04:30]
4. The Fool And Me [03:55]
5. Too Rolling Stoned [07:33]
6. About To Begin [03:48]
7. Lady Love [03:20]
8. Little Bit Of Sympathy [04:19]
9. Day Of The Eagle (Single Version) [02:56]

Total time 00:40:24

Exact Audio Copy V0.99 prebeta 4 from 23. January 2008

Отчёт EAC об извлечении, выполненном 22. июля 2011, 23:05

Robin Trower / Bridge Of Sighs MFSL Gold Disc

Дисковод: Optiarc DVD RW AD-7200A Adapter: 0 ID: 0

Режим чтения : Достоверность
Использование точного потока : Да
Отключение кэша аудио : Да
Использование указателей C2 : Нет

Коррекция смещения при чтении : 48
Способность читать области Lead-in и Lead-out : Нет
Заполнение пропущенных сэмплов тишиной : Да
Удаление блоков с тишиной в начале и конце : Нет
При вычислениях CRC использовались нулевые сэмплы : Да
Интерфейс : Встроенный Win32-интерфейс для Win NT/2000

Выходной формат : Пользовательский кодировщик
Выбранный битрейт : 768 kBit/s
Качество : Высокий
Добавление ID3-тэга : Нет
Утилита сжатия : C:\Program Files\Exact Audio Copy\FLAC\FLAC.EXE
Дополнительные параметры : -6 -V -T "ARTIST=%a" -T "TITLE=%t" -T "ALBUM=%g" -T "DATE=%y" -T "TRACKNUMBER=%n" -T "GENRE=%m" -T "COMMENT=%e" %s -o %d


TOC извлечённого CD

Трек | Старт | Длительность | Начальный сектор | Конечный сектор
––––––––––––––––––––––––––––––––––-
1 | 0:00.00 | 5:02.45 | 0 | 22694
2 | 5:02.45 | 5:01.52 | 22695 | 45321
3 | 10:04.22 | 4:30.05 | 45322 | 65576
4 | 14:34.27 | 3:55.08 | 65577 | 83209
5 | 18:29.35 | 7:33.65 | 83210 | 117249
6 | 26:03.25 | 3:48.62 | 117250 | 134411
7 | 29:52.12 | 3:20.13 | 134412 | 149424
8 | 33:12.25 | 4:19.37 | 149425 | 168886
9 | 37:31.62 | 2:56.25 | 168887 | 182111


Характеристики диапазона извлечения и сообщения об ошибках

Выбранный диапазон

Имя файла D:\images\Robin Trower - Bridge Of Sighs MFSL\Robin Trower - Bridge Of Sighs MFSL Gold Disc.wav

Пиковый уровень 100.0 %
Качество диапазона 100.0 %
CRC копии B2C2915B
Копирование… OK

Ошибок не произошло


AccurateRip: сводка

Трек 1 точное извлечение (доверие 5) [A814D77A]
Трек 2 точное извлечение (доверие 6) [B2482BC6]
Трек 3 точное извлечение (доверие 5) [A627E277]
Трек 4 точное извлечение (доверие 5) [DEC2CA50]
Трек 5 точное извлечение (доверие 5) [F3673CD3]
Трек 6 точное извлечение (доверие 5) [C55C24BF]
Трек 7 точное извлечение (доверие 5) [79B32457]
Трек 8 точное извлечение (доверие 5) [C4A6A4C1]
Трек 9 точное извлечение (доверие 5) [B301B04D]

Все треки извлечены точно

Конец отчёта

Recorded in 1974 at Olympic and AIR studios, London.

Personnel:
Robin Trower – guitar;
James Dewar – bass, vocals;
Reg Isidore – drums.

24 KT Gold disc released in Oct 1996. Produced by Matthew Fisher.

Robin Trower - Bridge Of Sighs {MFSL Gold CD, 1996} (1974)