Subcategories

Roy Orbison - Black & White Night 30 (Live) (2017)

Posted By: delpotro
Roy Orbison - Black & White Night 30 (Live) (2017)

Roy Orbison - Black & White Night 30 (Live) (2017)
EAC Rip | FLAC (tracks+log+.cue) | 01:06:00 | 417 Mb
Rock'n'Roll, Pop, Rockabilly | Label: Legacy Recordings

Amazingly, it has been 30 years since Roy Orbison‘s 1987 television ‘comeback’ show A Black & White Night. To mark the occasion ‘Roy’s Boys’ – Alex Orbison and Roy Orbison Jnr – have gone back to the source footage and audio and re-edited, remastered and, if you are feeling fanciful, ‘re-imagined’ the television special, to create an expanded audio/visual document that will be available on CD/Blu-ray or CD/DVD in February. The concert – filmed at Cocoanut Grove in Los Angeles – was shot using seven separate cameras and there were hundreds of hours of footage that went unused and unseen. Roy’s youngest son Alex has gone back to this source material and, with the help of co-editor Luke Chalk, re-edited to reflect the correct set order as seen by those who attended the show.
Tracklist:
1. Only The Lonely (Live) (2:38)
2. Leah (Live) (3:01)
3. In Dreams (Live) (3:03)
4. Crying (Live) (3:02)
5. Uptown (Live) (3:23)
6. The Comedians (Live) (3:30)
7. Blue Angel (Live) (3:05)
8. It's Over (Live) (3:13)
9. Running Scared (Live) (2:22)
10. Dream Baby (How Long Must I Dream) (Live) (3:44)
11. Mean Woman Blues (Live) (2:57)
12. Candy Man (Live) (3:30)
13. Ooby Dooby (Live) (4:08)
14. Blue Bayou (Live) (3:12)
15. Go! Go! Go! (Down The Line) (Live) (5:31)
16. (All I Can Do Is) Dream You (Live) (3:31)
17. Claudette (Live) (3:04)
18. Oh, Pretty Woman (Live) (Alt. Version) (2:52)
19. Oh, Pretty Woman (Live) (6:06)

Exact Audio Copy V1.1 from 23. June 2015

EAC extraction logfile from 18. March 2017, 16:17

Roy Orbison / Black & White Night 30

Used drive : Optiarc DVD RW AD-7260S Adapter: 1 ID: 0

Read mode : Secure
Utilize accurate stream : Yes
Defeat audio cache : Yes
Make use of C2 pointers : No

Read offset correction : 48
Overread into Lead-In and Lead-Out : No
Fill up missing offset samples with silence : Yes
Delete leading and trailing silent blocks : No
Null samples used in CRC calculations : Yes
Used interface : Native Win32 interface for Win NT & 2000
Gap handling : Appended to previous track

Used output format : User Defined Encoder
Selected bitrate : 1024 kBit/s
Quality : High
Add ID3 tag : No
Command line compressor : C:\Program Files\Exact Audio Copy\Flac\flac.exe
Additional command line options : -8 -V -T "ARTIST=%artist%" -T "TITLE=%title%" -T "ALBUM=%albumtitle%" -T "DATE=%year%" -T "TRACKNUMBER=%tracknr%" -T "GENRE=%genre%" -T "PERFORMER=%albuminterpret%" -T "COMPOSER=%composer%" %haslyrics%–tag-from-file=LYRICS="%lyricsfile%"%haslyrics% -T "ALBUMARTIST=%albumartist%" -T "DISCNUMBER=%cdnumber%" -T "TOTALDISCS=%totalcds%" -T "TOTALTRACKS=%numtracks%" -T "COMMENT=%comment%" %source% -o %dest%


TOC of the extracted CD

Track | Start | Length | Start sector | End sector
––––––––––––––––––––––––––––-
1 | 0:00.00 | 2:38.06 | 0 | 11855
2 | 2:38.06 | 3:01.08 | 11856 | 25438
3 | 5:39.14 | 3:02.66 | 25439 | 39154
4 | 8:42.05 | 3:02.36 | 39155 | 52840
5 | 11:44.41 | 3:22.64 | 52841 | 68054
6 | 15:07.30 | 3:30.36 | 68055 | 83840
7 | 18:37.66 | 3:05.00 | 83841 | 97715
8 | 21:42.66 | 3:14.01 | 97716 | 112266
9 | 24:56.67 | 2:22.23 | 112267 | 122939
10 | 27:19.15 | 3:47.19 | 122940 | 139983
11 | 31:06.34 | 2:56.55 | 139984 | 153238
12 | 34:03.14 | 3:29.59 | 153239 | 168972
13 | 37:32.73 | 4:08.42 | 168973 | 187614
14 | 41:41.40 | 3:11.57 | 187615 | 201996
15 | 44:53.22 | 5:31.36 | 201997 | 226857
16 | 50:24.58 | 3:31.66 | 226858 | 242748
17 | 53:56.49 | 3:04.47 | 242749 | 256595
18 | 57:01.21 | 2:52.54 | 256596 | 269549
19 | 59:54.00 | 6:06.65 | 269550 | 297064


Track 1

Filename D:\Audio\Roy Orbison\Live\1987 - Black & White Night 30 (FLAC)\01 - Only The Lonely.wav

Pre-gap length 0:00:02.00

Peak level 99.5 %
Extraction speed 2.2 X
Track quality 100.0 %
Test CRC 114CF438
Copy CRC 114CF438
Accurately ripped (confidence 1) [0C9038B0] (AR v2)
Copy OK

Track 2

Filename D:\Audio\Roy Orbison\Live\1987 - Black & White Night 30 (FLAC)\02 - Leah.wav

Peak level 99.5 %
Extraction speed 2.4 X
Track quality 100.0 %
Test CRC 4E9A1AC2
Copy CRC 4E9A1AC2
Accurately ripped (confidence 1) [69015751] (AR v2)
Copy OK

Track 3

Filename D:\Audio\Roy Orbison\Live\1987 - Black & White Night 30 (FLAC)\03 - In Dreams.wav

Peak level 99.5 %
Extraction speed 2.6 X
Track quality 100.0 %
Test CRC C2207947
Copy CRC C2207947
Accurately ripped (confidence 1) [8BB9ECC8] (AR v2)
Copy OK

Track 4

Filename D:\Audio\Roy Orbison\Live\1987 - Black & White Night 30 (FLAC)\04 - Crying.wav

Peak level 99.5 %
Extraction speed 2.7 X
Track quality 100.0 %
Test CRC 0F9C7D0F
Copy CRC 0F9C7D0F
Accurately ripped (confidence 1) [53677D03] (AR v2)
Copy OK

Track 5

Filename D:\Audio\Roy Orbison\Live\1987 - Black & White Night 30 (FLAC)\05 - Uptown.wav

Peak level 99.5 %
Extraction speed 2.6 X
Track quality 99.9 %
Test CRC 62053377
Copy CRC 62053377
Accurately ripped (confidence 1) [8B22DAE3] (AR v2)
Copy OK

Track 6

Filename D:\Audio\Roy Orbison\Live\1987 - Black & White Night 30 (FLAC)\06 - The Comedians.wav

Peak level 99.5 %
Extraction speed 2.8 X
Track quality 99.9 %
Test CRC 9CEBD04E
Copy CRC 9CEBD04E
Accurately ripped (confidence 1) [28811555] (AR v2)
Copy OK

Track 7

Filename D:\Audio\Roy Orbison\Live\1987 - Black & White Night 30 (FLAC)\07 - Blue Angel.wav

Peak level 99.5 %
Extraction speed 3.3 X
Track quality 100.0 %
Test CRC 468B1422
Copy CRC 468B1422
Accurately ripped (confidence 1) [5A6856D8] (AR v2)
Copy OK

Track 8

Filename D:\Audio\Roy Orbison\Live\1987 - Black & White Night 30 (FLAC)\08 - It's Over.wav

Peak level 99.5 %
Extraction speed 3.4 X
Track quality 100.0 %
Test CRC 45306A1B
Copy CRC 45306A1B
Accurately ripped (confidence 1) [5DDCE22C] (AR v2)
Copy OK

Track 9

Filename D:\Audio\Roy Orbison\Live\1987 - Black & White Night 30 (FLAC)\09 - Running Scared.wav

Peak level 99.5 %
Extraction speed 3.3 X
Track quality 100.0 %
Test CRC FB95140B
Copy CRC FB95140B
Accurately ripped (confidence 1) [F0C70089] (AR v2)
Copy OK

Track 10

Filename D:\Audio\Roy Orbison\Live\1987 - Black & White Night 30 (FLAC)\10 - Dream Baby (How Long Must I Dream).wav

Peak level 99.5 %
Extraction speed 3.8 X
Track quality 100.0 %
Test CRC 65CFD623
Copy CRC 65CFD623
Accurately ripped (confidence 1) [2267FBDC] (AR v2)
Copy OK

Track 11

Filename D:\Audio\Roy Orbison\Live\1987 - Black & White Night 30 (FLAC)\11 - Mean Woman Blues.wav

Peak level 99.5 %
Extraction speed 3.8 X
Track quality 100.0 %
Test CRC AA8DF607
Copy CRC AA8DF607
Accurately ripped (confidence 1) [9FF5DD52] (AR v2)
Copy OK

Track 12

Filename D:\Audio\Roy Orbison\Live\1987 - Black & White Night 30 (FLAC)\12 - Candy Man.wav

Peak level 99.5 %
Extraction speed 3.5 X
Track quality 99.9 %
Test CRC 968F0C9F
Copy CRC 968F0C9F
Accurately ripped (confidence 1) [16F0F397] (AR v2)
Copy OK

Track 13

Filename D:\Audio\Roy Orbison\Live\1987 - Black & White Night 30 (FLAC)\13 - Ooby Dooby.wav

Peak level 99.5 %
Extraction speed 4.2 X
Track quality 100.0 %
Test CRC F7A15275
Copy CRC F7A15275
Accurately ripped (confidence 1) [90C779BC] (AR v2)
Copy OK

Track 14

Filename D:\Audio\Roy Orbison\Live\1987 - Black & White Night 30 (FLAC)\14 - Blue Bayou.wav

Peak level 99.5 %
Extraction speed 4.2 X
Track quality 100.0 %
Test CRC 9550E357
Copy CRC 9550E357
Accurately ripped (confidence 1) [096325E9] (AR v2)
Copy OK

Track 15

Filename D:\Audio\Roy Orbison\Live\1987 - Black & White Night 30 (FLAC)\15 - Go! Go! Go! (Down The Line).wav

Peak level 99.5 %
Extraction speed 4.7 X
Track quality 100.0 %
Test CRC FF21B9FE
Copy CRC FF21B9FE
Accurately ripped (confidence 1) [CF59EE4E] (AR v2)
Copy OK

Track 16

Filename D:\Audio\Roy Orbison\Live\1987 - Black & White Night 30 (FLAC)\16 - (All I Can Do Is) Dream You.wav

Peak level 99.5 %
Extraction speed 4.6 X
Track quality 100.0 %
Test CRC 3421FBB2
Copy CRC 3421FBB2
Accurately ripped (confidence 1) [DEC19F4E] (AR v2)
Copy OK

Track 17

Filename D:\Audio\Roy Orbison\Live\1987 - Black & White Night 30 (FLAC)\17 - Claudette.wav

Peak level 99.5 %
Extraction speed 4.5 X
Track quality 100.0 %
Test CRC 255CB81B
Copy CRC 255CB81B
Accurately ripped (confidence 1) [645F69A6] (AR v2)
Copy OK

Track 18

Filename D:\Audio\Roy Orbison\Live\1987 - Black & White Night 30 (FLAC)\18 - Oh, Pretty Woman (Alternate Version).wav

Peak level 100.0 %
Extraction speed 4.6 X
Track quality 100.0 %
Test CRC 6CFC3AF6
Copy CRC 6CFC3AF6
Accurately ripped (confidence 1) [BF621AAF] (AR v2)
Copy OK

Track 19

Filename D:\Audio\Roy Orbison\Live\1987 - Black & White Night 30 (FLAC)\19 - Oh, Pretty Woman.wav

Peak level 99.5 %
Extraction speed 4.8 X
Track quality 99.9 %
Test CRC 4D7AB86D
Copy CRC 4D7AB86D
Accurately ripped (confidence 1) [20BAFCFA] (AR v2)
Copy OK


All tracks accurately ripped

No errors occurred

End of status report

–– CUETools DB Plugin V2.1.6

[CTDB TOCID: ._MNHa_Ifzw0VOFT.PLb_la424w-] found
Submit result: already submitted
Track | CTDB Status
1 | (20/20) Accurately ripped
2 | (20/20) Accurately ripped
3 | (20/20) Accurately ripped
4 | (20/20) Accurately ripped
5 | (20/20) Accurately ripped
6 | (20/20) Accurately ripped
7 | (20/20) Accurately ripped
8 | (20/20) Accurately ripped
9 | (20/20) Accurately ripped
10 | (20/20) Accurately ripped
11 | (20/20) Accurately ripped
12 | (20/20) Accurately ripped
13 | (20/20) Accurately ripped
14 | (20/20) Accurately ripped
15 | (20/20) Accurately ripped
16 | (20/20) Accurately ripped
17 | (20/20) Accurately ripped
18 | (20/20) Accurately ripped
19 | (20/20) Accurately ripped


==== Log checksum 7774BE2E8BD9B0143FDC49DE15F843293E19AB5865213F3B994718532BBEAF8D ====

Thanks to the Original ripper Barmaleo !